#TITLE:This Girl;
#SUBTITLE:(feat. Cookin' On 3 Burners);
#ARTIST:Kungs;
#TITLETRANSLIT:;
#SUBTITLETRANSLIT:;
#ARTISTTRANSLIT:;
#GENRE:;
#CREDIT:;
#BANNER:;
#BACKGROUND:this girl-bg.png;
#LYRICSPATH:;
#CDTITLE:;
#MUSIC:This Girl.ogg;
#OFFSET:-0.823890;
#SAMPLESTART:67.679916;
#SAMPLELENGTH:12.000000;
#SELECTABLE:YES;
#BPMS:0.000000=122.000000
;
#STOPS:
;
#BGCHANGES:;
#KEYSOUNDS:;
#ATTACKS:;

//---------------dance-single - ----------------
#NOTES:
     dance-single:
     :
     Beginner:
     1:
     0.106840,0.120517,0.009011,0.000000,0.000000,82.000000,1.000000,0.000000,0.000000,0.000000,0.000000,0.106840,0.120517,0.009011,0.000000,0.000000,82.000000,1.000000,0.000000,0.000000,0.000000,0.000000:
// measure 0
0000
0000
0000
0000
,  // measure 1
0000
0000
0000
0000
,  // measure 2
0000
0000
0000
0000
,  // measure 3
0000
0000
0000
0000
,  // measure 4
1000
0000
1000
0000
,  // measure 5
0001
0000
0000
0000
,  // measure 6
0001
0000
0001
0000
,  // measure 7
1000
0000
0000
0000
,  // measure 8
0010
0000
0010
0000
,  // measure 9
0100
0000
0000
0000
,  // measure 10
0001
0001
0001
0001
,  // measure 11
0001
0000
0000
0000
,  // measure 12
1000
0000
1000
0000
,  // measure 13
0100
0000
0000
0000
,  // measure 14
0010
0000
0010
0000
,  // measure 15
0001
0000
0000
0000
,  // measure 16
1000
0000
1000
0000
,  // measure 17
0010
0000
0000
0000
,  // measure 18
0100
0000
0100
0000
,  // measure 19
0100
0000
0100
0000
,  // measure 20
1001
0000
0000
0000
,  // measure 21
0001
0000
0000
0000
,  // measure 22
1000
0000
0000
0000
,  // measure 23
0001
0000
0000
0000
,  // measure 24
0100
0000
0000
0000
,  // measure 25
0010
0000
0000
0000
,  // measure 26
1000
0000
0000
0000
,  // measure 27
0001
0000
0000
0000
,  // measure 28
0010
0000
0000
0000
,  // measure 29
0100
0000
0000
0000
,  // measure 30
1000
0000
0000
0001
,  // measure 31
0001
0000
0000
0000
,  // measure 32
0100
0000
0000
0000
,  // measure 33
0000
0000
0010
0000
,  // measure 34
1000
0000
1000
0000
,  // measure 35
0001
0000
0001
0000
,  // measure 36
0100
0000
0100
0000
,  // measure 37
0010
0000
0010
0000
,  // measure 38
1000
0000
1000
0000
,  // measure 39
0100
0000
0100
0000
,  // measure 40
0010
0000
0010
0000
,  // measure 41
0001
0000
0001
0000
,  // measure 42
1000
0000
1000
0000
,  // measure 43
0010
0000
0010
0000
,  // measure 44
0100
0000
0100
0000
,  // measure 45
0001
0000
0001
0000
,  // measure 46
0010
0000
0010
0000
,  // measure 47
0100
0000
0100
0000
,  // measure 48
1000
0000
1000
0000
,  // measure 49
0001
0000
0001
0000
,  // measure 50
0100
0000
0010
0000
,  // measure 51
1000
0000
1000
0000
,  // measure 52
0100
0000
0010
0000
,  // measure 53
0001
0000
0001
0000
;

//---------------dance-single - ----------------
#NOTES:
     dance-single:
     :
     Easy:
     4:
     0.254872,0.266377,0.135159,0.072085,0.000000,175.000000,15.000000,8.000000,0.000000,0.000000,0.000000,0.254872,0.266377,0.135159,0.072085,0.000000,175.000000,15.000000,8.000000,0.000000,0.000000,0.000000:
0000
0000
0000
0000
,
0000
0000
0000
0000
,
0000
0000
0000
0000
,
0000
0000
0000
0000
,
1000
0100
1000
0100
,
1000
1000
0000
0000
,
0001
0100
0001
0100
,
0001
0001
0000
0000
,
0010
0001
1000
0100
,
1000
1000
0000
0000
,
0002
0100
0010
1000
,
1003
0000
1001
0000
,
0001
0100
0010
0100
,
0001
1000
1000
0000
,
0001
0010
0100
0000
,
0010
0001
0100
0100
,
0010
1000
0100
0010
,
0100
1000
0001
0001
,
0200
1000
0001
0010
,
0302
0010
1000
0100
,
1003
0000
0100
1000
,
0010
0100
0001
1000
,
0010
0000
1000
0010
,
0100
0001
0010
0100
,
1000
0000
0001
0100
,
0001
1000
0010
1000
,
0001
0000
1000
0100
,
1000
0001
0010
0001
,
1000
0000
0001
0100
,
0001
1000
0010
0100
,
0002
0000
0000
0000
0000
1000
0000
2003
,
0000
0000
0000
0000
,
3020
0000
0000
0230
0000
0000
0302
0000
,
0000
0013
0010
0100
,
1001
0110
0001
0010
,
0100
1000
0010
0101
,
0001
0010
0100
1000
,
0010
0100
0001
1100
,
1001
1001
0001
0100
,
0010
0100
0001
0011
,
0010
0100
1000
0010
,
0100
0001
1010
0101
,
1001
1000
0100
0010
,
0100
1000
0001
0011
,
0101
1000
0010
0100
,
0001
1000
0101
1001
,
1000
0100
1000
0010
,
0100
0001
1000
0000
,
0001
0010
0100
1000
,
0010
0100
0001
0000
,
1000
0100
0010
0001
,
0100
0010
1000
0000
,
0001
0100
0010
1000
,
0100
0010
0001
0001
;

//---------------dance-single - ----------------
#NOTES:
     dance-single:
     :
     Medium:
     6:
     0.319234,0.315541,0.117138,0.171202,0.000000,216.000000,13.000000,19.000000,0.000000,0.000000,0.000000,0.319234,0.315541,0.117138,0.171202,0.000000,216.000000,13.000000,19.000000,0.000000,0.000000,0.000000:
0000
0000
0000
0000
,
0000
0000
0000
0000
,
0000
0000
0000
0000
,
0000
0000
0000
0000
,
1000
0100
0010
0001
,
0100
0010
0100
0000
0000
0000
0010
0000
,
1000
0001
0010
0001
,
1000
0010
1000
0000
0000
0000
0001
0000
,
0010
0100
1000
0100
,
1000
0001
0100
0000
0000
0000
0001
0000
,
2000
0010
0100
0001
,
3001
0000
1000
0000
,
0001
0100
0010
0100
,
0001
0000
1000
0001
1000
0001
1000
0000
,
0001
0010
0100
1000
,
0010
0000
0100
0001
0100
0001
0100
0000
,
0001
0010
0100
1000
,
0010
0000
0100
0010
0100
0010
0100
0000
,
0020
1000
0100
1000
,
0230
0001
0010
0301
,
1001
0000
0001
0100
,
0010
1000
0100
0010
,
0100
0000
1000
0010
,
0100
0001
1000
0100
,
1000
0000
0001
0010
,
0001
0100
0010
1000
,
0100
0000
0010
0100
,
1000
0010
0100
0001
,
1000
0000
0001
0010
,
0100
1000
0010
0100
,
0102
0000
1000
0000
0010
0023
0000
0230
,
0000
0001
1000
0010
,
2300
0000
0000
3002
0000
0000
0203
0000
,
0000
0000
0310
1000
0100
0010
0001
0000
,
1001
0000
1001
0000
0001
1000
0010
0200
,
0000
0000
0301
0000
0010
0100
1000
0000
,
0001
0100
0001
0000
1000
0100
0000
0020
,
0000
0000
0130
1000
0010
0000
1001
0000
,
0101
0000
1010
0000
0001
0010
0100
2000
,
0000
0000
3100
0000
1000
0010
0100
0000
,
0001
0010
0001
0000
0100
0010
0000
0200
,
0000
0000
1300
0000
0100
0001
1000
0000
,
1100
0000
1010
0000
0010
0100
0001
0020
,
0000
0000
0130
0000
1000
0010
0100
0000
,
0001
1000
0100
0000
1000
0001
0000
0020
,
0000
0000
0130
0000
1000
0010
0100
0000
,
0001
0000
0101
0000
0001
0010
0000
0200
,
0000
0000
1300
0000
0010
0100
0010
0000
,
0100
0000
1001
0000
0001
0100
0000
0020
,
0000
0000
1030
0000
0100
0010
0100
0000
,
1000
0000
0101
0000
0001
1000
0000
0002
,
0000
0000
0103
0000
0001
1000
1000
0000
,
0001
0000
1100
0000
1000
0001
0000
2000
,
0000
0000
3100
0000
1000
0001
0001
1000
;

//---------------dance-single - ----------------
#NOTES:
     dance-single:
     :
     Hard:
     8:
     0.459542,0.436903,0.198234,0.180213,0.072085,315.000000,22.000000,20.000000,0.000000,0.000000,0.000000,0.459542,0.436903,0.198234,0.180213,0.072085,315.000000,22.000000,20.000000,0.000000,0.000000,0.000000:
0000
0000
0000
0000
,
0000
0000
0000
0000
,
0000
0000
0000
0000
,
0000
0000
0000
0000
,
1001
0000
1000
0100
0010
0000
0001
0100
,
0010
0000
0010
0000
0100
0000
0000
0100
0001
0000
1000
0000
0001
0100
0010
0000
,
1000
0100
0010
0100
1000
0000
0001
0100
,
0010
0000
0100
0000
0001
0000
0000
0001
1000
0000
0100
0000
1000
0100
1000
0000
,
0001
0010
0001
0100
0010
0000
0100
0001
,
0010
0000
0100
0000
1000
0000
0000
1000
0001
0000
0100
0000
0010
0100
0001
0000
,
2000
0010
0100
0001
,
3002
0010
0100
1003
,
1000
0010
0100
0001
1000
0000
0001
0010
,
0100
0000
0001
0100
1000
0010
0100
0000
,
1000
0100
0001
0010
,
0100
0000
0010
0001
0100
0010
0100
0000
,
0001
0000
0010
0100
1000
0000
0010
0100
,
0001
0100
0010
0010
1000
0100
0001
0000
,
0200
1000
0010
0001
,
0320
1000
0100
0001
,
0130
0000
1001
0000
0001
0100
0010
0100
,
0000
0001
0010
0100
0000
0100
1000
0010
,
0100
0000
1010
0000
0010
1000
0100
0001
,
0000
0001
0100
0010
0000
0010
0001
0100
,
0010
0000
0101
0000
1000
0010
0100
1000
,
0000
1000
0100
0010
0000
0010
1000
0100
,
0010
0000
0011
0000
0001
0100
0010
0100
,
0000
0100
0001
0010
0000
0010
0100
1000
,
0001
0000
1010
0000
1000
0100
0010
0100
,
0000
0100
1000
0010
0000
0010
0100
1000
,
0200
0000
0001
0000
0010
0320
0000
2030
,
0000
0100
0001
0010
,
3002
0000
0100
0203
0000
0010
0320
0000
,
1000
1030
0100
0001
0100
0010
1001
0000
,
0101
0000
1010
0000
0001
0100
1000
0200
,
0001
0000
0301
0010
0100
0010
1001
0000
,
0001
0100
1000
1000
0001
0010
1000
0200
,
0001
0000
0301
0100
1000
0010
1001
0000
,
0101
0000
0000
0010
1000
0010
1000
0000
0100
0000
0010
0000
0001
0000
0200
0000
,
1000
0000
1300
0100
0001
0010
1001
0000
,
0001
0010
1000
1000
0001
0100
1000
0200
,
0001
0000
0301
0100
1000
0010
1001
0000
,
0011
0000
1100
0000
0001
0100
1000
0200
,
0001
0000
0301
0010
0100
0010
1001
0000
,
0001
0010
0100
0001
0100
1000
0010
0200
,
1000
0000
1300
0100
0001
0010
1001
0000
,
1000
0000
0101
0000
0001
0010
0100
2000
,
0100
0000
0000
0000
3100
0000
0000
1000
0001
0000
0001
0000
1000
0010
1000
0000
,
0001
0000
1010
0000
1000
0100
0010
0002
,
1000
0000
0000
0000
1003
0000
0000
0001
0100
0000
0100
0000
0001
0100
0001
0000
,
0100
0000
1001
0000
0010
0100
0001
2000
,
0100
0000
0000
0000
3100
0000
0000
0010
0100
0000
0100
0000
0010
0100
0010
0000
,
0100
0000
1001
0000
0001
0100
0010
0200
,
0000
0000
0000
0000
0310
0000
0000
1000
0100
0000
0100
0000
1000
0100
1000
0000
;
