#TITLE:Strapped For Cash;
#SUBTITLE:;
#ARTIST:Fountains of Wayne;
#TITLETRANSLIT:;
#SUBTITLETRANSLIT:;
#ARTISTTRANSLIT:;
#GENRE:;
#CREDIT:;
#BANNER:[Show & Tell] - Strapped For Cash.png;
#BACKGROUND:[Show & Tell] - Strapped For Cash-bg.png;
#LYRICSPATH:;
#CDTITLE:cdtitle.png;
#MUSIC:[Show & Tell] - Strapped For Cash.ogg;
#OFFSET:-0.015000;
#SAMPLESTART:55.599998;
#SAMPLELENGTH:15.800000;
#LASTBEATHINT:199.388779;
#SELECTABLE:YES;
#BPMS:0.000000=120.859993
;
#STOPS:
;
#BGCHANGES:;
#KEYSOUNDS:;
#ATTACKS:;

//---------------dance-single - ----------------
#NOTES:
     dance-single:
     :
     Beginner:
     1:
     0.135917,0.188281,0.050075,0.050075,0.000000,95.000000,90.000000,5.000000,5.000000,0.000000,0.000000,0.135917,0.188281,0.050075,0.050075,0.000000,95.000000,90.000000,5.000000,5.000000,0.000000,0.000000:
0000
0000
0000
0000
,
0000
0000
0000
0000
,
0000
0000
0000
0000
,
0000
0000
0000
0000
,
1000
0000
0100
0000
,
0010
0000
0001
0000
,
0001
0000
0100
0000
,
0010
0000
1000
0000
,
0010
0000
1000
0000
,
1000
0000
0001
0000
,
0200
0000
0010
0000
,
0310
0000
1001
0000
,
0010
0000
0001
0000
,
0001
0000
1000
0000
,
0020
0000
0100
0000
,
0130
0000
0110
0000
,
1000
0000
1000
0000
,
0001
0000
0001
0000
,
0100
0000
0100
0000
,
0010
0000
0010
0000
,
1000
0000
0100
0000
,
0001
0000
0100
0000
,
1000
0000
0010
0000
,
0100
0000
0001
0000
,
0010
0000
0010
0000
,
0100
0000
0100
0000
,
1000
0000
1000
0000
,
0001
0000
0001
0000
,
0010
0000
0100
0000
,
1000
0000
1000
0000
,
0002
0000
0010
0000
,
0013
0000
1001
0000
,
0010
0000
0100
0000
,
0001
0000
0001
0000
,
2000
0000
0100
0000
,
3100
0100
0100
0100
,
0110
0000
1000
0000
,
1000
0000
0001
0000
,
0001
0000
0100
0100
,
0200
0000
0310
0000
,
0110
0000
0001
0000
,
0001
0000
1000
0000
,
1000
0000
0010
0000
,
0100
0000
0001
0000
,
1000
0000
0001
0000
,
0001
0000
1000
0000
,
0010
0000
0100
0000
,
0100
0000
0000
0000
;

//---------------dance-single - ----------------
#NOTES:
     dance-single:
     :
     Easy:
     3:
     0.246081,0.310838,0.170254,0.150224,0.000000,172.000000,155.000000,17.000000,15.000000,0.000000,0.000000,0.246081,0.310838,0.170254,0.150224,0.000000,172.000000,155.000000,17.000000,15.000000,0.000000,0.000000:
0000
0000
0000
0000
,
0000
0000
0000
0000
,
0000
0000
0000
0000
,
0000
0000
0000
0000
,
0100
0100
0010
0000
,
1000
1000
0001
1001
,
0100
0100
0010
0000
,
0001
0001
1000
0110
,
0001
0010
0100
1000
,
0001
0001
1000
1000
,
0200
0000
1000
0010
,
1000
0310
0000
1001
,
1000
0010
0100
0001
,
0010
0100
0100
0010
,
0002
0000
0100
0010
,
0100
0013
0000
1001
,
1000
0010
0100
0100
,
0001
0010
0100
0100
,
1000
0001
0010
0010
,
0001
1000
0010
0110
,
0001
0100
1000
0100
,
0001
1000
1000
0001
,
0000
1000
0010
0001
,
0010
1000
0001
0110
,
0100
0001
1000
0010
,
1000
0001
0010
0000
,
0001
0010
0100
1000
,
0010
0100
1000
0001
,
0010
0010
0100
0100
,
0110
1010
0101
0000
,
0001
0100
1000
0200
,
0010
0010
0310
1001
,
1000
1000
0001
0001
,
1001
1100
0011
0000
,
0010
0001
0100
0002
,
1003
1001
0110
1001
,
0100
0100
2000
3000
,
0001
0001
0200
0300
,
0010
1000
2001
0001
,
3001
0100
0010
0000
,
0100
0100
0002
0003
,
1000
1000
0020
0030
,
0100
0001
0010
0100
,
1000
0001
1000
0000
,
0020
1000
2000
3030
,
0200
0001
0002
0303
,
0001
0010
0100
2000
,
0002
0000
0000
3003
;

//---------------dance-single - ----------------
#NOTES:
     dance-single:
     :
     Hard:
     6:
     0.403458,0.478213,0.260388,0.280418,0.000000,282.000000,256.000000,26.000000,28.000000,0.000000,0.000000,0.403458,0.478213,0.260388,0.280418,0.000000,282.000000,256.000000,26.000000,28.000000,0.000000,0.000000:
// measure 0
0000
0000
0000
0000
,  // measure 1
0000
0000
0000
0000
,  // measure 2
0000
0000
0000
0000
,  // measure 3
0000
0000
0000
0000
,  // measure 4
1000
1000
1000
0000
0100
0100
0100
0000
,  // measure 5
0010
0010
0010
0000
0001
0001
1001
0000
,  // measure 6
0001
0001
0001
0000
0100
0100
0100
0000
,  // measure 7
0010
0010
0010
1000
0001
0010
0100
1000
,  // measure 8
1010
0000
0101
0000
0100
0001
0010
0200
,  // measure 9
0000
0000
1300
0000
0001
0010
0100
2000
,  // measure 10
0000
0000
0100
0100
0001
0010
0100
0100
,  // measure 11
0001
3010
0000
0100
0000
0100
1001
0000
,  // measure 12
0011
0000
1100
0000
1000
0010
0100
0002
,  // measure 13
0000
0000
1003
0000
0010
1000
0001
0200
,  // measure 14
0000
0000
0001
0001
1000
0010
0001
0001
,  // measure 15
1000
0310
0000
0100
0000
0001
1000
0100
,  // measure 16
1000
0010
0001
0010
0000
0000
0100
0001
,  // measure 17
1000
0010
0001
0010
1000
0001
0000
0000
,  // measure 18
1000
0100
0001
0100
1000
0001
1000
0000
,  // measure 19
0001
0010
1000
0010
0001
1000
0100
0010
,  // measure 20
0000
0000
0001
0100
1000
0100
0001
1000
,  // measure 21
0000
0001
0010
0100
1000
0010
0001
0010
,  // measure 22
0000
0000
2000
0000
3001
0001
0000
1000
,  // measure 23
1000
0010
0100
0001
1000
0001
0000
0000
,  // measure 24
0010
0100
1000
0100
0001
0100
1000
0001
,  // measure 25
0100
1000
0100
0002
0000
0000
0000
1003
,  // measure 26
1000
0001
0010
1000
0001
0100
1000
0001
,  // measure 27
0100
0001
0010
0100
0000
0110
1001
0000
,  // measure 28
0011
0000
1010
0100
0001
0010
0100
1000
,  // measure 29
1001
0000
0011
1001
0000
0001
1000
0200
,  // measure 30
0000
0000
0010
1000
0010
0000
2300
0001
,  // measure 31
0010
3002
0100
0010
0000
1000
0013
0000
,  // measure 32
0101
0000
1100
1000
0010
0100
0001
0010
,  // measure 33
0110
0000
1100
0110
0000
0010
0001
0200
,  // measure 34
0000
0302
0010
1000
0023
0000
0000
0130
,  // measure 35
1000
0002
0010
0010
0010
0010
0010
1000
,  // measure 36
0203
0000
0001
0000
0010
0001
0000
0001
,  // measure 37
0320
0000
1000
0000
0100
1000
0000
2030
,  // measure 38
0000
0000
3001
0000
0011
0000
1100
2002
,  // measure 39
0000
0003
3010
0100
0001
0010
0100
1000
,  // measure 40
1020
0000
0100
0000
0001
0100
0000
2030
,  // measure 41
3200
0000
1000
0000
0010
0001
0000
0320
,  // measure 42
0000
0030
0110
0000
0010
0001
0000
0001
,  // measure 43
1000
0000
1000
0010
0000
0100
0001
0010
,  // measure 44
0110
0000
1002
0000
0010
2003
0000
0010
,  // measure 45
3001
0000
0210
0000
0001
0320
0000
1030
,  // measure 46
0100
0010
0001
1000
0010
0100
0002
2000
,  // measure 47
0000
0000
0000
3003
;

//---------------dance-single - ----------------
#NOTES:
     dance-single:
     :
     Medium:
     5:
     0.319047,0.358659,0.120179,0.110164,0.000000,223.000000,211.000000,12.000000,11.000000,0.000000,0.000000,0.319047,0.358659,0.120179,0.110164,0.000000,223.000000,211.000000,12.000000,11.000000,0.000000,0.000000:
0000
0000
0000
0000
,
0000
0000
0000
0000
,
0000
0000
0000
0000
,
0000
0000
0000
0000
,
0001
0001
1000
1000
,
0100
0100
0010
0110
,
1000
1000
0001
0001
,
0010
0000
0010
0000
0001
1000
1001
0000
,
0010
0000
1000
0000
0100
0010
0000
0002
,
0000
0000
1003
0000
1000
0010
0100
0002
,
0000
0000
0003
0100
0001
0010
0000
0100
,
1000
0010
0000
1000
0000
1000
0001
0000
,
0010
0000
0001
0000
0100
0010
0000
2000
,
0000
0000
3001
0000
0001
0010
0100
2000
,
0000
0000
3000
0001
0100
0010
0000
1000
,
0100
0010
0000
0100
0000
0100
0010
0000
,
0001
0010
0001
0010
0000
0000
0100
0000
,
1000
0010
1000
0000
1001
0000
0000
0000
,
0001
0100
0001
0000
1000
0100
1000
0000
,
0010
0100
0010
0000
1000
0000
0001
0000
,
1000
0000
0100
1000
0010
0000
0100
0000
,
0001
0100
0010
1000
0001
0000
1000
0001
,
0000
0011
1010
0000
,
0101
0000
1100
0000
1000
0100
0010
0001
,
1000
0000
0100
1000
0100
1000
0100
0000
,
0010
0001
0010
0001
0000
0000
1001
0000
,
0100
0010
0001
0000
0100
0010
1000
0000
,
0001
1000
0010
0100
0000
0000
1001
0000
,
0010
0000
1000
0000
0100
0010
0000
0002
,
0000
0000
1003
0000
0010
1000
0001
0100
,
0000
0000
0001
0100
0001
0000
1000
0100
,
1000
0000
0010
0100
0010
0100
0001
0000
,
0010
0000
0001
0000
0100
0010
0000
2000
,
0000
0000
3001
0000
0010
0001
1000
0100
,
0000
0000
1000
0100
1000
0000
0000
0001
,
0100
0000
0010
0010
0010
0000
0110
0000
,
0001
0000
0001
0000
0100
0001
0000
0001
,
1000
0000
1000
0000
0100
1000
0000
2000
,
0000
0000
3001
0000
0011
0000
0100
2000
,
0000
0000
3001
0000
0010
0100
1001
0000
,
1000
0000
1000
0000
0010
1000
0000
1000
,
0001
0000
0001
0000
0010
0001
0000
0002
,
0000
0000
0013
0000
0001
0010
0000
0100
,
1000
0000
1000
0010
0000
0100
0001
0010
,
0100
0000
0100
0000
1000
0010
0000
0010
,
0100
0000
0100
0000
0001
0010
0000
0010
,
0100
0000
1000
0001
1000
0000
0020
0200
,
0000
0000
0000
0330
;
