#TITLE:Stop the Rock;
#SUBTITLE:;
#ARTIST:Apollo 440;
#TITLETRANSLIT:;
#SUBTITLETRANSLIT:;
#ARTISTTRANSLIT:;
#GENRE:;
#CREDIT:;
#BANNER:[Show & Tell] - Stop the Rock.png;
#BACKGROUND:[Show & Tell] - Stop the Rock-bg.png;
#LYRICSPATH:;
#CDTITLE:;
#MUSIC:[Show & Tell] - Stop the Rock.ogg;
#OFFSET:-0.158000;
#SAMPLESTART:38.400040;
#SAMPLELENGTH:14.999992;
#SELECTABLE:YES;
#BPMS:0.000000=150.000000
;
#STOPS:
;
#BGCHANGES:;
#KEYSOUNDS:;
#ATTACKS:;

//---------------dance-single - ----------------
#NOTES:
     dance-single:
     :
     Beginner:
     1:
     0.160810,0.216541,0.034372,0.000000,0.000000,131.000000,127.000000,4.000000,0.000000,0.000000,0.000000,0.160810,0.216541,0.034372,0.000000,0.000000,131.000000,127.000000,4.000000,0.000000,0.000000,0.000000:
0000
0000
0000
0000
,
0000
0000
0000
0000
,
0000
0000
0000
0000
,
0000
0000
0000
0000
,
0100
0000
0000
0000
,
0010
0000
0000
0000
,
1000
0000
0000
0000
,
0001
0000
0000
0000
,
0100
0000
0100
0000
,
0000
0000
0000
0000
,
0010
0000
0010
0000
,
0000
0000
0000
0000
,
1000
0000
1000
0000
,
0000
0000
0000
0000
,
0001
0000
0001
0000
,
0100
0000
0010
0000
,
1000
0000
1000
0000
,
0100
0000
1000
0000
,
0010
0000
0010
0000
,
0100
0000
0010
0000
,
0001
0000
0001
0000
,
1000
0000
0001
0000
,
0100
0000
0010
0000
,
1000
0000
0001
0000
,
0100
0000
0010
0000
,
1000
0000
0001
0000
,
1001
0000
0100
0000
,
0010
0000
1000
0000
,
0100
0000
1000
0000
,
0001
0000
0100
0000
,
0001
0000
0010
0000
,
0001
0000
0100
0000
,
0110
0000
0010
0000
,
1000
0000
0001
0000
,
0100
0000
0001
0000
,
1000
0000
0010
0000
,
0110
0000
0010
0000
,
1000
0000
0001
0000
,
0110
0000
0001
0000
,
0010
0000
0100
0000
,
0010
0010
0010
0000
,
1000
0000
0001
0000
,
1000
1000
1000
0000
,
0100
0000
0010
0000
,
0001
0001
0001
0000
,
1000
0000
0010
0000
,
1000
1000
1000
0000
,
0100
0000
1000
0000
,
0001
0001
0001
0000
,
0010
0000
0000
0000
,
0100
0000
0000
0000
,
1000
0000
0000
0000
,
0010
0010
0010
0000
,
0100
0000
0000
0000
,
0001
0000
0000
0000
,
1000
0000
0000
0000
,
0010
0000
0010
0000
,
0100
0000
0100
0000
,
0001
0000
1000
0000
,
0010
0000
1000
0000
,
0100
0000
0010
0000
,
0001
0000
1000
0000
,
0010
0000
1000
0000
,
0100
0000
1000
0000
,
0001
0000
0001
0000
,
1000
0000
0001
0000
,
0010
0000
0010
0000
,
0100
0000
0010
0000
,
0001
0000
0001
0000
,
1000
0000
0001
0000
,
1000
0000
1000
0000
,
0010
0000
1000
0000
,
0001
0000
0000
0000
;

//---------------dance-single - ----------------
#NOTES:
     dance-single:
     :
     Easy:
     4:
     0.246739,0.278410,0.000000,0.060150,0.000000,201.000000,201.000000,0.000000,7.000000,0.000000,0.000000,0.246739,0.278410,0.000000,0.060150,0.000000,201.000000,201.000000,0.000000,7.000000,0.000000,0.000000:
0000
0000
0000
0000
,
0000
0000
0000
0000
,
0000
0000
0000
0000
,
0000
0000
0000
0000
,
0100
0000
0010
0000
,
1000
0000
0001
0000
,
0100
0000
0001
0000
,
0010
0000
0100
0000
,
0020
0030
0010
0000
,
0001
0000
1000
0000
,
0002
0003
0001
0000
,
1000
0000
0010
0000
,
0200
0300
0100
0000
,
0010
0000
1000
0000
,
0200
0000
0300
0000
0100
0000
0000
1000
,
0000
0100
0000
0000
1000
0000
0000
0000
,
0100
1000
0010
0000
,
0100
0001
1000
0000
,
0001
0010
0100
0000
,
0010
0001
1000
0000
,
0100
1000
0010
0000
,
1000
0010
0100
0000
,
0001
0000
0010
0000
0100
0000
0000
0010
,
0000
0100
0000
0000
0010
0000
0000
0000
,
0001
0000
1000
0000
0001
0000
0000
0100
,
0000
0010
0000
0000
0100
0000
0000
0000
,
0010
0000
1000
0000
0100
0000
0000
1000
,
0000
0100
0000
0000
1000
0000
0000
0000
,
0100
0000
1000
0000
0001
0000
0000
0100
,
0000
0001
0000
0000
0010
0000
0000
0000
,
0100
0000
0010
0000
0001
0000
0000
1000
,
0000
0001
0000
0000
0100
0000
0000
0000
,
0010
1000
0010
0100
,
0001
1000
0100
0000
,
1000
0100
0010
0100
,
1000
0001
1000
0000
,
0001
0100
0001
0010
,
0100
0010
0001
0000
,
1000
0010
0100
0001
,
2000
0000
0000
3000
,
0001
0000
0100
0000
0001
0000
0000
1000
,
0000
0100
0000
0000
0010
0000
0000
0000
,
0001
0000
0010
0000
0100
0000
0000
1000
,
0000
0100
0000
0000
1000
0000
0000
0000
,
0001
0000
0100
0000
0001
0000
0000
0010
,
0000
0001
0000
0000
1000
0000
0000
0000
,
0001
0000
0100
0000
0010
0000
0000
1000
,
0000
0010
0000
0000
0100
0000
0000
0000
,
0001
0100
0010
0000
,
1000
0000
0000
0010
0000
0000
0000
0100
,
0000
0001
1000
0000
,
0100
0000
0000
1000
0000
0000
0000
0100
,
0000
0010
0001
0000
,
0100
0000
0000
0001
0000
0000
0000
1000
,
0000
0100
1000
0000
,
0020
0000
0000
0030
0000
0000
0000
0000
,
0100
0010
1000
0001
,
0100
0001
0010
0000
,
0100
0010
0001
1000
,
0010
1000
0001
0000
,
0100
0001
1000
0100
,
1000
0001
0010
0000
,
0001
0010
0100
1000
,
0020
0000
0000
0030
,
0100
0010
1000
0001
,
0100
0001
0010
0100
,
0010
0001
1000
0010
,
0100
0001
1000
0100
,
1000
0010
0100
0001
,
0010
0100
0010
0001
,
1000
0010
0100
0001
,
1000
0001
0010
0100
,
1000
0000
0000
0000
;

//---------------dance-single - ----------------
#NOTES:
     dance-single:
     :
     Medium:
     6:
     0.412460,0.433083,0.060150,0.094522,0.000000,336.000000,329.000000,7.000000,11.000000,0.000000,0.000000,0.412460,0.433083,0.060150,0.094522,0.000000,336.000000,329.000000,7.000000,11.000000,0.000000,0.000000:
0000
0000
0000
0000
,
0000
0000
0000
0000
,
0000
0000
0000
0000
,
0000
0000
0000
0000
,
1000
0001
0100
0001
,
0010
0100
0010
0001
,
1000
0010
0100
0001
,
1000
0100
1000
0001
,
0200
0000
0300
0001
0200
0000
0300
0000
,
0001
1000
0100
0010
,
0002
0000
0003
0010
0002
0000
0003
0000
,
1000
0010
0100
0001
,
2000
0000
3000
0100
2000
0000
3000
0000
,
0100
1000
0010
0100
,
0002
0000
0003
1000
0002
0000
0003
1000
,
0000
0010
0000
1000
0010
0100
0001
0000
,
1000
0000
0100
1000
0100
0000
0010
0000
,
0001
0100
0010
1000
,
0001
0000
0100
0001
0100
0000
0001
0000
,
0010
0100
1000
0001
,
0100
0000
0001
1000
0001
0000
1000
0000
,
0100
0010
0100
0010
,
0001
0000
0010
0001
0010
0000
0001
0010
,
0000
0100
0000
1000
0100
0010
0001
0000
,
0011
0000
0010
0001
0010
0000
0100
0010
,
0000
0100
0000
1000
0100
1000
0100
0000
,
0010
0000
0100
0010
0100
0000
1000
0010
,
0000
1000
0000
0010
1000
0001
0100
0000
,
0001
0000
0100
0001
0100
0000
0001
1000
,
0000
0001
0000
1000
0100
1000
0100
0000
,
0010
0000
0010
0001
0010
0000
0001
0010
,
0000
0100
0000
0010
0100
0010
0001
0000
,
1001
0000
0001
0000
1000
0001
0100
0000
,
0001
1000
0000
0100
0000
0000
0010
0000
,
0001
0000
1000
0000
0001
1000
0001
0000
,
0100
0010
0000
1000
0000
0000
0100
0000
,
0010
0000
0001
0000
0010
0001
0010
0000
,
0100
0010
0000
0001
0000
0000
1000
0000
,
0010
0000
1000
0000
0010
1000
0001
0000
,
2002
0000
0000
3003
,
1000
0001
1000
0001
1000
0001
0000
0100
,
0000
0010
0000
1000
0001
0000
0000
0000
,
0010
0100
0010
0100
0010
0100
0000
0010
,
0000
0001
0000
1000
0001
0000
0000
0000
,
1000
0100
1000
0100
1000
0100
0000
0010
,
0000
0100
0000
0010
0001
0000
0000
0000
,
0010
0001
0010
0001
0010
0001
0000
1000
,
0000
0010
0000
0100
0001
1000
0001
0000
,
1000
0100
1000
0100
0010
0100
0000
0010
,
0100
0000
0010
0001
0000
1000
0000
0001
,
0000
0100
0010
1000
0001
0100
0000
0000
,
0001
0100
0001
1000
0000
0100
0000
0010
,
0000
0100
0010
0001
0010
0001
0000
1000
,
0010
0000
0100
0001
0000
1000
0000
0100
,
0000
1000
0100
0010
0001
1000
0000
0000
,
0200
0000
0000
0300
,
0010
0000
0001
0000
1000
0001
0010
0000
,
0100
0010
0000
0001
0000
1000
0010
0000
,
0100
0000
0010
0000
0010
1000
0010
0000
,
1000
0001
0000
0100
0000
0001
0010
0000
,
0100
0000
0010
0000
0001
1000
0001
0000
,
0100
0010
0000
1000
0000
0010
1000
0000
,
0010
0000
1000
0000
1000
0010
0100
0000
,
0001
0010
0000
0100
0010
0100
0010
0000
,
0011
0000
0001
0010
0100
0000
1000
0100
,
0000
0010
0000
0001
0010
0001
1000
0000
,
1001
0000
0001
1000
0010
0000
1000
0010
,
0000
0100
0000
0001
0010
0100
1000
0000
,
1100
0000
0100
1000
0010
0000
0100
0010
,
0000
1000
0000
0001
0100
0001
0010
0000
,
0011
0000
0010
0001
0100
0000
0010
1000
,
0000
0100
0000
1000
0100
0010
0001
0000
,
1000
0000
0000
0000
;

//---------------dance-single - ----------------
#NOTES:
     dance-single:
     :
     Challenge:
     9:
     0.639558,0.680559,0.326531,0.137487,0.137487,521.000000,483.000000,38.000000,16.000000,0.000000,0.000000,0.639558,0.680559,0.326531,0.137487,0.137487,521.000000,483.000000,38.000000,16.000000,0.000000,0.000000:
// measure 0
0000
0000
0000
0000
,  // measure 1
0000
0000
0000
0000
,  // measure 2
0000
0000
0000
0000
,  // measure 3
0000
0000
0000
0000
,  // measure 4
0001
0000
0100
0000
0010
0000
1000
0100
,  // measure 5
0100
0100
0001
0100
1000
0010
0001
0010
,  // measure 6
1000
0000
0010
0000
0100
0000
0001
0100
,  // measure 7
0100
0100
1000
0100
0001
0100
1000
0100
,  // measure 8
0001
0000
0010
0001
1000
0000
0010
1000
,  // measure 9
1000
1000
0001
0010
1000
0010
0001
0100
,  // measure 10
0010
0000
1000
0010
0100
0000
0001
0010
,  // measure 11
0010
0010
1000
0100
0001
0100
1000
0010
,  // measure 12
0001
0000
0010
0100
1000
0000
0100
1000
,  // measure 13
1000
1000
0100
0001
0100
1000
0010
0001
,  // measure 14
0010
0000
1000
0010
0100
0000
0001
0011
,  // measure 15
0000
0110
0000
1000
0100
0010
0001
0000
,  // measure 16
1000
0000
0001
0000
1000
0000
0001
0100
0001
0000
0100
0000
0010
0000
0000
0000
,  // measure 17
1000
0000
0010
0000
0100
0000
0001
0000
0010
0001
0010
0000
0001
0000
0000
0000
,  // measure 18
0010
0000
0100
0000
1000
0000
0100
0010
0100
0000
0010
0000
0100
0000
0000
0000
,  // measure 19
1000
0100
1000
0001
0100
1001
0000
0110
,  // measure 20
0010
0000
1000
0000
0010
0000
1000
0010
1000
0000
0001
0000
0100
0000
0000
0000
,  // measure 21
0001
0000
0010
0000
0100
0000
1000
0000
0100
1000
0100
0000
0010
0000
0100
0000
,  // measure 22
0010
0000
0001
0000
0010
0000
0001
0010
0001
0000
1000
0000
0001
0000
1001
0000
,  // measure 23
0000
0000
0110
0000
0000
0000
1000
0000
0010
0000
0100
0000
0001
1000
0001
0000
,  // measure 24
0100
0000
0010
0000
1000
0000
0010
1000
0010
0000
1000
0000
0010
0000
0110
0000
,  // measure 25
0000
0000
1001
0000
0000
0000
0100
0000
0001
0000
0010
0000
0100
0000
0000
0010
,  // measure 26
0100
0000
1000
0000
0100
0000
0010
0001
0010
0000
0001
0000
0100
0000
0110
0000
,  // measure 27
0000
1010
0000
1000
0010
0100
0001
0100
,  // measure 28
0001
0000
0010
0000
0001
0000
0010
0001
0010
0000
0100
0000
1000
0000
1100
0000
,  // measure 29
0000
0011
0000
0010
0100
0010
0001
0000
,  // measure 30
0010
0000
0100
0000
0010
0000
0001
0010
0001
0000
1000
0000
0010
0000
1010
0000
,  // measure 31
0000
0000
0110
0000
0000
0000
0100
0000
0001
0000
0010
0000
0001
0100
0001
0000
,  // measure 32
1000
0010
0100
0001
0010
0010
0001
1000
,  // measure 33
0001
0001
0010
0200
0000
1300
0100
0000
,  // measure 34
0010
0001
1000
0010
0100
0100
0010
1000
,  // measure 35
0001
0001
0100
0002
0000
0013
0001
0010
,  // measure 36
0100
1000
0100
0010
0001
0001
1000
0010
,  // measure 37
0100
0100
0001
2000
0000
3001
1000
0000
,  // measure 38
0001
0100
0001
0010
0100
0100
1000
0001
,  // measure 39
0010
0000
0010
0000
0001
0000
0000
1000
0001
0000
1000
0000
0001
1000
0001
0000
,  // measure 40
0100
0010
1000
0100
0010
0001
0000
0011
,  // measure 41
0000
0110
0000
1000
0100
0010
0001
0000
,  // measure 42
1000
0001
0100
0010
1000
0010
0000
1010
,  // measure 43
0000
0101
0000
0010
0001
0010
0100
0010
,  // measure 44
0100
1000
0001
0100
0010
1000
0000
1010
,  // measure 45
0000
0101
0000
0001
0010
0100
0010
0000
,  // measure 46
0001
1000
0010
0100
0010
1000
0000
1010
,  // measure 47
0000
0101
0000
0001
0010
0100
1000
0100
,  // measure 48
0010
0001
1000
0010
0100
0020
0000
1030
,  // measure 49
0020
0000
0130
0020
0000
0130
0000
0101
,  // measure 50
0000
0001
0010
0100
1000
0200
0000
0000
,  // measure 51
0310
0100
0010
0011
0000
1001
0000
1010
,  // measure 52
0000
0010
1000
0001
0100
0002
0000
0013
,  // measure 53
0002
0000
0013
0200
0000
1300
0000
1010
,  // measure 54
0000
1000
0010
0100
0010
2000
0000
3000
,  // measure 55
0010
1000
0001
0101
0000
2002
0000
3003
,  // measure 56
1000
0000
0001
0000
0100
0000
0000
0001
0010
0000
0100
0000
1000
0000
0000
0000
,  // measure 57
0100
0010
0001
2000
0000
3001
1000
0010
,  // measure 58
0100
0000
0010
0000
1000
0000
0000
0010
1000
0000
0001
0000
0100
0000
0000
0000
,  // measure 59
0001
0010
0100
2000
0000
3100
1000
0100
,  // measure 60
0010
0000
0001
0000
0010
0000
0000
0001
0010
0000
0100
0000
1000
0000
0000
0000
,  // measure 61
0100
1000
0010
0200
0000
0310
1000
0001
,  // measure 62
0100
0000
0001
0000
0010
0000
0000
0100
0010
0000
0100
0000
0010
0000
0000
0000
,  // measure 63
0001
0000
1000
0000
0010
0000
0100
0010
0100
0000
0010
0000
1000
0001
1000
0000
,  // measure 64
1001
0000
0000
0000
0100
0000
0010
1000
0010
0000
0100
0000
0001
0000
0011
0000
,  // measure 65
0000
0000
1100
0000
0000
0000
0010
0000
0001
0000
1000
0000
0010
1000
0010
0000
,  // measure 66
1010
0000
0000
0000
0010
0000
1000
0010
1000
0000
0001
0000
0100
0000
0101
0000
,  // measure 67
0000
0000
0011
0000
0000
0000
0010
0000
0100
0000
1000
0000
0100
0010
0100
0000
,  // measure 68
0011
0000
0000
0000
0010
0000
0100
0010
0100
0000
0010
0000
0001
0000
0100
0000
,  // measure 69
0010
0000
1000
0000
0001
0000
1000
0001
1000
0001
1000
0000
0010
0100
0001
1000
,  // measure 70
0010
0000
0000
0000
0100
0000
0010
1000
0010
0000
0100
0000
0001
0000
1001
0000
,  // measure 71
0000
0000
0101
0000
0010
0000
0100
0010
1000
0000
0001
0000
0100
0000
0010
0000
,  // measure 72
1000
0000
0000
0000
;

//---------------dance-single - ----------------
#NOTES:
     dance-single:
     :
     Hard:
     8:
     0.522940,0.494952,0.146079,0.085929,0.000000,426.000000,409.000000,17.000000,10.000000,0.000000,0.000000,0.522940,0.494952,0.146079,0.085929,0.000000,426.000000,409.000000,17.000000,10.000000,0.000000,0.000000:
0000
0000
0000
0000
,
0000
0000
0000
0000
,
0000
0000
0000
0000
,
0000
0000
0000
0000
,
0100
0000
0001
0000
0010
0000
0100
1000
,
0100
0100
1000
0100
0010
0001
1000
0010
,
0100
0000
0010
0000
1000
0000
0010
1000
,
1000
0010
0100
0001
0010
0001
1000
0100
,
0010
0000
0001
0010
0001
0000
0010
0001
,
0001
0010
0100
1000
0010
0100
0001
1000
,
0001
0000
1000
0001
1000
0000
0100
1000
,
1000
0100
0010
0001
1000
0010
0100
0001
,
1000
0000
0001
1000
1000
0000
0001
0010
,
0100
0010
0001
1000
0010
0100
0010
1000
,
0010
0000
1000
0010
0010
0000
1000
0010
,
0000
1000
0000
0010
0100
0001
0010
0001
,
0010
0000
0100
0010
0100
0000
1000
0001
,
0001
1000
0001
0100
0010
1000
0100
0000
,
0010
0000
0100
0010
0010
0000
0001
0010
,
0001
1000
0010
0100
0001
1000
0001
0010
,
0100
0000
1000
0100
0100
0000
1000
0100
,
0010
0001
1000
0010
0100
0001
1000
0001
,
0010
0000
0001
0010
0010
0000
0001
0010
,
0000
1001
0000
0100
0010
1000
0010
0000
,
1000
0000
0010
0100
0001
0000
1000
0001
,
0010
0100
1000
0100
0010
0001
1000
0000
,
0010
0000
1000
0010
0100
0000
0001
0010
,
0100
0010
0001
1000
0010
0100
0010
1000
,
0001
0000
0100
0001
1000
0000
0100
0010
,
0100
0010
0001
1000
0001
0100
0010
1000
,
0010
0000
1000
0010
0100
0000
0001
0100
,
0010
1000
0100
0010
0001
0010
0100
1000
,
0001
0000
1001
0000
0010
1000
0100
0000
,
0010
0100
1000
0002
0000
1003
0001
0000
,
1000
0000
1010
0000
0100
0001
0010
0000
,
0100
0010
0001
2000
0000
3001
1000
0000
,
0010
0000
1010
0000
0100
0010
0001
0000
,
0010
0100
1000
0002
0000
1003
0001
0000
,
1000
0000
1010
0000
0100
0001
0100
0000
,
0210
0000
0000
0300
,
0001
0100
0010
1000
0100
0010
0000
0001
,
0000
0010
0000
0001
0100
0000
0110
0000
,
0010
1000
0100
0010
0100
1000
0000
0010
,
0000
1000
0000
0010
1000
0001
0100
0001
,
0010
0100
1000
0100
0010
0001
0000
1000
,
0000
0001
0000
0100
0010
0000
0110
0000
,
0010
1000
0100
0010
0001
1000
0000
0001
,
0000
1000
0000
0001
0100
0010
1000
0000
,
0100
0010
0001
1000
0010
0100
0000
0010
,
1000
0000
0010
0100
0000
0001
0000
0101
,
0000
0001
0010
0100
1000
0100
0000
0000
,
0100
0010
0001
1000
0000
0010
0000
1010
,
0000
0100
0010
1000
0001
0100
0000
0001
,
0010
0000
0100
1000
0000
0100
0000
0110
,
0000
0010
0001
1000
0010
0100
0000
0000
,
0001
1000
0100
2000
0000
3001
0000
0000
,
1000
0000
1001
0000
0001
0100
0010
0000
,
1000
0010
0100
0002
0000
0103
0001
0000
,
1000
0000
0011
0000
0010
0100
1000
0000
,
0100
0010
0001
2000
0000
3001
1000
0000
,
0001
0000
0110
0000
1000
0010
0100
0000
,
0010
1000
0001
0200
0000
0301
0100
0000
,
0001
0000
0011
0000
0010
0100
1000
0000
,
2002
0000
0000
3003
,
0001
0000
0100
0010
1000
0000
0100
0010
,
0001
0010
0001
1000
0010
0100
0010
0000
,
1000
0000
0010
0100
0001
0000
0100
0001
,
1000
0001
0010
0100
1000
0100
0010
0000
,
0001
0000
0010
0100
1000
0000
0100
1000
,
0010
1000
0010
0100
0001
0010
0100
0000
,
1000
0000
0100
0010
0001
0000
1000
0001
,
0100
0001
0010
0001
0010
0100
1000
0000
,
0101
0000
0000
0000
;
