#TITLE:So Young So High;
#SUBTITLE:;
#ARTIST:Dada Life;
#TITLETRANSLIT:;
#SUBTITLETRANSLIT:;
#ARTISTTRANSLIT:;
#CREDIT:;
#BANNER:So Young So High.png;
#BACKGROUND:So Young So High-bg.png;
#LYRICSPATH:;
#CDTITLE:cdtitle.png;
#MUSIC:So Young So High.mp3;
#OFFSET:-0.020;
#SAMPLESTART:68.300;
#SAMPLELENGTH:15.000;
#SELECTABLE:YES;
#BPMS:0.000=64.500,58.000=129.000;
#STOPS:;
#BGCHANGES:;

//---------------dance-single - ----------------
#NOTES:
     dance-single:
     :
     Hard:
     9:
     0.426,0.539,0.550,0.417,0.271:
0000
0000
0002
0000
,
0023
0000
2030
0000
,
3020
0000
0000
0030
2100
0000
3010
1000
,
0001
0000
1000
0010
0000
0000
0000
0000
0001
0010
0001
0001
1000
1000
0001
0100
,
0000
0000
0000
0000
0102
0000
0013
0001
,
1000
0000
0001
0010
0000
0000
0000
0000
1000
0010
1000
1000
0001
0001
1000
0100
,
0000
0000
0000
0000
0000
0000
0000
0000
0021
0000
0100
0000
0100
0000
0000
0031
,
2001
0000
0100
0001
0000
0000
0000
3000
0201
0000
0010
0000
0010
0000
0001
0310
,
0120
0000
0000
0000
0000
0000
0100
0000
0000
1000
0000
0000
0000
0000
2000
0000
0000
0000
0000
0000
3000
0030
0000
0000
0012
0000
0000
0000
0000
0000
1000
0000
0000
0003
0000
0000
2010
0000
0000
0000
0000
0000
0001
0000
0000
3000
0000
0000
,
1002
0000
0100
0103
0000
0000
0000
0000
1000
0010
1000
1000
0001
0001
1000
0200
,
0000
0000
0301
0002
0000
0000
0103
0200
0000
0000
1300
2000
0000
0000
3100
0200
,
0000
0000
0301
0002
0000
0000
0103
0200
0000
0000
1300
2000
0000
0000
3010
0020
,
0000
0000
0031
0002
0000
0000
0013
0020
0000
0000
1030
2000
0000
0000
3010
0020
,
0000
0000
0130
0200
0000
0000
0310
0020
0000
0000
0130
0200
0000
0000
0310
0020
,
0000
0000
0030
1000
1002
0000
0000
0000
,
0020
0000
0000
0000
0033
0000
0000
0000
1000
0000
0000
1000
0000
0000
0100
0000
,
0000
0100
0000
0000
0002
0000
0003
0000
2000
0000
0000
0000
0000
0000
0000
0000
,
0020
0000
0000
0000
3030
0000
0000
0000
0001
0000
0000
0001
0000
0000
0010
0000
,
0000
0010
0000
0000
2000
0000
3000
0000
1002
0000
0000
0000
0000
0000
0000
0000
,
0020
0000
0000
0000
0033
0000
0000
0000
1000
0000
0000
1000
0000
0000
0100
0000
,
0000
0100
0000
0000
0002
0000
0003
0000
2000
0000
0000
0000
0000
0000
0000
0000
,
0020
3000
0200
0030
,
0000
0300
0101
0101
,
1100
0000
0000
0000
1100
0000
0000
0000
0010
0000
0000
0010
0000
0000
1000
0000
,
0000
1000
0000
0000
0001
0000
0001
0000
0011
0000
0000
0000
0011
0000
0000
0000
,
1010
0000
0000
0000
1010
0000
0000
0000
0100
0000
0000
0100
0000
0000
0001
0000
,
0000
0001
0000
0000
0100
0000
1000
0001
1000
0000
0010
0000
0100
0000
0001
0000
,
1000
0000
0010
0000
0100
0000
0001
0000
1000
0000
1000
0010
0000
0010
1000
0000
,
1000
0001
0000
0001
0100
1000
0100
1000
0002
0000
0000
0000
0000
0000
0000
0000
,
2003
0000
3200
0000
,
0000
0300
1001
1001
,
0101
0000
0000
0000
0100
0000
0010
0000
0110
0000
0000
0110
0000
0000
0011
0000
,
0000
0011
0000
0000
1000
0000
0010
0000
1010
0000
0000
0000
1010
0000
0000
0000
,
0110
0000
0000
0000
0100
0000
0001
0000
0101
0000
0000
0101
0000
0000
1001
0000
,
0000
1001
0000
0000
0001
0000
0100
0000
0011
0000
0000
0000
0011
0000
0000
0000
,
1010
0000
0000
0000
1000
0000
0100
0000
1100
0000
0000
1100
0000
0000
0110
0000
,
0000
0110
0000
0000
0001
0000
1000
0000
0101
0000
0000
0000
0011
0000
0000
0000
,
0101
1000
0120
1000
,
0100
1030
0110
0110
,
0011
0000
0000
0000
0001
0000
1000
0000
1001
0000
0000
1001
0000
0000
1010
0000
,
0000
1010
0000
0000
0100
0000
1000
0000
1100
0000
0000
0000
1100
0000
0000
0000
,
1001
0000
0000
0000
0001
0000
0010
0000
0011
0000
0000
0011
0000
0000
0110
0000
,
0000
0110
0000
0000
0010
0000
0001
0000
1010
0000
0000
0000
1010
0000
0000
0000
,
1100
0000
0000
0000
0100
0000
0001
0000
0101
0000
0000
0101
0000
0000
1001
0000
,
0000
1001
0000
0000
0010
0000
0100
0000
0020
0000
0000
0000
0000
0000
0000
0000
,
0032
0000
0203
0000
,
0300
1001
0000
0000
;

//---------------dance-single - ----------------
#NOTES:
     dance-single:
     :
     Medium:
     8:
     0.324,0.405,0.392,0.500,0.083:
0000
0000
0002
0000
,
0023
0000
0230
0000
,
0320
0000
0000
0030
0220
0000
0000
0330
,
0022
0000
0000
0033
0202
0000
0000
0303
,
0022
0000
0000
0033
0220
0000
0000
0330
,
2200
0000
0000
3300
2020
0000
0000
3030
,
2200
0000
0000
3300
2000
0100
0001
3100
,
0002
1000
0100
1003
2000
0100
0010
3100
,
0200
1000
0010
1300
2000
0100
0001
3100
,
0002
1000
0100
1003
2000
0100
0010
3100
,
0200
1000
0010
1300
2002
0000
0000
3003
,
2020
0000
0000
3030
0022
0000
0000
0033
,
2020
0000
0000
3030
2002
0000
0000
3003
,
0202
0000
0000
0303
2200
0000
0000
3300
,
0202
0000
0000
0303
0210
0000
0000
0000
,
0002
0000
0000
0000
0303
0000
0000
0000
0010
0000
0000
0010
0000
0000
0010
0000
,
0000
0010
0000
0000
0000
0000
0000
0000
2000
0000
0000
0000
0000
0000
0000
0000
,
0002
0000
0000
0000
3003
0000
0000
0000
0100
0000
0000
0100
0000
0000
0100
0000
,
0000
0100
0000
0000
0000
0000
0000
0000
0200
0000
0000
0000
0000
0000
0000
0000
,
0002
0000
0000
0000
0303
0000
0000
0000
0010
0000
0000
0010
0000
0000
0010
0000
,
0000
0010
0000
0000
0000
0000
0000
0000
2000
0000
0000
0000
0000
0000
0000
0000
,
0020
3000
0200
0030
,
0000
0300
0000
0000
1000
0000
1000
0000
,
1000
1000
0001
0100
,
0010
0000
0100
0001
0100
0000
0001
0000
,
0001
0001
0001
1000
,
0100
0000
0010
0000
0100
0010
0100
0010
,
0100
0000
1000
0000
0100
0000
1000
0000
0100
0000
0000
0100
0000
0000
0100
0000
,
0000
0100
0000
0000
0000
0000
0000
0000
2000
0000
0000
0000
0000
0000
0000
0000
,
0020
3000
0200
0030
,
0000
0300
0000
0000
1100
0000
0101
0000
,
1100
0000
0000
0000
1001
0000
0000
0000
0100
0000
0000
0100
0000
0000
0100
0000
,
0000
0100
0000
0000
0000
0000
0000
0000
1010
0000
0000
0000
0011
0000
0000
0000
,
1010
0000
0000
0000
0110
0000
0000
0000
1000
0000
0000
1000
0000
0000
1000
0000
,
0000
1000
0000
0000
0000
0000
0000
0000
0011
0000
0000
0000
1010
0000
0000
0000
,
0011
0000
0000
0000
1001
0000
0000
0000
0010
0000
0000
0010
0000
0000
0010
0000
,
0000
0010
0000
0000
0000
0000
0000
0000
0101
0000
0000
0000
1100
0000
0000
0000
,
0101
0110
0201
0010
,
0001
0310
1010
1100
,
1010
0000
0000
0000
0110
0000
0000
0000
1000
0000
0000
1000
0000
0000
1000
0000
,
0000
1000
0000
0000
0000
0000
0000
0000
0011
0000
0000
0000
0101
0000
0000
0000
,
0011
0000
0000
0000
1001
0000
0000
0000
0010
0000
0000
0010
0000
0000
0010
0000
,
0000
0010
0000
0000
0000
0000
0000
0000
0101
0000
0000
0000
0011
0000
0000
0000
,
0101
0000
0000
0000
0110
0000
0000
0000
0001
0000
0000
0001
0000
0000
0001
0000
,
0000
0001
0000
0000
0000
0000
0000
0000
0002
0000
0000
0000
0000
0000
0000
0000
,
0020
0003
0200
0030
,
0000
0300
0110
0000
0000
0000
0000
0000
;

//---------------dance-single - ----------------
#NOTES:
     dance-single:
     :
     Easy:
     5:
     0.255,0.329,0.325,0.233,0.000: // measure 1
0000
0000
0002
0000
,  // measure 2
0023
0000
0230
0000
,  // measure 3
0320
0000
0000
0030
1000
0000
0000
0000
,  // measure 4
0010
0000
0100
0000
,  // measure 5
0001
0000
0010
0000
,  // measure 6
0100
0000
1000
0000
,  // measure 7
0010
0000
0000
0000
0001
0100
0001
0100
,  // measure 8
0010
1000
0010
1000
0010
0100
0010
0100
,  // measure 9
0010
1000
0010
1000
0001
0100
0001
0100
,  // measure 10
0001
1000
0001
1000
0001
0100
0010
0100
,  // measure 11
0010
1000
0010
1000
0002
0000
0003
0000
,  // measure 12
0200
0300
0002
0003
,  // measure 13
0020
0030
0200
0300
,  // measure 14
0020
0030
0002
0003
,  // measure 15
0200
0300
0002
0000
,  // measure 16
2000
3003
0000
0000
,  // measure 17
0000
0000
2000
0000
,  // measure 18
0002
3003
0000
0000
,  // measure 19
0000
0000
0002
0000
,  // measure 20
2000
3003
0000
0000
,  // measure 21
0000
0000
2000
0000
,  // measure 22
0020
3000
0200
0030
,  // measure 23
0000
0300
0000
0000
1000
0000
1000
0000
,  // measure 24
1000
1000
0010
0100
,  // measure 25
0010
0100
0001
0001
,  // measure 26
0001
0001
0010
0100
,  // measure 27
0010
0100
1000
1000
,  // measure 28
0100
0100
0001
0001
,  // measure 29
0100
0100
2000
0000
,  // measure 30
0020
3000
0200
0030
,  // measure 31
0000
0300
0000
0000
1001
0000
1001
0000
,  // measure 32
1001
0010
0110
0110
,  // measure 33
1001
0100
0110
0110
,  // measure 34
0110
0001
1001
1001
,  // measure 35
0110
1000
1001
1001
,  // measure 36
1001
0010
0110
0110
,  // measure 37
1001
0100
0110
0110
,  // measure 38
0110
0001
2000
0001
,  // measure 39
0001
3001
1100
1100
,  // measure 40
1100
0001
0101
0101
,  // measure 41
1100
1000
1010
1010
,  // measure 42
1010
0001
0011
0011
,  // measure 43
1010
1000
1100
1100
,  // measure 44
1100
0001
0101
0101
,  // measure 45
1100
1000
2000
0000
,  // measure 46
0020
3000
0200
0030
,  // measure 47
0000
0000
0300
0000
;
