#TITLE:ShibuyaK;
#SUBTITLE:;
#ARTIST:DAOKO;
#TITLETRANSLIT:;
#SUBTITLETRANSLIT:;
#ARTISTTRANSLIT:;
#GENRE:DANCE POP;
#CREDIT:;
#BANNER:[Show & Tell] - ShibuyaK.png;
#BACKGROUND:[Show & Tell] - ShibuyaK-bg.png;
#LYRICSPATH:;
#CDTITLE:cdtitle.png;
#MUSIC:[Show & Tell] - ShibuyaK.ogg;
#OFFSET:-0.420000;
#SAMPLESTART:74.855644;
#SAMPLELENGTH:15.117188;
#SELECTABLE:YES;
#BPMS:0.000000=128.000000
;
#STOPS:
;
#BGCHANGES:0.000=[Show & Tell] - ShibuyaK.avi=1.000=0=0=1===CrossFade_Fastest==,
99999=-nosongbg-=1.000=0=0=0 // don't automatically add -songbackground-
;
#KEYSOUNDS:;
#ATTACKS:;

//---------------dance-single - ----------------
#NOTES:
     dance-single:
     :
     Hard:
     8:
     0.488117,0.536679,0.080019,0.088021,0.372089,427.000000,417.000000,10.000000,11.000000,0.000000,0.000000,0.488117,0.536679,0.080019,0.088021,0.372089,427.000000,417.000000,10.000000,11.000000,0.000000,0.000000:
0000
0000
0000
0000
,
0000
0000
0000
0000
,
0000
0000
0000
0000
,
0000
0000
0000
0000
,
1000
0000
0000
0010
0000
0000
1000
0000
0100
0000
0000
0000
0010
0000
0000
0000
,
0001
0000
0000
0100
0000
0000
0001
0000
0000
1000
0000
0000
0100
0000
1000
0000
,
0001
0010
0001
0010
0100
1000
0100
1000
,
0001
1000
0001
0000
1000
0010
0000
0010
0100
0000
0100
0001
0000
0001
0010
0000
,
0001
0000
0000
1000
0000
0000
0100
0000
0010
0000
0000
0100
0000
0000
1000
0010
,
1000
0000
0000
0100
0000
0000
0010
0000
0001
0000
0000
0100
0000
0000
0010
1000
,
0010
0000
0000
1000
0000
0000
0100
0000
0010
0000
0000
0001
0000
0000
0100
0000
,
0010
0000
0000
1000
0000
0000
0100
0000
0001
0000
0000
0100
0000
0000
1000
0000
,
0010
0000
0000
0100
0000
0000
0001
0000
0010
0000
0000
0001
0000
0000
1000
0010
,
1000
0000
0000
0100
0000
0000
0010
0000
0100
0000
0000
1000
0000
0000
0001
0100
,
0001
0000
0000
0010
0000
0000
0100
0000
1000
0000
0000
0010
0000
0000
0100
0000
,
0001
0000
0000
0010
0000
0000
0001
0000
1000
0000
0000
0001
0000
0000
1000
0000
,
0100
0000
0010
0000
0001
0000
0100
0000
0001
0010
0000
0001
0000
0000
1000
0000
,
0010
0000
0001
0000
0010
0000
1000
0000
0100
0010
0000
0100
0000
0000
0000
0000
,
1000
0000
0010
0000
0100
0000
0001
0000
0010
0001
0000
1000
0000
0000
0010
0000
,
0120
0100
0100
0130
,
1000
0000
0100
0000
0001
0000
0100
0000
1000
0010
0000
0100
0000
0000
0001
0000
,
0010
0000
1000
0000
0010
0000
0001
0000
0100
0010
0000
1000
0000
0000
0000
0000
,
0001
0000
0010
0000
0100
0000
1000
0010
1000
0010
0000
0100
0000
0010
0000
0000
,
0120
0000
0000
0000
0100
0000
0000
0000
0130
0000
0001
0000
1000
0001
0000
0000
,
2000
0000
3100
0000
0020
0000
0130
0002
,
0000
0013
0100
2000
0000
3010
0100
0001
,
0020
0000
0130
0000
2000
0000
3001
0100
,
0000
0001
0010
0100
2000
0000
3001
1000
,
0010
0000
1000
0100
1000
0000
0001
1000
0002
0000
0000
0000
0103
0000
0001
0000
,
0010
0000
0001
0100
0001
0000
1000
0001
2000
0000
0000
0000
3100
0000
0010
0001
,
0010
0001
0100
0010
1000
0000
0001
0100
,
1000
0100
0010
1000
0100
0100
0010
0010
,
0001
0100
0010
0100
1000
0100
0010
0100
,
0001
0010
0100
0010
0001
0001
1000
1000
,
0001
0100
0010
0001
0010
1000
0100
0010
,
0001
0100
0001
0000
1000
1000
0001
0001
,
1000
0100
0001
0100
1000
0010
0100
0001
,
0010
0000
0001
0100
0001
0000
1000
0010
1000
0000
0100
0000
0001
0000
0100
0000
,
1000
0000
0000
0100
0000
0010
0001
0010
0001
0000
0000
0100
0000
0010
1000
0010
,
1000
0000
0000
1100
0000
0000
0101
0000
1001
0000
0000
0000
1000
0000
0100
0000
,
0001
0000
0100
0000
1000
0000
0010
0100
0000
0000
0001
0000
1000
0000
0100
0000
,
0010
0000
0000
0001
0000
0000
1000
0000
0001
0000
0000
0000
1000
0000
0010
0000
,
0001
0000
0010
0000
1000
0000
0100
0010
0000
0000
0001
0000
0100
0000
0010
0000
,
1000
0000
1100
0000
0101
0000
0001
0010
,
1000
0000
0010
0000
0001
0000
0100
0010
0000
0000
1000
0000
0001
0000
0010
0000
,
0100
0000
0000
1000
0000
0000
0001
0000
1000
0000
0000
0000
0010
0000
0100
0000
,
0001
0000
0000
0010
0000
0000
0100
0000
0010
0000
0000
0001
0000
0000
1000
0000
,
0010
0000
0000
0100
0000
0000
0010
0000
1000
0000
0000
0000
0001
0000
0100
0000
,
1000
0000
0100
0000
0001
0000
0010
0100
0000
0000
1000
0000
0001
0000
0100
0000
,
0010
0000
0000
1000
0000
0000
0001
0000
1000
0000
0000
0000
0001
0000
0010
0000
,
1000
0000
0010
0000
0001
0000
0100
0010
0000
0000
1000
0000
0100
0000
0010
0000
,
0001
0000
0101
0000
1100
0000
1000
0010
,
0001
0000
0010
0000
1000
0000
0100
0010
0000
0000
0001
0000
1000
0000
0010
0000
,
0100
0000
0000
0001
0000
0000
1000
0000
0001
0000
0000
0000
0010
0000
0100
0000
,
1000
0000
0000
0010
0000
0000
0100
0000
0010
0000
0000
1000
0000
0000
0001
0000
,
0010
0000
0000
0100
0000
0000
0010
0000
0001
0000
0000
0000
1001
0000
0000
0000
,
1000
0000
0000
0010
0000
0000
0001
0000
0010
0000
0000
1000
0000
0000
0010
0100
,
0010
0000
0000
1000
0000
0000
0100
0000
0010
0000
0000
0001
0000
0000
0100
0010
,
0100
0000
0000
0001
0000
0000
0010
0000
0100
0000
0000
1000
0000
0000
0001
0000
,
0100
0000
0000
1000
0000
0000
0100
0000
0001
0000
0000
0010
0000
0000
0100
0000
,
1000
0000
0000
0010
0000
0000
0100
0000
0001
0000
0000
1000
0000
0000
0100
0010
,
0100
0000
0000
1000
0000
0000
0010
0000
0100
0000
0000
0001
0000
0000
0010
0100
,
0010
0000
0000
0001
0000
0000
0100
0000
1000
0000
0000
0100
0000
0000
0001
0000
,
0010
0000
0000
0001
0000
0000
1000
0000
0010
0000
0000
0100
0000
0000
0001
0000
;

//---------------dance-single - ----------------
#NOTES:
     dance-single:
     :
     Medium:
     6:
     0.358943,0.357786,0.040010,0.080019,0.124030,314.000000,309.000000,5.000000,10.000000,0.000000,0.000000,0.358943,0.357786,0.040010,0.080019,0.124030,314.000000,309.000000,5.000000,10.000000,0.000000,0.000000:
0000
0000
0000
0000
,
0000
0000
0000
0000
,
0000
0000
0000
0000
,
0000
0000
0000
0000
,
1000
0000
0001
0000
0010
0100
0010
0000
,
0001
0000
0100
0000
0010
1000
0010
0000
,
1000
0100
1000
0000
0001
0100
0001
0000
,
0010
0000
0000
0000
0100
0000
0000
0000
1000
0000
0001
1000
0000
0001
1000
0000
,
0001
0000
0000
0000
0100
0000
0000
0000
0010
0000
0000
1000
0000
0000
0100
0000
,
0010
0000
0000
0000
0100
0000
0000
0000
1000
0000
0000
0010
0000
0000
0100
0000
,
0001
0000
0000
0000
0010
0000
0000
0000
0001
0000
0000
1000
0000
0000
0010
0000
,
1000
0000
0000
0000
0001
0000
0000
0000
1000
0000
0000
0100
0000
0000
0010
0000
,
0001
0000
0000
0100
0000
0000
0001
0000
0010
0000
0000
0000
0100
0000
0000
0000
,
1000
0000
0000
0010
0000
0000
1000
0000
0100
0000
0000
0000
0010
0000
0000
0000
,
0100
0000
0000
1000
0000
0000
0010
0000
0100
0000
0000
0000
0001
0000
0000
0000
,
1000
0000
0000
0100
0000
0000
0010
0000
0001
0000
0000
0000
1000
0000
0001
0000
,
1000
0010
0100
0000
0010
0000
1000
0000
,
0001
0010
0100
0000
0010
0000
0001
0000
,
0100
0010
0100
0000
0010
0000
1000
0000
,
0100
0100
0010
0010
,
0001
0100
0010
0000
1000
0000
0100
0000
,
1000
0010
0100
0000
0001
0000
0010
0000
,
0001
1000
0001
0000
1000
0100
0010
0000
,
0100
0000
0000
0000
0100
0000
0000
0000
0010
0000
0000
0000
0001
1000
0000
0000
,
0002
0000
0203
0000
0320
0000
1030
0002
,
0000
0023
0000
0230
0000
0300
1000
0000
,
0020
0000
0230
0000
0302
0000
1003
0200
,
0000
0310
0001
0010
0001
0000
1000
0000
,
0001
0100
0010
0100
0001
0000
1000
0000
,
0100
0010
0100
1000
0100
0000
0010
0000
,
0001
0100
0001
0010
0001
0000
1000
0001
,
1000
1000
0001
0001
,
1000
0010
0001
0010
,
1000
0100
0001
0100
,
1000
0000
0010
0100
0001
0000
0010
0001
,
1000
0001
0100
0100
,
0001
1000
0100
1000
0001
0000
0010
0000
,
0100
1000
0100
0010
0100
0000
1000
0000
,
0001
0001
0100
0100
,
0001
0000
0000
0001
0000
0000
1000
0000
0001
0000
0000
0000
1000
0000
0100
0000
,
0010
0000
0000
0000
0100
0000
0000
1000
0000
0000
0010
0000
0100
0000
0000
0000
,
0001
0000
0000
0010
0000
0000
0001
0000
1000
0000
0000
0000
0001
0000
0100
0000
,
0010
0000
0000
0000
0100
0000
0000
0001
0000
0000
0010
0000
0100
0000
0000
0000
,
1000
0000
1001
0000
0110
0000
1000
0010
,
0100
0000
0000
0000
0010
0000
0000
1000
0000
0000
0100
0000
0010
0000
0000
0000
,
0001
0000
0000
0100
0000
0000
0001
0000
1000
0000
0000
0000
0001
0000
0100
0000
,
0001
1000
0100
0010
,
0100
0000
1000
0001
1000
0000
0001
0100
,
0010
0000
0000
0000
0100
0000
0000
0001
0000
0000
0010
0000
0100
0000
0000
0000
,
1000
0000
0000
0010
0000
0000
1000
0000
0001
0000
0000
0000
1000
0000
0100
0000
,
0010
0000
0000
0000
0100
0000
0000
1000
0000
0000
0010
0000
0100
0000
0000
0000
,
0001
0000
1001
0000
0110
0000
0001
0010
,
0100
0000
0000
0000
0010
0000
0000
0001
0000
0000
0100
0000
0010
0000
0000
0000
,
1000
0000
0000
0100
0000
0000
1000
0000
0001
0000
0000
0000
1000
0000
0100
0000
,
1000
0001
0100
0010
,
0100
0000
0001
1000
0001
0000
1001
0000
,
1000
0000
0000
0000
0100
0000
0000
0000
0010
0000
0000
0001
0000
0000
0100
0000
,
0010
0000
0000
0000
0100
0000
0000
0000
0001
0000
0000
0010
0000
0000
0100
0000
,
1000
0000
0000
0000
0010
0000
0000
0000
1000
0000
0000
0001
0000
0000
0010
0000
,
0001
0000
0000
0000
1000
0000
0000
0000
0001
0000
0000
0100
0000
0000
0010
0000
,
1000
0000
0000
0100
0000
0000
1000
0000
0010
0000
0000
0000
0100
0000
0000
0000
,
0001
0000
0000
0010
0000
0000
0001
0000
0100
0000
0000
0000
0010
0000
0000
0000
,
0100
0000
0000
0001
0000
0000
0010
0000
0100
0000
0000
0000
1000
0000
0000
0000
,
0001
0000
0000
0100
0000
0000
0010
0000
1000
0000
0000
0001
0000
0000
1000
0000
;

//---------------dance-single - ----------------
#NOTES:
     dance-single:
     :
     Easy:
     3:
     0.242344,0.229555,0.000000,0.024006,0.000000,212.000000,212.000000,0.000000,3.000000,0.000000,0.000000,0.242344,0.229555,0.000000,0.024006,0.000000,212.000000,212.000000,0.000000,3.000000,0.000000,0.000000:
0000
0000
0000
0000
,
0000
0000
0000
0000
,
0000
0000
0000
0000
,
0000
0000
0000
0000
,
1000
0001
0010
0100
,
1000
0010
0100
0001
,
1000
1000
0001
0001
,
0010
0100
1000
0000
,
0001
0001
0100
0010
,
1000
1000
0100
0010
,
0100
0100
1000
0010
,
0100
0100
0001
0010
,
0001
0001
0100
0001
,
1000
1000
0100
1000
,
0010
0010
0100
0001
,
0010
0010
0100
1000
,
0010
0100
0010
0000
,
1000
0001
1000
0000
,
0001
0010
0001
0000
,
1000
1000
0010
0010
,
1000
0100
1000
0000
,
0010
0100
0010
0000
,
1000
0001
1000
0000
,
0001
0001
0010
0010
,
0001
0100
0010
1000
,
0001
0010
0100
1000
,
0001
1000
0010
0100
,
0001
1000
0100
0010
,
0001
0001
0100
0010
,
1000
1000
0100
0010
,
0001
0001
0001
1000
,
0010
0100
0010
0100
,
0002
0000
0023
0000
,
0230
0000
1300
0001
,
1000
0001
0100
0001
,
1000
0001
0010
0100
,
1000
1000
0010
0100
,
0001
0001
0010
0100
,
1000
0000
0001
0000
,
0010
0000
0100
0000
,
1000
0100
0010
0000
,
0010
0100
1000
0000
,
0001
0100
0010
0000
,
0010
0100
0001
0000
,
1000
0100
0001
0000
,
0001
0100
1000
0000
,
0001
0001
0100
0100
,
0010
1000
0100
0000
,
1000
0010
0100
0000
,
0100
0010
1000
0000
,
0001
0010
0100
0000
,
0100
0010
0001
0000
,
1000
0010
0001
0000
,
0001
0010
1000
0000
,
0001
0001
0010
0010
,
0100
1000
0010
0000
,
1000
1000
0100
0010
,
0001
0001
0100
0010
,
0100
0100
0001
0010
,
0100
0100
1000
0010
,
1000
1000
0100
1000
,
0001
0001
0100
0001
,
0010
0010
0100
1000
,
0010
0010
0100
0001
;

//---------------dance-single - ----------------
#NOTES:
     dance-single:
     :
     Beginner:
     1:
     0.116599,0.127030,0.000000,0.040010,0.000000,102.000000,102.000000,0.000000,5.000000,0.000000,0.000000,0.116599,0.127030,0.000000,0.040010,0.000000,102.000000,102.000000,0.000000,5.000000,0.000000,0.000000:
// measure 0
0000
0000
0000
0000
,  // measure 1
0000
0000
0000
0000
,  // measure 2
0000
0000
0000
0000
,  // measure 3
0000
0000
0000
0000
,  // measure 4
1000
0000
0000
0000
,  // measure 5
0001
0000
0000
0000
,  // measure 6
1000
0000
0000
0000
,  // measure 7
0002
0000
0003
0000
,  // measure 8
1000
0000
1000
0000
,  // measure 9
0010
0000
0010
0000
,  // measure 10
0100
0000
0100
0000
,  // measure 11
0001
0000
0001
0000
,  // measure 12
1000
0000
1000
0000
,  // measure 13
0100
0000
0100
0000
,  // measure 14
0010
0000
0010
0000
,  // measure 15
0001
0000
0001
0000
,  // measure 16
1000
0000
0000
0000
,  // measure 17
0001
0000
0000
0000
,  // measure 18
0100
0000
0000
0000
,  // measure 19
0010
0000
0000
0000
,  // measure 20
1000
0000
0000
0000
,  // measure 21
0001
0000
0000
0000
,  // measure 22
0010
0000
0000
0000
,  // measure 23
0100
0000
0000
0000
,  // measure 24
1000
0000
0001
0000
,  // measure 25
1000
0000
0000
0000
,  // measure 26
0010
0000
0100
0000
,  // measure 27
0010
0000
0000
0000
,  // measure 28
1000
0000
1000
0000
,  // measure 29
0001
0000
0001
0000
,  // measure 30
0010
0000
0010
0000
,  // measure 31
0100
0000
0100
0000
,  // measure 32
2000
0000
0000
3000
,  // measure 33
0002
0000
0000
0003
,  // measure 34
1000
0000
0001
0000
,  // measure 35
1000
0000
0001
0000
,  // measure 36
0200
0000
0000
0300
,  // measure 37
0020
0000
0000
0030
,  // measure 38
1000
0000
0100
0000
,  // measure 39
0010
0000
0001
0000
,  // measure 40
1000
0000
1000
0000
,  // measure 41
0001
0000
0001
0000
,  // measure 42
0100
0000
0100
0000
,  // measure 43
0010
0000
0010
0000
,  // measure 44
1000
0000
1000
0000
,  // measure 45
0001
0000
0001
0000
,  // measure 46
0010
0000
0010
0000
,  // measure 47
0100
0000
0100
0000
,  // measure 48
1000
0000
1000
0000
,  // measure 49
0010
0000
0010
0000
,  // measure 50
0100
0000
0100
0000
,  // measure 51
0001
0000
0001
0000
,  // measure 52
1000
0000
1000
0000
,  // measure 53
0100
0000
0100
0000
,  // measure 54
0010
0000
0010
0000
,  // measure 55
0001
0000
0001
0000
,  // measure 56
1000
0000
1000
0000
,  // measure 57
0001
0000
0001
0000
,  // measure 58
0100
0000
0100
0000
,  // measure 59
0010
0000
0010
0000
,  // measure 60
1000
0000
1000
0000
,  // measure 61
0001
0000
0001
0000
,  // measure 62
0010
0000
0010
0000
,  // measure 63
0100
0000
0100
0000
;
