#TITLE:Schizophrenia;
#SUBTITLE:;
#ARTIST:Ferrum (feat. seibin);
#TITLETRANSLIT:;
#SUBTITLETRANSLIT:;
#ARTISTTRANSLIT:;
#GENRE:;
#CREDIT:usaminseijin;
#BANNER:[Show & Tell] - Schizophrenia.png;
#BACKGROUND:[Show & Tell] - Schizophrenia-bg.png;
#LYRICSPATH:;
#CDTITLE:cdtitle.png;
#MUSIC:[Show & Tell] - Schizophrenia.ogg;
#OFFSET:-1.261000;
#SAMPLESTART:54.313999;
#SAMPLELENGTH:25.263000;
#SELECTABLE:YES;
#BPMS:0.000000=190.000000
,216.000000=95.000000
,228.000000=190.000000
;
#STOPS:
;
#BGCHANGES:;
#KEYSOUNDS:;
#ATTACKS:;

//---------------dance-single - ----------------
#NOTES:
     dance-single:
     :
     Hard:
     10:
     0.593076,1.217258,0.299051,0.879562,0.197901,472.000000,438.000000,34.000000,100.000000,0.000000,0.000000,0.593076,1.217258,0.299051,0.879562,0.197901,472.000000,438.000000,34.000000,100.000000,0.000000,0.000000:
0000
0000
0000
0000
,
0000
0000
0000
0000
,
0000
0000
0000
0000
,
0000
0000
0000
0000
,
0000
0000
0000
0000
,
0000
0000
0000
0000
,
1000
0001
0100
0001
1000
0010
0000
0200
,
0000
0301
0010
0001
1000
0010
0100
0001
,
1000
0100
0010
0001
1000
0001
0000
2000
,
0000
0000
3002
0000
0000
0203
0000
0310
,
1000
0001
0100
0010
1000
0010
0000
0200
,
0000
0301
1000
0010
0100
0010
1000
0001
,
0100
0001
0010
0001
1000
0010
0000
0200
,
0000
0301
1000
0010
0100
0010
1000
0001
,
1000
0010
0100
0010
1000
0001
0000
0200
,
0000
0310
1000
0010
0100
0001
1000
0001
,
1010
0110
1001
0110
,
1000
0100
1000
0000
0001
0000
1000
0000
0010
0000
0000
0000
0100
0001
0100
0001
,
2000
0000
0000
0000
0000
0000
3001
0200
,
0000
0000
0000
0310
1000
0100
0010
0001
,
2000
0000
0000
3002
0000
0000
0203
0000
,
0000
0000
0000
0000
0300
0000
0010
0100
,
0001
0000
1000
0010
0000
2000
0000
3000
,
0001
0000
1000
0100
0000
1000
0001
0000
,
2001
0000
0000
0000
0000
3010
0100
0002
,
0000
0000
0000
0000
0000
0003
1000
0100
,
0020
0000
0000
0000
0000
0000
0031
2000
,
0000
0000
0000
3001
0010
0100
0010
0001
,
2000
0000
0000
3002
0000
0000
0203
0000
,
0000
0000
0300
0010
,
1001
0000
0100
0001
0000
0200
0000
0300
,
0001
0000
1000
0010
0000
1000
0001
0000
,
1001
0000
0010
0100
0000
0010
0000
1000
,
0002
0023
0230
1300
,
0022
0033
2200
3300
,
2002
3003
0020
0130
,
2020
3030
0000
0220
0330
0000
0101
0000
,
2002
3003
0220
0330
,
2200
3300
0000
0022
0033
0000
1001
0000
,
2000
3002
0203
0310
,
0022
0033
0220
0330
,
2002
3003
0200
0310
,
2000
3002
0203
0320
,
2030
3200
0320
0032
,
2003
3020
0230
0302
,
2003
3002
0203
0320
,
2030
3002
0203
0320
,
0230
0302
2003
3020
,
0230
0302
2003
3020
,
1030
0001
1000
0002
0000
0000
0000
0000
0203
0000
0000
0000
0320
0000
0000
0000
,
1030
0001
0100
0010
1000
0001
0100
0010
,
1000
0100
0010
0001
1000
0010
0100
0001
,
1000
0010
1000
0010
0100
0001
0100
0001
1000
0100
1000
0100
0010
0001
0010
0001
,
1000
0001
1000
0001
0100
0010
0100
0010
1000
0010
1000
0010
1000
0000
0001
0000
,
2000
0000
0000
0000
0000
0000
0000
3010
,
0200
0000
0302
0000
,
2003
0010
0010
0010
0010
0010
0010
0010
,
3001
0100
0010
0100
0010
0100
0010
0100
,
0001
1000
0001
1000
0001
0000
0000
0100
0010
0000
1000
0100
0000
1001
0000
0000
,
1000
0010
0100
0020
0000
0000
0000
0000
,
0000
0000
0000
1030
0001
0100
0010
1000
,
0001
0100
0002
0000
0000
0000
0000
0000
,
0000
0000
1003
0001
,
1001
1001
0000
0110
0000
1001
0000
0110
,
1001
1010
1001
0101
,
2020
0000
0000
0000
0030
0001
3010
0202
,
0000
0000
0303
2000
,
3002
0000
0000
0000
0000
0000
1003
0020
,
0000
0000
2030
3002
,
1003
0000
0100
0000
0010
0001
0010
0000
0001
0000
1000
0000
0001
0000
0100
0000
,
0010
1000
0001
1000
0010
0100
0010
1000
,
0010
0100
0010
0000
1000
0000
0001
0000
0100
0000
0010
0000
0100
0000
0001
0000
,
1000
0010
1000
0001
0100
0010
1000
0001
,
1000
0010
0100
0010
1000
0001
0100
0010
,
1000
0000
0001
0010
0001
0000
0100
0000
0001
0000
1000
0000
0010
0000
1000
0000
,
0001
0100
0010
0100
0001
1000
0010
1000
,
0001
0000
0100
0000
0010
0000
1000
0000
0100
0000
1000
0001
1000
0000
0100
0000
,
0010
0001
0010
0001
1000
0100
1000
0100
1000
0010
1000
0010
0100
0001
0100
0001
,
1000
0001
1000
0001
0100
0010
0100
0010
1000
0100
1000
0100
0010
0001
0010
0001
,
1000
0001
0100
0001
1000
0010
0100
0010
,
1000
0000
0001
0000
0100
0000
0001
0000
1000
0000
0001
0010
0001
0000
2000
0000
,
0010
0010
0010
0010
0000
0001
0000
0001
,
0000
0100
0100
0000
0001
0001
0001
0001
,
0001
0001
0001
0001
0000
3010
0000
1001
;

//---------------dance-single - ----------------
#NOTES:
     dance-single:
     :
     Medium:
     8:
     0.462398,0.627072,0.052774,0.510146,0.000000,368.000000,362.000000,6.000000,58.000000,0.000000,0.000000,0.462398,0.627072,0.052774,0.510146,0.000000,368.000000,362.000000,6.000000,58.000000,0.000000,0.000000:
0000
0000
0000
0000
,
0000
0000
0000
0000
,
0000
0000
0000
0000
,
0000
0000
0000
0000
,
0000
0000
0000
0000
,
0000
0000
0000
0000
,
1000
0001
1000
0001
0100
0010
0000
0100
,
0000
0010
0100
0010
1000
0001
1000
0001
,
1000
0010
1000
0010
0100
0001
0000
2000
,
0000
0000
3002
0000
0000
0103
0000
0001
,
1000
0100
1000
0100
0010
0001
0000
0100
,
0000
0001
0100
0001
1000
0010
1000
0010
,
1000
0100
1000
0100
0010
0001
0000
0100
,
0000
0001
1000
0001
0100
0010
0100
0010
,
1000
0100
1000
0100
0010
0001
0000
0100
,
0000
0010
1000
0010
0100
0001
0100
0001
,
1000
0001
1000
0001
0100
0010
0000
1000
,
0000
0001
0100
0001
1000
0010
1000
0010
,
2000
0000
0000
0000
0000
3000
0001
0200
,
0000
0000
0300
0010
1000
0100
0010
0001
,
2000
0000
3000
0002
0000
0003
0200
0000
,
0000
0000
0000
0000
0300
0000
0010
0100
,
0001
0000
1000
0010
0000
2000
0000
3000
,
0001
0000
1000
0100
0000
1000
0001
0000
,
2000
0000
0000
0000
3000
0010
0100
0002
,
0000
0000
0000
0000
0000
0003
1000
0100
,
0020
0000
0000
0000
0000
0030
0001
2000
,
0000
0000
3000
0001
0010
0100
0010
0001
,
2000
0000
3000
0002
0000
0003
0200
0000
,
0000
0000
0300
0010
,
0100
0000
0001
1000
0000
0002
0003
0000
,
1000
0000
0010
0100
0000
0001
1000
0000
,
0001
0000
0010
0100
0000
0010
0000
0001
,
1000
0100
0010
0001
,
2000
0000
3200
0000
,
0320
0000
0031
1000
,
0200
0000
0000
0320
0000
0000
0130
0000
,
2000
0000
3002
0000
,
0203
0000
0000
0320
0000
0000
0130
0000
,
0001
1000
0100
0010
,
0002
0000
0023
0000
,
0230
0000
2300
3010
,
1000
0001
0100
0010
,
1000
0100
0010
0001
,
1000
0010
0100
0001
,
1000
0001
0100
0010
,
2000
3002
0203
0320
,
0230
0302
2003
3020
,
0230
0302
2003
3020
,
1030
0002
0000
0000
0203
0000
0320
0000
,
1030
0001
0100
0010
1000
0001
0100
0010
,
1000
0100
0010
0001
1000
0010
0100
0001
,
1000
0010
0100
0001
1000
0100
0010
0001
,
1000
0001
0100
0010
1000
0010
1000
0001
,
2000
0000
0000
0000
0000
0000
0000
3010
,
0200
0000
0302
0000
,
2003
0000
0000
0000
,
3002
0000
0000
0000
,
0203
0000
0320
0000
,
1030
0010
0100
0020
0000
0000
0000
0000
,
0000
0000
0000
1030
0001
0100
0010
1000
,
0001
0100
0002
0000
0000
0000
0000
0000
,
0000
0000
1003
0001
,
1000
0001
0000
0110
0000
1000
0001
0000
,
1001
0110
1001
0101
,
2000
0000
0000
0000
0000
3001
0010
0002
,
0000
0000
0003
1000
,
0002
0000
0000
0000
0000
0003
1000
0020
,
0000
0000
0000
0030
1000
0000
0001
0000
,
1000
0100
0010
0001
1000
0001
1000
0010
,
0100
0001
1000
0001
0100
0010
0100
0001
,
0100
0010
1000
0001
0100
0010
0100
0001
,
1000
0010
1000
0001
0100
0010
1000
0001
,
1000
0010
0100
0010
1000
0001
0100
0010
,
1000
0001
0010
0001
1000
0001
0100
0001
,
1000
0010
0100
0010
1000
0001
0100
0001
,
1000
0010
0100
0001
0010
0001
1000
0100
,
0010
0001
1000
0100
1000
0010
0100
0001
,
1000
0001
0100
0010
1000
0100
0010
0001
,
1000
0001
0100
0001
1000
0010
0100
0010
,
1000
0001
0100
0001
1000
0001
0010
0002
,
0000
0000
0000
0000
,
0000
0000
0000
0000
,
0000
0000
0000
0000
0000
0003
0000
1001
;

//---------------dance-single - ----------------
#NOTES:
     dance-single:
     :
     Easy:
     6:
     0.487528,0.663959,0.589306,0.158321,0.000000,388.000000,321.000000,67.000000,18.000000,0.000000,0.000000,0.487528,0.663959,0.589306,0.158321,0.000000,388.000000,321.000000,67.000000,18.000000,0.000000,0.000000:
0000
0000
0000
0000
,
0000
0000
0000
0000
,
0000
0000
0000
0000
,
0000
0000
0000
0000
,
0000
0000
0000
0000
,
0000
0000
0000
0000
,
1000
1000
0001
0001
,
0100
0100
0010
0010
,
1000
0000
1000
0000
0001
0000
0001
0200
,
0000
0000
0320
0000
0000
0130
0000
0001
,
1000
0000
0001
0000
1000
0100
1000
0000
,
0001
0000
0010
0000
0100
0000
0010
0100
,
0000
0010
0001
0000
1000
0000
0001
0000
,
1000
0001
1000
0010
0000
0100
0001
0000
,
1000
0000
0001
0000
1000
0010
1000
0000
,
0001
0000
0100
0000
0001
0000
1000
0001
,
0100
0110
1000
1001
,
2000
3001
0100
0020
,
1030
0000
0001
0000
0100
0000
0010
1000
,
0001
0000
0100
0000
0001
1000
0001
1000
,
0010
0000
0100
0000
0001
0000
1000
0001
,
1000
0010
0100
0010
1000
0000
0001
0000
,
1000
0000
0001
0000
0100
0000
0010
0100
,
0010
0000
1000
0000
0001
0100
0001
0100
,
0001
0000
1000
0000
0001
0000
0100
0010
,
1000
0000
1001
0000
0100
0000
0100
0001
,
1000
0000
0001
0000
0100
0010
0100
0010
,
1000
0000
0001
0000
0100
0000
0001
1000
,
0000
0010
1000
0100
1000
0000
0001
0100
,
0000
0001
1000
0010
0100
0000
0001
1000
,
0001
0000
1000
0000
0100
0000
0010
0100
,
0010
0000
1000
0000
0001
0100
0001
1000
,
0010
0100
1001
0100
,
1000
0000
0010
0000
1001
0000
0100
0100
,
0001
0000
1001
0000
1000
0000
0001
0100
,
0010
1001
0100
0010
,
1000
0001
0110
0010
,
1000
0000
0001
1000
0001
0000
0110
0000
,
1000
0101
0010
1001
,
0100
0001
0000
0100
1001
0000
1001
0000
,
0002
0003
2000
3000
,
0020
0030
0200
0310
,
1000
0001
0100
0010
,
1000
0100
0010
0001
,
1000
0010
0100
0001
,
1000
0001
0100
0010
,
1000
0001
0100
0010
,
0100
0001
1000
0010
,
0100
0001
1000
0010
,
1000
0001
0000
0000
0100
0000
0010
0000
,
1001
1001
1001
1001
,
0110
0110
0110
0110
,
1001
1001
1001
1001
,
0110
1001
0110
1001
,
2000
0000
0000
0000
0000
0000
3000
0010
,
0200
0000
0000
0300
0020
0000
0000
0030
,
2000
0000
0000
0000
0000
0000
0000
3000
,
0002
0000
0000
0003
,
0200
0300
0020
0030
,
1000
0001
0100
0010
,
1000
0001
0100
0010
,
1000
0010
0100
0010
,
1000
0001
0100
0001
,
1000
0001
0000
0100
0000
0010
0000
0100
,
0001
1000
0001
0100
,
0020
0000
0030
0000
,
0200
0000
0300
0001
,
1000
0000
0001
0000
1000
0001
1000
0000
,
0010
0000
0100
0000
0010
1000
0001
0000
,
0100
0000
0010
0000
1000
0001
1000
0000
,
0010
0100
0010
0100
0010
0100
0010
0100
,
0001
1001
0100
0110
,
1001
1001
1001
1001
,
0110
0110
1001
1001
,
0110
0110
1001
1001
,
0110
0110
1001
1001
,
0110
0110
1001
1001
,
1100
1100
0011
0011
,
1010
1010
0101
0101
,
0110
1001
0110
1001
,
1100
0011
1010
0101
,
2000
0000
0000
0000
,
0000
0000
0000
0000
,
0000
0000
0000
0000
0000
0000
3000
0001
;

//---------------dance-single - ----------------
#NOTES:
     dance-single:
     :
     Beginner:
     2:
     0.198530,0.258206,0.079161,0.096752,0.000000,158.000000,149.000000,9.000000,11.000000,0.000000,0.000000,0.198530,0.258206,0.079161,0.096752,0.000000,158.000000,149.000000,9.000000,11.000000,0.000000,0.000000:
0000
0000
0000
0000
,
0000
0000
0000
0000
,
0000
0000
0000
0000
,
0000
0000
0000
0000
,
0000
0000
0000
0000
,
0000
0000
0000
0000
,
1000
0000
1000
0000
,
0001
0000
0001
0000
,
0100
0000
0100
0000
,
0000
0220
0000
0330
,
1000
0000
1000
0000
,
0001
0000
0001
0000
,
0100
0000
0100
0000
,
0010
0000
0010
0000
,
1000
0000
1000
0000
,
0010
0000
0010
0000
,
0100
0100
0100
0100
,
0001
0000
0001
0000
,
1000
0000
1000
0000
,
0010
0000
0010
0000
,
1000
0000
1000
0000
,
0001
0000
0001
0000
,
0100
0000
0100
0000
,
0001
0000
0001
0000
,
1000
0000
1000
0000
,
0001
0000
1001
0000
,
0100
0000
0100
0000
,
0010
0000
0010
0000
,
1000
0000
1000
0000
,
0010
0000
0010
0000
,
0100
0000
0100
0000
,
0001
0000
0001
0000
,
1000
0000
1000
0000
,
0010
0000
0110
0000
,
1000
0000
0001
0000
,
0100
0000
0010
0000
,
1000
0000
0010
0000
,
0100
0000
0001
0000
,
1000
0000
0001
0000
,
0100
0000
0010
0000
,
1000
0000
0100
0000
,
0010
0000
0001
0000
,
1000
0000
1000
0000
,
0001
0000
0001
0000
,
0100
0000
0100
0000
,
0010
0000
0010
0000
,
1000
0000
1000
0000
,
0010
0000
0010
0000
,
0100
0000
0100
0000
,
0001
0000
0001
0000
,
1000
1000
1000
0000
,
0001
0001
0001
0000
,
0100
0100
0100
0000
,
0010
0010
0010
0000
,
2000
0000
0000
0000
,
0000
0000
0000
3000
,
0002
0000
0000
0003
,
2000
0000
3000
0000
,
0002
0000
0003
0000
,
2002
0000
3003
0000
,
0000
0000
0000
0000
,
0220
0000
0330
0000
,
0000
0000
0000
0000
,
1001
0000
0000
0000
,
0110
0000
0000
0000
,
1001
0000
0000
0000
,
0110
0000
0000
0000
,
1000
0000
1000
0000
,
0001
0000
0001
0000
,
0100
0000
0100
0000
,
0010
0000
0010
0000
,
1000
0000
0100
0000
,
0010
0000
0001
0000
,
1000
1000
1000
0000
,
0001
0001
0001
0000
,
0100
0100
0100
0000
,
0010
0010
0010
0000
,
1000
1000
1000
0000
,
0010
0010
0010
0000
,
0100
0100
0100
0000
,
0001
0001
0001
0000
,
2000
0000
0000
0000
,
0000
0000
0000
0000
,
3000
0000
0000
0000
0000
0000
0000
0001
;

//---------------dance-single - ----------------
#NOTES:
     dance-single:
     :
     Challenge:
     10:
     0.728780,1.217258,0.598102,0.730036,0.307847,580.000000,512.000000,68.000000,83.000000,0.000000,0.000000,0.728780,1.217258,0.598102,0.730036,0.307847,580.000000,512.000000,68.000000,83.000000,0.000000,0.000000:
// measure 0
0000
0000
0000
0000
,  // measure 1
0000
0000
0000
0000
,  // measure 2
0000
0000
0000
0000
,  // measure 3
0000
0000
0000
0000
,  // measure 4
0000
0000
0000
0000
,  // measure 5
0000
0000
0000
0000
,  // measure 6
1000
0001
0100
0001
1000
0010
0000
0200
,  // measure 7
0000
0301
0010
0001
1000
0010
0100
0001
,  // measure 8
1000
0100
0010
0001
1000
0001
0000
2001
,  // measure 9
0000
0000
3002
0000
0000
0203
0000
0310
,  // measure 10
1000
0001
0110
0010
1000
0010
1000
0020
,  // measure 11
0000
0130
1001
0010
0100
0010
1100
0001
,  // measure 12
0100
0001
1010
0001
1000
0010
1000
0002
,  // measure 13
0000
0103
1001
0010
0100
0010
1100
0001
,  // measure 14
1000
0010
0101
0010
0100
0001
1000
0200
,  // measure 15
0000
0310
1001
0010
0100
0001
1100
0001
,  // measure 16
1010
0110
1001
0110
,  // measure 17
1000
0100
1000
0000
0001
0000
1000
0000
0010
0000
0000
0000
0100
0001
0100
0001
,  // measure 18
2000
0000
0001
0000
0000
0000
3001
0200
,  // measure 19
0000
0000
0010
0310
1000
0100
0010
0001
,  // measure 20
2000
0000
0100
3002
0000
0000
0203
0000
,  // measure 21
0000
0000
0010
0000
0300
0000
0010
0100
,  // measure 22
0001
0000
1001
0010
0000
2000
0010
3000
,  // measure 23
0001
0000
1001
0100
0000
1000
0101
0000
,  // measure 24
2001
0000
0010
0000
0000
3010
0100
0001
,  // measure 25
1000
0000
0000
0001
0100
0000
0010
0000
1000
0001
0000
0000
1001
0000
0100
0000
,  // measure 26
0020
0000
0100
0000
0000
0000
1030
0002
,  // measure 27
0000
0000
0100
1003
0010
0100
0010
1000
,  // measure 28
0002
0000
0100
2003
0000
0000
3020
0000
,  // measure 29
0000
1000
0030
0110
,  // measure 30
1001
0000
0110
0001
0000
0200
0010
0300
,  // measure 31
0001
0000
1100
0010
0000
1000
0101
0000
,  // measure 32
1001
0000
0011
0100
0000
0010
0100
1000
,  // measure 33
0002
0000
0023
0000
0230
0000
1300
1000
,  // measure 34
0022
0033
2200
3300
,  // measure 35
2002
3003
0110
0110
,  // measure 36
2020
3030
0000
0220
0330
0000
0101
0000
,  // measure 37
2002
0000
0000
0000
3003
0000
0100
0000
0010
0100
0010
0000
1001
0000
0000
0000
,  // measure 38
2200
3300
0000
0022
0033
0000
1001
0000
,  // measure 39
2000
0100
3001
0000
0110
0000
0110
0000
,  // measure 40
0012
1003
0210
0301
,  // measure 41
2000
0000
0000
0000
3001
0000
0000
0000
0100
0000
0001
0100
0001
0100
0001
0100
,  // measure 42
0002
2003
3020
0230
,  // measure 43
0302
0023
0230
2300
,  // measure 44
3002
0203
0320
2030
,  // measure 45
3002
0000
2003
0000
3200
0000
0310
0010
,  // measure 46
0002
2003
3020
0230
,  // measure 47
0320
2030
3002
0203
,  // measure 48
0320
2030
3002
0203
,  // measure 49
0301
1000
0001
2000
0000
0000
0000
0000
3001
0010
0001
0000
1000
0100
1000
0000
,  // measure 50
0001
1000
0010
0100
0001
1000
0010
0100
,  // measure 51
0001
0010
0100
1000
0001
0100
0010
1000
,  // measure 52
0001
0100
0001
0100
0010
1000
0010
1000
0001
0010
0001
0010
0100
1000
0100
1000
,  // measure 53
0001
1000
0001
1000
0010
0100
0010
0100
0010
1000
0010
1000
0001
0000
1000
0000
,  // measure 54
0002
0000
0000
0000
0000
0000
0000
0103
,  // measure 55
0020
0000
2030
0000
,  // measure 56
3002
0010
0010
0010
0010
0010
0010
0010
,  // measure 57
2003
0100
0010
0100
0010
0100
0010
3100
,  // measure 58
0001
1000
0001
1000
0001
0000
0000
0100
0010
0000
1000
0100
0000
1001
0000
0000
,  // measure 59
1000
0010
0100
1020
0000
0000
0000
0000
,  // measure 60
0000
0000
0000
1030
1001
0100
0010
1000
,  // measure 61
0001
0100
0002
1000
0000
0000
0000
0000
,  // measure 62
0003
0000
0100
0000
0000
0000
0100
0010
1000
0000
0001
0000
0100
0000
0010
0000
,  // measure 63
1001
1001
0000
0110
0000
1001
0000
0110
,  // measure 64
1001
0010
1001
0000
0101
0000
0101
0010
,  // measure 65
2001
0000
0000
0100
0000
0001
3010
0001
,  // measure 66
1000
0000
0001
0000
0100
0000
0010
0000
1000
0001
0000
0000
0110
0000
0110
0000
,  // measure 67
0002
0000
0000
1000
0000
0000
1003
0020
,  // measure 68
0000
0000
2030
3002
,  // measure 69
1003
0000
0100
0000
0010
0001
0010
0000
0001
0000
1000
0000
0001
0000
0100
0000
,  // measure 70
0010
1000
0001
1000
0010
0100
0010
1000
,  // measure 71
0010
0000
0100
0010
0100
0000
0001
0000
0100
0000
0001
1000
0001
1000
0001
0000
,  // measure 72
1000
0010
1000
0000
0001
0100
0001
0000
0100
0000
0010
0100
0010
0000
1001
0000
,  // measure 73
1001
0010
0100
0010
1001
0010
0100
0010
,  // measure 74
1100
0000
0001
0010
0001
0000
0100
0000
0011
0000
1000
0000
0010
0000
1000
0000
,  // measure 75
0011
0100
0010
0100
0011
1000
0010
1000
,  // measure 76
0011
0000
0100
0000
0010
0000
1000
0000
0110
0000
1000
0001
1000
0000
0100
0000
,  // measure 77
0010
0001
0010
0001
1000
0100
1000
0100
1000
0010
1000
0010
0100
0001
0100
0001
,  // measure 78
1000
0001
1000
0001
0100
0010
0100
0010
1000
0100
1000
0100
0010
0001
0010
0001
,  // measure 79
1000
0100
1000
0000
0001
0010
0001
0000
1000
0000
0010
0000
0100
0000
0010
0000
,  // measure 80
1000
0000
0001
0010
0001
0000
1000
0000
0010
0100
0010
0000
1000
0100
1000
0000
,  // measure 81
0010
0100
0010
0100
0000
0001
0000
0001
,  // measure 82
0000
0000
1000
0000
0010
0100
0010
0000
0001
1000
0001
1000
0010
0100
0010
0100
,  // measure 83
0001
0000
1000
0000
0001
0000
1000
0000
0100
0010
0100
0000
0000
0000
1001
0000
;
