#TITLE:REVOLUTION (feat. 安室奈美恵);
#SUBTITLE:;
#ARTIST:Crystal Kay;
#TITLETRANSLIT:REVOLUTION (feat. Namie Amuro);
#SUBTITLETRANSLIT:;
#ARTISTTRANSLIT:;
#GENRE:;
#CREDIT:;
#BANNER:[Show & Tell] - REVOLUTION (feat. Namie Amuro).png;
#BACKGROUND:[Show & Tell] - REVOLUTION (feat. Namie Amuro)-bg.png;
#LYRICSPATH:;
#CDTITLE:;
#MUSIC:[Show & Tell] - REVOLUTION (feat. Namie Amuro).ogg;
#OFFSET:0.000000;
#SAMPLESTART:52.000000;
#SAMPLELENGTH:15.000000;
#SELECTABLE:YES;
#DISPLAYBPM:128.000000;
#BPMS:0.000000=128.000000
;
#STOPS:
;
#BGCHANGES:0.000=[Show & Tell] - REVOLUTION (feat. Namie Amuro).avi=1.000=0=0=0=StretchNoLoop====,
99999=-nosongbg-=1.000=0=0=0 // don't automatically add -songbackground-
;
#KEYSOUNDS:;
#ATTACKS:;

//---------------dance-single - ----------------
#NOTES:
     dance-single:
     :
     Hard:
     7:
     0.300456,0.342826,0.117206,0.162786,0.013023,323.000000,305.000000,18.000000,25.000000,0.000000,0.000000,0.300456,0.342826,0.117206,0.162786,0.013023,323.000000,305.000000,18.000000,25.000000,0.000000,0.000000:
0000
0000
0000
0000
,
0000
0000
0000
0000
,
0000
0000
0000
0000
,
0000
0000
0000
0000
,
0000
0000
0000
0000
,
0010
0001
0010
0001
0010
0001
0010
0001
,
0100
0010
0100
0010
0100
0010
0100
0010
,
1000
0100
1000
0100
1000
0100
1000
0100
,
2002
0000
0000
3003
,
0200
0000
0000
0000
0010
0010
0310
0000
,
0020
0000
0000
0000
1000
1000
1030
0000
,
2000
0000
0000
0001
0001
0001
3000
0100
,
0000
0010
0000
1000
0000
0001
0000
1000
,
1000
0000
0001
1000
0000
1000
0001
0000
,
0100
0000
0100
0010
0000
0010
0100
0000
,
0001
0010
0001
0100
0010
0100
0010
1000
,
0100
0000
0100
1000
0000
1000
0100
1000
,
0010
0000
0010
0000
0010
0100
0001
0000
,
0010
0000
0010
0100
1000
0000
1100
0000
,
0010
0100
0001
0000
0010
0001
0100
0010
,
1000
0100
0010
0001
0000
0110
0000
0010
,
0011
0000
0001
1000
0100
0100
0010
0001
,
0101
0000
0100
0000
0010
1000
0010
0000
,
0100
0010
1000
0100
1000
0010
0100
0001
,
0020
0100
0100
0230
,
2300
0000
0010
0020
0000
0000
3030
0200
,
0000
0301
0000
0010
0000
0001
0000
0000
,
0020
0000
0031
0002
0000
0003
0100
0200
,
0000
0310
0000
2000
0000
0001
3000
0100
,
0110
0000
0000
0010
0000
0000
1000
0000
0000
0100
0000
0000
1000
0000
0001
0000
,
0100
0000
0000
0010
0000
0000
0100
0000
0000
0001
0000
0000
0010
0000
0100
0000
,
1000
0100
1000
0010
0100
0001
0010
0001
,
2002
0000
3003
0110
,
1001
0001
0010
0001
0100
0010
1000
0100
,
0010
0100
1000
0010
0100
0001
0010
0000
,
0001
0100
0010
0010
0100
0001
0010
0100
,
1000
0010
0100
0001
0020
0001
0031
0000
,
0100
0010
1000
1000
0100
0001
0100
1000
,
0010
0100
0010
0100
0001
0010
0100
1000
,
0020
0001
0100
1030
,
0010
0100
0001
0010
0100
1000
1100
0010
,
0120
0000
0130
0000
0001
0010
0100
1000
,
1000
0010
0100
0001
0010
0001
0101
0000
,
1000
0010
0100
0001
0010
0001
0100
0010
,
1000
0100
1000
0010
0100
0001
0011
0000
,
0110
0010
1000
0010
0001
0010
1000
0010
,
0100
0001
0010
0001
0010
0000
0100
0010
,
0200
0010
0001
1300
,
0010
0100
0001
0010
0200
0000
0310
0000
,
0001
0000
0101
0000
0100
0010
1000
0000
,
0100
1000
0010
0100
0010
0000
0100
0000
,
0001
0000
0011
0000
0010
0100
1000
0000
,
0001
0001
0100
0010
1000
0000
0010
0000
,
0100
0000
0110
0000
0001
0010
0100
0000
,
1000
0010
0100
0001
0010
0000
0100
0000
,
2000
0000
0000
3020
0000
0000
0130
0000
,
0001
0010
0001
0100
0010
0000
1000
0000
,
2002
0000
0000
0000
,
0000
0000
3003
0000
;

//---------------dance-single - ----------------
#NOTES:
     dance-single:
     :
     Medium:
     5:
     0.213016,0.285689,0.097671,0.084648,0.000000,229.000000,214.000000,15.000000,13.000000,0.000000,0.000000,0.213016,0.285689,0.097671,0.084648,0.000000,229.000000,214.000000,15.000000,13.000000,0.000000,0.000000:
0000
0000
0000
0000
,
0000
0000
0000
0000
,
0000
0000
0000
0000
,
0000
0000
0000
0000
,
0000
0000
0000
0000
,
1000
0001
1000
0000
0010
0100
0010
0000
,
0010
1000
0100
0000
1000
0001
1000
0000
,
0001
0010
0001
0100
0010
1000
0001
0000
,
0220
0000
0000
0330
,
0010
0000
0010
0010
,
0100
0000
0100
0100
,
0010
0000
0010
1000
,
0100
0000
1000
0000
0010
0000
0100
0001
,
0100
0000
0100
0000
0010
0010
0010
0000
,
0100
0001
0010
0001
,
1000
0001
1000
0000
0010
0000
0100
0002
,
2000
0000
0000
3003
,
0010
0010
0010
0110
,
0100
0100
0100
0101
,
0001
0001
0001
0011
,
0010
0001
1000
1001
,
0110
0000
0010
0000
1000
0100
1000
0000
,
0010
0000
0100
0000
0001
0010
0001
0000
,
0200
0010
1000
0301
,
0020
0100
1000
0031
,
0100
0000
0000
0010
0000
0000
0000
0010
,
0000
1000
0000
0100
0000
1000
0000
0000
,
0010
0000
0000
0100
0000
0000
0000
0001
,
0000
0100
0000
0001
0000
0010
0000
0001
,
0100
0100
0100
0000
,
0010
0010
0010
0000
,
0010
1000
0100
0000
0010
0001
0100
0000
,
0220
0000
0330
1001
,
0110
0000
0110
0000
0010
1000
0100
0000
,
1000
0010
0100
0001
0010
0000
0010
0000
,
0001
0001
0100
0100
,
0010
0000
1000
0100
1000
0000
1100
0000
,
0110
0001
0010
0001
,
0100
0000
0100
0000
0001
0010
0100
0000
,
0010
0001
0100
0001
,
0100
0001
0010
0000
0001
0000
1000
0000
,
0010
0010
0010
0010
,
0100
0000
0100
0000
0001
0010
0001
0000
,
0100
0100
0100
0100
,
0001
1000
0100
0100
,
1000
1000
0010
0010
,
1000
1000
0100
0100
,
1000
0001
1000
0001
,
0100
0010
0100
0110
,
1001
1000
0010
0100
,
0001
0010
0001
0100
0001
0000
0001
0000
,
1000
1000
0010
0010
,
0200
0000
0010
0310
,
1000
0010
0100
0100
,
0001
1000
0100
1000
,
0002
0000
0000
2000
0000
0000
3003
0000
,
1000
0010
0100
0001
,
2002
0000
0000
0000
,
0000
0000
3003
0000
;

//---------------dance-single - ----------------
#NOTES:
     dance-single:
     :
     Easy:
     3:
     0.148832,0.228551,0.091160,0.097671,0.000000,160.000000,146.000000,14.000000,15.000000,0.000000,0.000000,0.148832,0.228551,0.091160,0.097671,0.000000,160.000000,146.000000,14.000000,15.000000,0.000000,0.000000:
// measure 0
0000
0000
0000
0000
,  // measure 1
0000
0000
0000
0000
,  // measure 2
0000
0000
0000
0000
,  // measure 3
0000
0000
0000
0000
,  // measure 4
0000
0000
0000
0000
,  // measure 5
1000
0010
1000
0000
,  // measure 6
0001
0100
0001
0000
,  // measure 7
0010
0001
0010
0000
,  // measure 8
0002
0000
0100
0003
,  // measure 9
0010
0000
0010
0000
,  // measure 10
0100
0000
0100
0000
,  // measure 11
0001
0000
0001
0000
,  // measure 12
1000
0000
1000
0000
,  // measure 13
0010
0010
0010
0000
,  // measure 14
0100
0100
0100
0000
,  // measure 15
0001
1000
0010
0000
,  // measure 16
0010
0100
0001
0000
,  // measure 17
1000
1000
1000
1100
,  // measure 18
0010
0010
0010
0011
,  // measure 19
0100
0100
0100
0101
,  // measure 20
0001
0001
0001
1001
,  // measure 21
0001
1000
0010
0010
,  // measure 22
0010
1000
0100
0100
,  // measure 23
1000
0001
0100
0010
,  // measure 24
0220
0000
0000
0330
,  // measure 25
0200
0000
0000
0300
,  // measure 26
0020
0000
0000
0030
,  // measure 27
2000
0000
0000
3000
,  // measure 28
0002
0000
0000
0003
,  // measure 29
1000
0000
1000
0000
,  // measure 30
0001
0000
0001
0000
,  // measure 31
0100
0010
0100
0010
,  // measure 32
0220
0000
0330
1001
,  // measure 33
0110
0010
1000
0000
,  // measure 34
0100
1000
0010
0000
,  // measure 35
0010
0100
0001
0001
,  // measure 36
1000
1000
0001
1001
,  // measure 37
0000
0100
0100
0100
,  // measure 38
0001
0010
0001
0100
,  // measure 39
2000
0000
3100
0000
,  // measure 40
0002
1000
1003
0000
,  // measure 41
0010
0010
0100
0100
,  // measure 42
0010
0100
0010
0110
,  // measure 43
0000
0001
1000
0001
,  // measure 44
1000
1000
0001
1001
,  // measure 45
0000
0100
0000
0100
,  // measure 46
0000
0010
0000
0010
,  // measure 47
1010
0000
0101
0000
,  // measure 48
0010
0001
0100
0000
,  // measure 49
0001
0000
0001
0000
,  // measure 50
1000
0010
1000
0000
,  // measure 51
0100
0000
0100
0000
,  // measure 52
1000
0010
1000
0001
,  // measure 53
0100
0000
0100
0000
,  // measure 54
0010
0000
0010
0000
,  // measure 55
0200
0000
0020
0330
,  // measure 56
0010
0100
0001
1000
,  // measure 57
2002
0000
0000
0000
,  // measure 58
0000
0000
3003
0000
;

//---------------dance-single - ----------------
#NOTES:
     dance-single:
     :
     Beginner:
     1:
     0.093020,0.152367,0.026046,0.013023,0.000000,100.000000,96.000000,4.000000,2.000000,0.000000,0.000000,0.093020,0.152367,0.026046,0.013023,0.000000,100.000000,96.000000,4.000000,2.000000,0.000000,0.000000:
0000
0000
0000
0000
,
0000
0000
0000
0000
,
0000
0000
0000
0000
,
0000
0000
0000
0000
,
0000
0000
0000
0000
,
1000
0000
0000
0000
,
0001
0000
0000
0000
,
1000
0000
0000
0000
,
0001
0000
0000
0000
,
0010
0000
0000
0000
,
0100
0000
0000
0000
,
0010
0000
0000
0000
,
0100
0000
0000
0000
,
0001
0000
0000
0000
,
1000
0000
0000
0000
,
0001
0000
0001
0000
,
0001
0000
0000
0000
,
1000
1000
1000
0000
,
0001
0001
0001
0000
,
0010
0000
0010
0000
,
0100
0100
0100
0000
,
0001
0000
1000
0000
,
0010
0000
1000
0000
,
0001
0000
1000
0000
,
1001
0000
0000
0000
,
0100
0000
0000
0000
,
0010
0000
0000
0000
,
1000
0000
0000
0000
,
0001
0000
0000
0000
,
1000
1000
1000
0000
,
0001
0001
0001
0000
,
0010
0000
0100
0000
,
0110
0000
0000
0000
,
1000
0000
0001
0000
,
1000
0000
1000
0000
,
0010
0000
0100
0000
,
0010
0000
0010
0000
,
1000
0000
0100
0000
,
1000
0000
1000
0000
,
0001
0000
0010
0000
,
0001
0000
0001
0000
,
0100
0100
0100
0000
,
0100
0000
0000
0000
,
0010
0010
0010
0000
,
0010
0000
0000
0000
,
1000
0000
1000
0000
,
0001
0000
0001
0000
,
1000
1000
1000
0000
,
0001
0001
0001
0000
,
0110
0000
0100
0000
,
0001
0000
1000
0000
,
0010
0000
1000
0000
,
0001
0000
1000
0000
,
1000
0000
0010
0000
,
0100
0000
0100
0000
,
0001
0000
1000
0000
,
0100
0100
0100
0000
,
2002
0000
0000
0000
,
0000
0000
3003
0000
;

//---------------dance-single - ----------------
#NOTES:
     dance-single:
     :
     Challenge:
     9:
     0.428824,0.478182,0.227900,0.091160,0.218133,461.000000,426.000000,35.000000,14.000000,0.000000,0.000000,0.428824,0.478182,0.227900,0.091160,0.218133,461.000000,426.000000,35.000000,14.000000,0.000000,0.000000:
0000
0000
0000
0000
,
0000
0000
0000
0000
,
0000
0000
0000
0000
,
0000
0000
0000
0000
,
0000
0000
0000
0000
,
0010
0100
0010
0100
0010
0100
0010
0100
,
0001
0010
0001
0010
0001
0010
0001
0010
,
0001
1000
0001
1000
0001
1000
0001
1000
0001
1000
0001
1000
0001
1000
0001
0000
,
0220
0000
0000
0330
,
1010
0000
0010
0100
0001
0001
0010
0000
,
0001
0000
0100
0010
1000
1000
0010
0000
,
0100
0000
0001
0010
0100
1000
0010
0100
,
0010
0100
0001
0010
0001
0100
0010
0100
,
0110
0000
0000
0000
0010
0000
1010
0000
0000
0000
0100
0000
0101
0000
0000
0010
,
0001
0000
0000
0000
0001
0000
1001
0000
0000
0000
1000
0000
1010
0000
0000
0100
,
1000
0000
0000
0000
1000
0000
1010
0000
0000
0000
0100
0000
0101
0000
0000
0010
,
0100
0000
0100
0101
0000
0001
0011
0001
,
1000
0010
0100
0001
0010
0100
1000
0010
,
1000
0100
0010
0001
0100
0010
0010
0000
,
0100
0010
1000
0001
0010
0001
0100
1000
,
0100
0001
0010
0100
0000
1000
0010
0100
,
0110
0000
0110
0000
0100
0010
0100
0000
,
1001
0000
1001
0000
0001
1000
0001
0000
,
0100
0010
1000
0100
1000
0010
0100
0001
,
0020
0100
0130
0000
0200
0010
0310
0000
,
0011
0000
0001
0101
0100
0010
1000
0100
,
1000
0010
0100
0001
0000
0010
0100
1000
,
0010
0100
0001
0010
0001
1000
0010
0001
,
0010
1000
0010
0100
0000
0100
0010
0100
,
0110
0000
0010
0100
0000
0100
0001
0000
0001
0010
0000
0010
0001
0000
0001
0000
,
0100
0000
0100
0010
0000
0010
1000
0000
1000
0100
0000
0100
1000
0000
0010
0000
,
0100
0001
0010
0001
0100
0010
1000
0100
,
1000
0010
0100
0001
0010
0100
1000
0010
0100
0010
0100
0000
1010
0000
0000
0000
,
1001
0000
0001
1000
0001
0000
0100
0000
0010
0000
0100
0010
0100
0000
0001
0000
,
1000
0000
0100
1000
0100
0000
1000
0000
0010
0000
0100
0000
0110
0000
0001
0000
,
0011
0000
0001
0100
0001
0000
0100
0000
0010
0000
1000
0100
1000
0000
0010
0000
,
0100
0000
0001
0010
0001
0000
0100
0001
0100
0000
0010
0000
1010
0000
0100
0000
,
0110
0000
1000
0010
1000
0000
0010
0000
0100
0000
0001
0010
0001
0000
0100
0000
,
0010
0000
1000
0100
1000
0000
0010
0000
0100
0000
0001
0000
0010
0000
0001
0000
,
0200
0010
0010
0310
,
0010
1000
0100
1000
0010
0100
0101
0001
,
0011
0000
0001
0010
0001
0000
0100
0010
0100
0000
0010
0000
1000
0000
0100
0000
,
1000
0000
0010
1000
0010
0000
0100
0010
0100
0000
0010
0000
0110
0000
0001
0000
,
0011
0000
0001
0100
0001
0000
0010
0001
0010
0000
0001
0000
0100
0000
0010
0000
,
1000
0000
0100
1000
0100
0000
1000
0000
0010
0000
0100
0000
0110
0000
0010
0000
,
0110
0000
0100
0001
0100
0000
0001
0000
0010
0000
0100
0000
1000
0000
0010
0100
,
0010
0100
0001
0010
0001
0100
0010
1000
,
0200
1000
1300
0000
0020
0100
0130
0002
,
0010
0100
1003
0110
,
1001
0000
0001
1000
0000
1000
0010
0000
0100
0010
0000
0100
0010
0000
0000
0000
,
0010
0000
1000
0100
1000
0000
0010
0000
0100
0000
0001
0000
0011
0000
0100
0000
,
0110
0000
0010
0100
0000
0100
0010
0000
0010
1000
0000
1000
0010
0000
0100
0000
,
0010
0000
0010
0000
0010
0000
0200
0000
0000
0310
0000
0000
,
0100
0000
0100
0001
0000
0001
0100
0000
0100
0010
0000
0010
1000
0000
0100
0000
,
1000
0000
1000
0010
0000
0010
0100
0000
0010
1000
0000
1000
0001
0000
0100
0000
,
0020
0000
0000
0000
0100
0000
0000
0000
0100
0000
0000
0000
0100
0000
0000
0000
0100
0000
0000
0000
0100
0030
0000
0000
,
0010
1000
0010
0100
0001
0010
0100
0010
,
2001
0000
0001
0000
0001
0000
3001
0000
0001
0000
0200
0000
0310
0100
0010
0100
,
0020
0100
0100
0100
0200
0000
0330
0000
;
