#TITLE:Prime;
#SUBTITLE:;
#ARTIST:Allie X;
#TITLETRANSLIT:;
#SUBTITLETRANSLIT:;
#ARTISTTRANSLIT:;
#GENRE:;
#CREDIT:;
#BANNER:[Show & Tell] - Prime.png;
#BACKGROUND:[Show & Tell] - Prime-bg.png;
#LYRICSPATH:;
#CDTITLE:;
#MUSIC:[Show & Tell] - Prime.mp3;
#OFFSET:-0.214000;
#SAMPLESTART:62.944000;
#SAMPLELENGTH:18.820999;
#SELECTABLE:YES;
#BPMS:0.000000=106.000000
;
#STOPS:
;
#BGCHANGES:;
#KEYSOUNDS:;
#ATTACKS:;

//---------------dance-single - ----------------
#NOTES:
     dance-single:
     :
     Hard:
     9:
     0.495419,0.581172,0.498156,0.134119,0.344877,362.000000,310.000000,52.000000,14.000000,0.000000,0.000000,0.495419,0.581172,0.498156,0.134119,0.344877,362.000000,310.000000,52.000000,14.000000,0.000000,0.000000:
// measure 0
0000
0000
0000
0000
,  // measure 1
0000
0000
0000
0000
,  // measure 2
0000
0000
0000
0000
,  // measure 3
0000
0000
0000
0000
,  // measure 4
0001
0100
0000
0100
0010
0000
1000
0000
1000
0000
0000
0000
1001
0000
0000
0000
,  // measure 5
0001
0010
0000
0010
0100
0000
1000
0000
1000
0000
0000
0000
1001
0000
0000
0000
,  // measure 6
0001
0010
1000
0010
0001
0010
0100
0010
0001
1000
0000
0000
1001
0000
0000
0000
,  // measure 7
1000
0010
0001
0010
1000
0010
0100
0010
1000
0001
0000
0000
1001
0000
0000
0000
,  // measure 8
1000
0010
0000
0010
0100
0000
0001
0000
0001
0000
0000
0000
1001
0000
0000
0000
,  // measure 9
1000
0100
0000
0100
0010
0000
0001
0000
0001
0000
0000
0000
1001
0000
0000
0000
,  // measure 10
1000
0100
0001
0100
1000
0100
0010
0100
1000
0001
0000
0000
1001
0000
0000
0000
,  // measure 11
0001
0100
1000
0100
0001
0100
0010
0100
0001
1000
0000
0000
1001
0000
0000
0000
,  // measure 12
0001
1000
0000
1000
0100
0000
0100
0000
0100
0000
0000
0000
0010
0100
0010
0000
,  // measure 13
0001
0010
0000
0010
0001
0000
1000
0000
0010
0000
0000
0000
1010
0000
0000
0000
,  // measure 14
1000
0010
0000
0010
0100
0000
0100
0000
0100
0000
0001
0000
1000
0001
1000
0000
,  // measure 15
0100
0000
0010
0100
0010
0000
0001
0000
0001
0000
1000
0000
1000
0000
0010
0000
,  // measure 16
0010
0100
0000
0100
0001
0000
0001
0000
0001
0000
0000
0000
1000
0001
1000
0000
,  // measure 17
0001
0010
0000
0010
0100
0000
0100
0000
0100
0000
0000
0000
0110
0000
0000
0000
,  // measure 18
0010
0001
0000
0001
1000
0000
1010
0000
1001
0000
0001
0000
0010
0000
0011
0000
,  // measure 19
0100
0000
1100
0000
1001
0000
0001
0000
1000
0010
0100
0001
1000
0001
0010
0100
,  // measure 20
2000
3001
0201
0310
,  // measure 21
0120
0000
1030
1010
1000
0001
1001
0000
,  // measure 22
0021
0130
0210
1300
,  // measure 23
2001
0000
0000
0000
3001
0000
0000
0000
0001
0100
1000
0100
0001
0000
1000
0000
,  // measure 24
0100
0100
0110
0000
0012
0000
1003
0000
,  // measure 25
2001
0000
3010
1010
0010
0100
0101
0001
,  // measure 26
2001
3100
1200
0310
,  // measure 27
0011
0000
0001
0000
0010
0000
0010
0000
0100
0000
0100
0000
1000
0001
1000
0001
,  // measure 28
1000
0000
0000
0010
1000
0000
0001
0000
0010
0000
0000
0001
0010
0000
0001
0000
,  // measure 29
2000
0000
0000
0000
3010
0000
0001
0000
0010
1000
0001
1000
0100
0000
0000
0000
,  // measure 30
1000
0000
0000
0100
1000
0000
0001
0000
0100
0000
0000
0001
0100
0000
0001
0000
,  // measure 31
2000
0000
3100
0001
0100
0000
1100
0000
,  // measure 32
1000
0000
0000
0001
0010
0000
0001
0000
1000
0000
0000
0010
1000
0000
0001
0000
,  // measure 33
2000
0000
0000
0000
3100
0000
0010
0000
0001
0010
0001
1000
0010
0000
0000
0000
,  // measure 34
0100
0000
0000
0001
1000
0000
0100
0000
0010
0000
0000
0100
1000
0000
0001
0000
,  // measure 35
0200
0000
0000
0000
0310
0000
1000
0000
0001
0000
0001
0000
1000
0000
0001
1000
,  // measure 36
0001
0001
0011
0000
1000
1000
1010
0000
,  // measure 37
0001
0000
0001
0000
1001
0000
0000
0000
1000
0100
0010
0001
1000
0000
0000
0000
,  // measure 38
0010
0010
1010
0000
0100
0100
0110
0000
,  // measure 39
0001
0001
0101
0000
0011
0110
1100
0000
,  // measure 40
0001
0100
0101
0000
0010
1000
1010
0000
,  // measure 41
0010
0000
1000
0000
1001
0000
0000
0000
0001
0010
0100
1000
0001
0000
0000
0000
,  // measure 42
1000
0100
1100
0000
0010
0001
0011
0000
,  // measure 43
0001
0000
1000
0000
1001
0000
0000
0000
0101
0000
0110
0000
1010
0000
0000
1001
,  // measure 44
0000
0000
0000
0000
0001
0000
0000
1001
0000
0000
0000
0000
1000
0000
0000
1001
;

//---------------dance-single - ----------------
#NOTES:
     dance-single:
     :
     Medium:
     5:
     0.287398,0.344398,0.114959,0.249078,0.033530,210.000000,198.000000,12.000000,26.000000,0.000000,0.000000,0.287398,0.344398,0.114959,0.249078,0.033530,210.000000,198.000000,12.000000,26.000000,0.000000,0.000000:
0000
0000
0000
0000
,
0000
0000
0000
0000
,
0000
0000
0000
0000
,
0000
0000
0000
0000
,
0001
0000
0010
0001
1000
0000
1001
0000
,
1000
0000
0010
1000
0001
0000
1001
0000
,
1000
0000
0000
0100
0000
0000
0010
0000
0001
0000
0000
0000
1001
0000
0000
0000
,
0001
0000
0000
0100
0000
0000
0010
0000
1000
0000
0000
0000
1001
0000
0000
0000
,
0001
0010
0001
1000
0010
0000
1010
0000
,
1000
0010
1000
0001
0010
0000
0011
0000
,
0001
0000
0000
0010
0000
0000
0100
0000
0100
0000
0000
0000
0110
0000
0000
0000
,
1000
0000
0000
0010
0000
0000
0100
0000
0100
0000
0000
0000
0110
0000
0000
0000
,
0010
0000
1000
0010
1000
0000
0001
0000
,
0001
0010
0010
0100
,
1000
0000
0010
0010
0010
0000
1000
0000
,
0001
0000
0010
0001
0010
0000
0100
0000
,
1000
0000
0001
0010
0001
0000
1000
0000
,
1000
0010
0010
0100
,
0001
0000
0100
0001
0010
0000
0010
0001
,
1000
0000
0010
0000
0100
0010
1000
0001
,
0020
0230
2300
3000
,
0002
0000
0003
1000
0001
0000
0100
0000
,
0020
0030
2000
3000
,
0002
0000
0003
0000
1000
0001
1000
0100
,
0010
0010
0002
0000
2003
0000
3000
0000
,
0020
0000
0030
0100
0200
0001
0302
1000
,
2003
3000
0200
0300
,
0010
0000
0001
0000
1000
0000
0001
0100
,
1000
0000
1000
0100
0001
0000
0001
0100
,
0020
0000
0001
0000
0100
0000
1030
0100
,
0001
0000
0001
0100
1000
0000
1000
0100
,
0020
0000
1000
0000
0100
0000
0031
0010
,
0100
0000
1000
0010
0100
0000
0001
1000
,
0200
0000
0001
0000
0010
0000
1300
0100
,
0010
0000
0001
0100
0010
0000
1000
0001
,
0200
0000
1000
0000
0010
0000
0301
0001
,
2000
3010
0002
0013
,
1000
0000
1001
0000
0001
1000
0001
0000
,
2000
3100
0002
0103
,
1000
0000
1001
0000
1000
0001
1000
0000
,
0002
0013
2000
3010
,
0001
0000
1001
0000
1000
0001
1000
0000
,
0002
0103
2000
3100
,
0001
0000
0000
0000
1001
0000
0000
0000
0001
0000
1000
0000
0001
0000
0000
0001
,
0000
0000
0000
0000
0100
0000
0000
0100
0000
0000
0000
0000
0010
0000
0000
0010
;

//---------------dance-single - ----------------
#NOTES:
     dance-single:
     :
     Easy:
     3:
     0.177913,0.188605,0.028740,0.095799,0.000000,130.000000,127.000000,3.000000,10.000000,0.000000,0.000000,0.177913,0.188605,0.028740,0.095799,0.000000,130.000000,127.000000,3.000000,10.000000,0.000000,0.000000:
0000
0000
0000
0000
,
0000
0000
0000
0000
,
0000
0000
0000
0000
,
0000
0000
0000
0000
,
1000
0001
0100
0000
,
0001
1000
0100
0100
,
1000
0100
0001
0000
,
0001
0100
1000
0000
,
0001
0010
0100
0000
,
1000
0010
0100
0100
,
0001
0100
1000
0000
,
1000
0100
0001
0000
,
1000
1000
0010
0010
,
0100
0100
0100
0100
,
0001
0001
1000
1000
,
0100
0100
0100
0100
,
0010
0001
1000
1000
,
0001
1000
0010
0010
,
0100
0000
0001
0000
,
1000
1000
0001
0001
,
0020
0030
0020
0030
,
0200
0300
0100
1000
,
0020
0030
0020
0030
,
0200
0300
0100
0001
,
0010
0010
0002
0003
,
2000
3000
0010
0010
,
2000
3000
0020
0030
,
0100
0001
1000
1001
,
0001
0100
0001
0000
,
1000
0010
1000
0000
,
0100
1000
0100
0000
,
0010
0001
0010
0000
,
0001
0010
1000
0000
,
1000
0010
0001
0000
,
1000
0010
0001
0000
,
0001
0010
1000
1001
,
0001
0100
0000
0100
,
0000
0100
0010
0010
,
1000
0100
0000
0100
,
0000
0100
0010
0010
,
0100
0010
0000
0010
,
0000
0010
0001
0001
,
0100
0010
0000
0010
,
0000
0010
1000
1001
;

//---------------dance-single - ----------------
#NOTES:
     dance-single:
     :
     Beginner:
     1:
     0.094431,0.104182,0.000000,0.000000,0.000000,69.000000,69.000000,0.000000,0.000000,0.000000,0.000000,0.094431,0.104182,0.000000,0.000000,0.000000,69.000000,69.000000,0.000000,0.000000,0.000000,0.000000:
0000
0000
0000
0000
,
0000
0000
0000
0000
,
0000
0000
0000
0000
,
0000
0000
0000
0000
,
1000
0000
0000
0000
,
0100
0000
0100
0000
,
0010
0000
0000
0000
,
0010
0000
0000
0000
,
0001
0000
0000
0000
,
0100
0000
0100
0000
,
0010
0000
0000
0000
,
0010
0000
0000
0000
,
1000
0000
1000
0000
,
1000
0000
1000
0000
,
1000
0000
0000
0000
,
0001
0000
1000
0000
,
0001
0000
0001
0000
,
0001
0000
0001
0000
,
0001
0000
1000
0000
,
0100
0100
0000
0000
,
0010
0000
0010
0000
,
0010
0000
0000
0000
,
0001
0000
0001
0000
,
0001
0000
0000
0000
,
0100
0000
0100
0000
,
0100
0000
0000
0000
,
0010
0000
0010
0000
,
0010
0000
0000
0000
,
1000
1000
0000
0000
,
1000
1000
0000
0000
,
0001
0001
0000
0000
,
0001
0001
0000
0000
,
0010
0010
0000
0000
,
0010
0010
0000
0000
,
0100
0100
0000
0000
,
0100
0000
0100
0000
,
1000
0000
0010
0000
,
1000
0000
1000
0000
,
0001
0000
0010
0000
,
0001
0000
0001
0000
,
0100
0000
0010
0000
,
0100
0000
0100
0000
,
0010
0000
0100
0000
,
0010
0000
0010
0000
;
