#VERSION:0.82;
#TITLE:PLS GO FAST;
#SUBTITLE:;
#ARTIST:coda;
#TITLETRANSLIT:;
#SUBTITLETRANSLIT:;
#ARTISTTRANSLIT:;
#GENRE:;
#ORIGIN:;
#CREDIT:darkanine;
#BANNER:PLS GO FAST-bn.png;
#BACKGROUND:PLS GO FAST-bg.png;
#PREVIEWVID:;
#JACKET:PLS GO FAST-jk.png;
#CDIMAGE:;
#DISCIMAGE:;
#LYRICSPATH:;
#CDTITLE:darkanine.png;
#MUSIC:PLS GO FAST.ogg;
#OFFSET:0.000000;
#SAMPLESTART:38.818619;
#SAMPLELENGTH:17.240761;
#SELECTABLE:YES;
#BPMS:0.000=111.364,
68.000=222.728,
140.000=111.364,
172.000=141.061,
173.583=111.364,
192.333=148.485,
193.000=222.728,
288.000=111.364;
#STOPS:;
#DELAYS:;
#WARPS:;
#TIMESIGNATURES:0.000=4=4;
#TICKCOUNTS:0.000=4;
#COMBOS:0.000=1;
#SPEEDS:0.000=1.000=0.000=0;
#SCROLLS:0.000=1.000,
172.000=0.842,
173.583=1.000,
192.333=1.500,
193.000=1.000;
#FAKES:;
#LABELS:0.000=Song Start;
#BGCHANGES:;
#KEYSOUNDS:;
#ATTACKS:
;

//---------------dance-single - ----------------
#NOTEDATA:;
#CHARTNAME:;
#STEPSTYPE:dance-single;
#DESCRIPTION:;
#CHARTSTYLE:;
#DIFFICULTY:Medium;
#METER:8;
#RADARVALUES:0.563030,0.643091,0.132255,0.308596,0.339455,397.000000,15.000000,35.000000,0.000000,0.000000,0.000000,0.000000,0.000000,0.563030,0.643091,0.132255,0.308596,0.339455,397.000000,15.000000,35.000000,0.000000,0.000000,0.000000,0.000000,0.000000;
#CREDIT:;
#NOTES:
0000
0000
0000
0000
,
0000
0000
0000
0000
,
0000
0000
0000
0000
,
1000
0000
0010
0000
0100
0000
0000
0001
0000
0001
1000
0000
0200
0000
0320
0000
,
0031
1000
0001
0000
0200
0000
0300
0000
0010
0000
0000
1000
0000
0000
0001
0000
,
1000
0000
0001
0000
0100
0000
0000
0010
0000
0010
0100
0000
0002
0000
1003
0000
,
0200
0000
0310
0000
0001
0000
1000
0010
0000
0000
0100
0000
0001
0100
0000
0100
,
0010
0000
1000
0000
0100
0000
0000
0010
0000
0010
0001
0000
2000
0000
3020
0000
,
0130
0000
0010
0000
2000
0000
0000
0000
3001
0000
0000
0010
0000
0000
0100
0000
,
1000
0000
0010
0000
0100
0001
0000
0010
,
0000
0100
1000
0001
0000
0100
0010
1000
,
0002
0000
0000
0100
0000
0000
0100
0000
0003
0000
0000
0000
1000
0000
0010
0000
,
0000
0000
0200
0000
0000
0000
0001
0000
0000
0000
0000
0001
0000
0000
0301
0000
,
1000
0000
0000
1000
0001
0000
0000
0001
0100
0000
0000
0100
0010
0000
0000
0010
,
1000
0000
0000
1000
0100
0000
0000
0100
0001
0000
0000
0001
0010
0000
0000
0010
,
0100
0000
0000
0100
1000
0000
0000
1000
0001
0000
0000
0001
0100
0000
0000
0100
,
0010
0000
0000
0010
1000
0000
0000
1000
0100
0000
0000
0100
0001
0000
0000
0001
,
1000
0200
0300
0010
,
0001
1000
0010
0100
,
0001
0101
1000
0011
,
1000
1100
1000
0011
,
0100
0000
0110
0000
0001
1000
0001
0000
,
0020
0000
0130
0000
0000
0100
1000
0000
,
0001
0100
0000
0010
0000
0100
0001
0000
,
1000
0100
0000
0010
0000
0100
1000
0000
,
0001
0010
0000
1000
0000
0010
0001
0000
,
1000
0000
0010
0000
0100
0001
0100
0001
,
1000
0002
0003
1001
,
1000
1010
0100
0011
,
0010
0000
0100
0000
1000
0001
1000
0000
,
0020
0000
0130
0000
0000
0100
0001
0000
,
1000
0001
0000
0010
0000
0100
1000
0000
,
0001
0100
0000
0010
0000
1000
0001
0000
,
1000
0010
0000
0001
0000
0010
1000
0000
,
0001
0000
0000
1000
0010
0100
0001
0100
,
0010
0000
0200
0000
0302
2003
0000
3020
,
0000
0230
0302
2003
0000
3200
0320
0032
,
0000
0000
0000
0000
0000
0000
0023
0000
0230
0000
0000
2300
0000
0000
3002
0000
,
0000
0000
0103
0000
,
0020
0001
0100
1030
,
0200
0001
0010
1300
,
0001
0000
0100
0000
0010
1000
0010
1000
,
0001
0000
0001
0000
1000
0000
1000
0000
0010
0100
0010
0100
0010
0100
0010
0100
,
0001
0000
0000
0000
0000
0000
0000
0000
0000
0000
0000
0000
0000
0000
0000
0000
0000
0000
0000
0000
0000
0000
1000
0000
0000
0000
0000
0000
0010
0000
0000
0100
0000
0000
0000
0000
0000
0001
0000
0000
0000
0000
0000
1000
0000
0000
0000
0000
,
0000
0100
0000
0000
0020
0000
0000
0000
0000
0000
0001
0000
0000
0000
0000
0000
0001
0000
0000
0000
0000
0000
0001
0000
0000
0000
0000
0000
0001
0000
0000
0000
0000
0000
0001
0000
0000
0000
0000
0000
0001
0000
0000
0000
0000
0000
0031
0000
,
0000
0000
2000
0000
0000
0010
0000
0000
0010
0000
0000
0010
0000
0000
0010
0000
0000
0010
0000
0000
0010
0000
0000
3010
,
0000
0000
0100
0000
0000
0001
0000
0000
1000
0000
0000
0100
0000
0000
0010
0000
0000
0001
0000
0000
1000
0000
0000
0010
,
0000
0000
0100
0000
0000
1000
0000
0000
0001
0000
0000
0010
0000
0000
0100
0000
0000
0001
0000
0000
0010
0000
0000
0100
,
0000
1000
0000
0002
0000
0000
0003
0000
0000
1001
0000
0000
,
1000
0010
0001
0010
,
1000
0000
1000
0000
0100
0010
0100
0000
,
0001
0100
0010
0001
,
1000
0100
0000
0001
0000
0100
1000
0000
,
0001
0100
0000
1000
0000
0100
0001
0000
,
1000
0010
0000
0001
0000
0010
0100
0000
,
0001
0000
1000
0000
0010
0100
0010
0100
,
0001
0100
0001
0000
1000
0100
1000
0000
,
0001
0010
0001
0000
1000
0010
1000
0000
,
0001
0100
0010
0000
1000
0010
0100
0000
,
0001
0000
0110
0000
0000
1001
0000
0000
,
0001
1000
0010
0000
0100
0001
1000
0000
,
0100
0010
0001
0000
0100
0010
1000
0000
,
0001
0010
0100
0000
1000
0010
0100
0000
,
1001
0000
0000
0110
0000
0000
1001
0000
,
1000
0100
0010
0000
0010
0100
1000
0000
,
0001
0100
0010
0000
0010
0100
0001
0000
,
1000
0100
0001
0000
0001
0100
1000
0000
,
1000
0010
0001
0000
0001
0010
0100
0010
,
1000
0001
0100
0000
0010
1000
0100
0000
,
0010
0001
0100
0000
0010
1000
0100
0000
,
0001
0100
1000
0000
0001
0100
1000
0000
,
0001
0010
1000
0000
0001
0010
1000
0000
,
0220
0000
0000
0000
0000
0000
0000
0000
0330
0000
0000
0000
0001
0000
0000
0000
1000
0000
0000
0000
0000
0010
0000
0000
0100
0000
0100
0000
0100
0000
0001
0000
;

//---------------dance-single - ----------------
#NOTEDATA:;
#CHARTNAME:;
#STEPSTYPE:dance-single;
#DESCRIPTION:;
#CHARTSTYLE:;
#DIFFICULTY:Easy;
#METER:5;
#RADARVALUES:0.395506,0.514914,0.149889,0.282145,0.158706,265.000000,17.000000,32.000000,0.000000,0.000000,0.000000,0.000000,0.000000,0.395506,0.514914,0.149889,0.282145,0.158706,265.000000,17.000000,32.000000,0.000000,0.000000,0.000000,0.000000,0.000000;
#CREDIT:;
#NOTES:
// measure 0
0000
0000
0000
0000
,  // measure 1
0000
0000
0000
0000
,  // measure 2
0000
0000
0000
0000
,  // measure 3
0001
0000
0100
0000
0010
1000
0010
0000
,  // measure 4
0100
0001
1100
0101
,  // measure 5
1000
0000
0100
0000
0010
0001
0010
0000
,  // measure 6
0100
1000
0010
0100
,  // measure 7
0001
0000
0100
0000
0010
1000
0010
0000
,  // measure 8
0100
0001
1001
0110
,  // measure 9
2000
0010
0000
3002
,  // measure 10
0000
0100
0000
2003
,  // measure 11
0000
0100
0000
3020
,  // measure 12
0000
0001
0000
1030
,  // measure 13
0001
0100
0010
1000
,  // measure 14
0001
0010
0100
1000
,  // measure 15
0001
0100
1000
0100
,  // measure 16
0001
0010
1000
0100
,  // measure 17
0002
0000
0003
1000
,  // measure 18
0010
0100
0001
1000
,  // measure 19
0100
1000
0000
1100
,  // measure 20
0001
0010
0000
0011
,  // measure 21
1000
0010
0000
1010
,  // measure 22
0100
0001
0000
0101
,  // measure 23
1000
0010
0002
0003
,  // measure 24
0001
0010
2000
3000
,  // measure 25
0001
0010
1000
0010
,  // measure 26
0001
1000
0010
0100
,  // measure 27
0001
2000
0000
3100
,  // measure 28
0010
0100
0000
1001
,  // measure 29
1000
0100
0000
0011
,  // measure 30
0001
0100
0000
1010
,  // measure 31
0001
0010
0200
0000
,  // measure 32
1300
0010
0200
0000
,  // measure 33
1300
0100
0001
0010
,  // measure 34
0200
0000
0310
0000
,  // measure 35
1001
0000
1000
0000
,  // measure 36
0010
0000
0100
0000
,  // measure 37
1000
0000
0001
0000
,  // measure 38
0010
0000
0100
0000
,  // measure 39
0002
0100
0100
0103
,  // measure 40
2000
0010
0010
3010
,  // measure 41
0002
0000
0013
0000
2000
0100
3100
0100
,  // measure 42
1000
0001
1000
0001
0010
0010
0100
0100
,  // measure 43
0000
0000
0000
0000
0000
0000
0000
0000
0000
0000
0000
1000
0000
0000
0010
0000
0000
0100
0000
0000
0001
0000
0000
0010
,  // measure 44
0000
0000
0100
0000
0000
1000
0000
0000
0100
0000
0000
1000
0000
0000
0100
0000
0000
1000
0000
0000
0100
0000
0000
1000
,  // measure 45
0000
0000
0001
0000
0000
0100
0000
0000
0001
0000
0000
0100
0000
0000
0001
0000
0000
0100
0000
0000
0010
0000
0000
1000
,  // measure 46
0000
0000
0001
0000
0000
0010
0000
0000
0100
0000
0000
0000
0000
0000
1000
0000
0000
0010
0000
0000
0100
0000
0000
0000
,  // measure 47
0000
0000
0001
0000
0000
0010
0000
0000
1000
0000
0000
0000
0000
0000
0010
0000
0000
0001
0000
0000
1000
0000
0000
0010
,  // measure 48
0000
0100
0000
0002
0000
0000
0000
0000
0000
1003
0000
0000
,  // measure 49
0010
0010
0100
0100
,  // measure 50
0001
1000
0100
0100
,  // measure 51
0110
0000
1000
0010
,  // measure 52
0100
0001
1000
0000
,  // measure 53
0100
1000
0001
0000
,  // measure 54
0100
0010
1000
0001
,  // measure 55
0010
0100
1000
0001
,  // measure 56
0200
0310
0200
0310
,  // measure 57
2000
3001
2000
3100
,  // measure 58
0020
0031
2000
3010
,  // measure 59
0200
0301
0000
1000
,  // measure 60
0200
0310
0200
1300
,  // measure 61
0002
0013
0002
0103
,  // measure 62
0020
1030
0002
0013
,  // measure 63
1001
0000
0110
0000
,  // measure 64
1001
1000
0010
1000
,  // measure 65
0001
0100
0001
0100
,  // measure 66
0010
1000
0001
0010
,  // measure 67
0100
1000
0001
0100
,  // measure 68
0010
0010
1000
1000
,  // measure 69
0001
0001
0010
0010
,  // measure 70
0100
0001
0100
1000
,  // measure 71
0010
0001
0010
1000
,  // measure 72
2002
0000
0000
0000
0000
0000
0000
0000
3003
0000
0000
0000
1000
0000
0000
0000
0010
0000
0000
0000
0000
0200
0000
0000
0000
0000
0000
0000
0000
0000
0000
0000
,  // measure 73
0300
0000
0000
0000
;

//---------------dance-single - ----------------
#NOTEDATA:;
#CHARTNAME:;
#STEPSTYPE:dance-single;
#DESCRIPTION:;
#CHARTSTYLE:;
#DIFFICULTY:Hard;
#METER:9;
#RADARVALUES:0.740630,1.000000,0.211608,0.502570,0.559881,507.000000,24.000000,57.000000,0.000000,0.000000,0.000000,0.000000,0.000000,0.740630,1.000000,0.211608,0.502570,0.559881,507.000000,24.000000,57.000000,0.000000,0.000000,0.000000,0.000000,0.000000;
#CREDIT:;
#NOTES:
0000
0000
0000
0000
,
0000
0000
0000
0000
,
0000
0000
0000
0000
,
0001
1000
0010
0000
0200
0000
0000
0301
0000
0010
0100
0100
2000
0000
3002
0000
,
0103
0100
0010
1000
0001
0000
0000
0001
0200
0000
0310
2000
0000
3001
0020
0000
,
0130
1000
0001
0000
0020
0000
0000
0130
0000
1000
0001
0000
0100
0100
0010
0010
,
1000
0001
0020
0000
0130
0100
1000
0001
0000
0000
0200
0000
0301
2000
0000
3010
,
0100
0001
0010
0000
0200
0000
0000
1300
0000
1000
0010
0100
0002
0000
2003
0000
,
3010
0010
0100
0001
2000
0000
3000
0100
0020
0000
0031
1000
0000
0010
0200
0000
,
0302
0000
0023
0000
0230
2300
0000
3020
,
0000
0230
0302
2003
0000
3200
0320
0032
,
0000
0000
0000
1000
0000
0000
1000
0000
0000
0000
0000
0000
0203
0000
0320
0000
,
0000
0000
2030
0000
0000
0000
0010
0000
0000
0000
0000
3010
0000
0000
0100
0000
,
0101
0000
0000
0001
1000
0000
0000
0000
0001
0100
0000
0100
0010
0000
0000
0010
,
1000
0000
0000
1000
0010
0000
0000
0000
0100
0010
0000
0010
1000
0000
0000
1000
,
0001
0000
0000
0010
0100
0000
0000
0000
0010
0001
0000
0001
1000
0000
0000
1000
,
0100
0000
0000
0010
0001
0000
0000
0000
1000
0010
0000
0010
0100
0000
0000
0001
,
2000
0000
0000
0000
0000
3001
1000
0100
,
0010
0100
0000
1000
0000
0001
0000
0100
,
0010
0000
1010
0000
1000
0100
0110
0000
,
0001
0000
0011
0000
0001
1000
1010
0000
,
0001
0010
0001
0000
1000
1000
0010
0000
,
0002
0000
0013
0000
1000
0001
0100
0001
,
1000
0010
0100
0001
0000
0001
0100
0010
,
1000
0100
0010
0001
0000
0001
0010
0100
,
1000
0001
0100
0010
0000
0010
1000
0000
,
0100
0010
0100
1000
0001
0100
0010
1000
,
0001
0000
0200
0000
0000
0310
0110
0000
,
1000
0000
1001
0000
0010
0100
0110
0000
,
1000
0100
0010
0000
0001
0001
0010
0000
,
2000
0000
3010
0000
0001
0010
0100
1000
,
0010
0100
0001
0010
0000
0010
0001
1000
,
0100
0010
0001
0100
0000
0100
0001
1000
,
0100
0010
0001
1000
0000
1000
0010
0100
,
0002
0000
0003
1000
0010
0100
0001
0010
,
0100
0000
0000
0000
0000
0000
0000
0000
2000
0000
0000
0000
0000
0000
0000
0000
3010
0000
0000
0100
0002
0000
0000
0000
0000
0000
0000
0000
2003
0000
0000
0000
,
0000
3100
0010
0002
0000
0013
0100
2000
,
0000
0000
0000
0000
0000
0000
0000
0000
0000
0000
0000
0000
3010
0000
0000
0000
0100
0000
0000
0000
0000
0000
0001
0000
0000
0000
0000
1000
0200
0000
0000
0000
,
0010
0000
2300
0000
,
3020
0100
0001
0100
,
2030
0001
0100
3010
,
0002
0000
0000
0023
0000
0000
0230
0000
1300
0000
0001
0000
1000
0000
0001
0000
,
0100
0000
0010
0000
0100
0000
0001
0000
1000
0100
1000
0100
0010
0001
0010
0001
,
0100
0000
0000
0000
0000
0000
0000
0000
0000
0000
0000
0000
0000
0000
0000
0000
0000
0000
0000
0001
0000
0000
1000
0000
0000
0100
0000
0000
0010
0000
0000
0100
0000
0000
0000
0000
0000
1000
0000
0000
0000
0000
0000
0010
0000
0000
0000
0000
,
0000
0100
0000
0000
0001
0000
0000
1000
0000
0000
0100
0000
0000
1000
0000
0000
0001
0000
0000
1000
0000
0000
0100
0000
0000
1000
0000
0000
0001
0000
0000
1000
0000
0000
0100
0000
0000
1000
0000
0000
0001
0000
0000
1000
0000
0000
0100
0000
,
0000
1000
0000
0000
0010
0000
0000
0100
0000
0000
0001
0000
0000
0100
0000
0000
0010
0000
0000
0100
0000
0000
0001
0000
0000
0100
0000
0000
0010
0000
0000
0100
0000
0000
0001
0000
0000
0100
0000
0000
0010
0000
0000
0100
0000
0000
0001
0000
,
0000
0100
0000
0000
0010
0000
0000
1000
0000
0000
0001
0000
0000
0100
0000
0000
0000
0000
0000
0100
0000
0000
0001
0000
0000
1000
0000
0000
0100
0000
0000
0010
0000
0000
0001
0000
0000
1000
0000
0000
0000
0000
0000
1000
0000
0000
0010
0000
,
0000
0100
0000
0000
0001
0000
0000
1000
0000
0000
0100
0000
0000
0010
0000
0000
0000
0000
0000
0010
0000
0000
0002
0000
0000
0000
0000
0000
0100
0000
0000
0000
0000
0000
1003
0000
0000
0010
0000
0000
0100
0000
0000
0010
0000
0000
1000
0000
,
0000
0001
0000
0000
1001
0000
0000
0000
0000
0000
0000
0000
0200
0000
0000
0000
0000
0000
0000
0000
0000
0000
0000
0000
0000
0000
0000
0000
0000
0000
0310
0000
0000
0000
0000
0000
0110
0000
0000
0000
0000
0000
0000
0000
0000
0000
0000
0000
,
1000
0001
0101
0000
1000
0100
0110
0000
,
0001
1000
0100
0000
0001
0001
0100
0000
,
0020
0000
0031
0000
0100
1000
0100
0001
,
1000
0100
0010
0001
0000
0001
0010
0100
,
1000
0010
0100
0001
0000
0001
1000
0010
,
0100
0001
0010
1000
0000
1000
0010
0000
,
0200
0000
0310
0001
1000
0010
0100
0001
,
1000
0100
0010
0000
0001
0100
0001
0000
,
1000
0010
0100
0000
0001
0010
0100
0000
,
1000
1000
0020
0000
0130
0001
1000
1000
,
0100
0000
0011
0001
0000
1010
1000
0101
,
0001
0010
0100
0000
1000
0001
1000
0000
,
0010
0100
0001
0000
0020
0100
0130
0000
,
0001
0001
0200
0000
1300
0100
0010
0010
,
0011
0000
1000
1100
0000
0001
0101
0100
,
0010
1000
0001
0010
0100
0100
0010
0001
,
1000
0010
0001
0010
1000
0100
0001
0100
,
0010
0010
2000
0000
3001
0100
1000
1000
,
0001
0100
0010
1010
0000
0100
0101
0001
,
1000
0100
0010
0001
0100
0010
1000
0100
,
0010
1000
0010
0001
0100
1000
0100
0001
,
1000
0100
0001
1000
0010
0001
0100
0010
,
1010
1000
0001
0011
0010
0100
0110
0001
,
2002
0000
0000
0000
0000
0000
0000
0000
3003
0000
0000
0000
1000
0000
0000
0000
0100
0000
0000
0000
0000
0000
0010
0000
0100
0010
0100
0010
0001
0000
1000
0000
;
