#TITLE:Oh My Darling Don't Cry;
#SUBTITLE:;
#ARTIST:Run the Jewels;
#TITLETRANSLIT:;
#SUBTITLETRANSLIT:;
#ARTISTTRANSLIT:;
#GENRE:Hip-Hop;
#CREDIT:Birdwards;
#BANNER:Oh My Darling Don't Cry.png;
#BACKGROUND:Oh My Darling Don't Cry-bg.png;
#LYRICSPATH:;
#CDTITLE:;
#MUSIC:Oh My Darling Don't Cry.ogg;
#OFFSET:-0.045367;
#SAMPLESTART:89.636444;
#SAMPLELENGTH:12.798729;
#SELECTABLE:YES;
#BPMS:0.000000=150.014999
;
#STOPS:
;
#BGCHANGES:;
#KEYSOUNDS:;
#ATTACKS:;

//---------------dance-single - ----------------
#NOTES:
     dance-single:
     :
     Hard:
     10:
     0.803049,0.778031,0.294947,0.008675,0.850141,648.000000,614.000000,34.000000,1.000000,4.000000,0.000000,0.803049,0.778031,0.294947,0.008675,0.850141,648.000000,614.000000,34.000000,1.000000,4.000000,0.000000:
// measure 0
0000
0000
0000
0000
,  // measure 1
0000
0000
0000
0000
,  // measure 2
0000
0000
0000
0000
,  // measure 3
0000
0000
0000
0000
0000
0010
1000
0000
0010
0100
0010
0000
0100
0000
0001
0000
,  // measure 4
0100
0000
0001
0000
0000
0010
0001
0000
1000
0000
0000
0010
1000
0000
0001
0000
,  // measure 5
0100
0000
0001
0000
0000
0010
0001
0000
1000
0000
0010
0000
0101
0000
0000
0000
,  // measure 6
1000
0000
0010
0000
0000
0100
0010
0000
1000
0000
0000
0100
1000
0000
0100
0000
,  // measure 7
0001
0000
0100
0000
0000
1000
0100
0000
0010
0000
0001
0010
0000
1000
0010
0000
,  // measure 8
0100
0000
1000
0000
0000
0010
1000
0000
0001
0000
0000
0010
0001
0000
1000
0000
,  // measure 9
0100
0000
1000
0000
0000
0010
1000
0000
0001
0000
0010
0000
1100
0000
0000
0000
,  // measure 10
0001
0000
0010
0000
0000
0100
0010
0000
0001
0000
0000
0100
0001
0000
0100
0000
,  // measure 11
1000
0000
0100
0000
0000
0001
0100
0000
0010
0000
1000
0010
0000
0001
0010
0000
,  // measure 12
1000
0000
0100
0000
0010
0000
0100
0000
1000
0000
0010
1000
0000
1000
0000
0100
,  // measure 13
0010
0000
0001
0000
0010
0000
0100
0000
1000
0000
1000
0010
0000
0000
0000
0000
,  // measure 14
0101
0000
0000
0000
0001
0000
0010
0000
0001
1000
0000
0001
0000
0010
0000
0100
,  // measure 15
1000
0000
0001
0000
0100
0000
0010
0000
1000
0000
0010
0001
0000
0010
1000
0000
,  // measure 16
0100
0000
0010
0000
0000
0001
0100
0000
0010
0000
0100
0000
0001
0000
0010
0000
,  // measure 17
0100
0010
1000
0010
0001
0100
0010
0000
,  // measure 18
1010
0000
0100
1000
0010
0100
0001
1000
,  // measure 19
0001
0000
0100
0000
0000
1000
0100
0000
0001
0000
0010
1000
0000
0010
0001
0000
,  // measure 20
1000
0000
0001
0010
0000
0000
0001
0100
0001
0000
0100
0010
0000
0100
0000
0001
,  // measure 21
0010
0100
0000
1000
0010
0000
0100
0000
0010
0000
0000
1001
0000
0000
0000
0000
,  // measure 22
0100
0000
1000
0010
1000
0000
0010
0100
0010
0000
1000
0010
0000
1000
0001
0010
,  // measure 23
0001
0000
0100
0001
0000
0001
0010
0000
0100
0000
1000
0100
0000
0001
0100
0000
,  // measure 24
1000
0000
0010
0100
0000
0001
1000
0001
1000
0000
0001
0100
0000
0001
0010
0000
,  // measure 25
0100
0000
1000
0010
0000
1000
0100
0000
0001
0000
0100
1000
0100
0000
0000
0000
,  // measure 26
1001
0000
1000
0100
0000
1000
0001
0100
0001
0000
0010
0001
0010
0000
0100
1000
,  // measure 27
0100
0000
1000
0010
1000
0000
1000
0000
0001
0000
0100
0001
0000
0000
0010
0000
,  // measure 28
0010
0000
0001
0100
0010
0000
1000
0100
0010
0000
0001
0100
0000
0010
1000
0000
,  // measure 29
1000
0000
0100
1000
0100
0010
0100
0000
0001
0000
0100
0010
0000
0001
0100
0000
,  // measure 30
0010
0000
0010
0000
1000
0000
1000
0000
0100
0000
0100
0010
0000
0010
0001
0100
,  // measure 31
0001
0000
1000
0010
0000
0000
0100
0000
0010
0000
1000
0010
0000
0001
0010
0000
,  // measure 32
1000
0001
1000
0000
0010
0000
0100
0000
0001
0000
0010
1000
0000
0000
0010
0000
,  // measure 33
0001
0000
0100
1000
0000
0000
0100
0000
0001
0000
0010
1000
0000
0000
0010
0000
,  // measure 34
0000
0010
0001
0100
0010
0100
0010
0000
1000
0000
0100
0010
0000
0000
0001
0000
,  // measure 35
0001
1000
1000
0200
1000
0010
0001
0010
,  // measure 36
1300
0000
0010
0000
0100
0000
0010
1000
0010
0000
1000
0100
0000
0000
0010
0000
,  // measure 37
0001
0000
0100
0000
0010
0000
0100
0001
0100
0000
0001
0010
0000
0000
0100
0000
,  // measure 38
0100
0000
1000
0000
1000
0000
0010
0000
0100
0000
1000
0100
0000
0000
0010
0000
,  // measure 39
1000
0000
1000
0000
MMMM
0000
0001
0000
0100
0000
0010
1000
0000
0000
0000
0000
,  // measure 40
1100
0000
0001
0010
0000
0000
0001
0100
0001
0000
1000
0010
0000
1000
0100
0000
,  // measure 41
0001
0000
0100
1000
0100
0000
1000
0000
0001
0000
0100
1000
0000
0000
0100
0000
,  // measure 42
0101
0000
0001
0010
0000
0000
0100
1000
0100
0000
1000
0010
0000
0000
1000
0100
,  // measure 43
1000
0000
0001
0010
0000
1000
0010
0000
0001
0000
0100
1000
0000
0100
0001
0000
,  // measure 44
1000
0100
0000
1000
0000
0000
0001
1000
0001
0100
0000
0001
0000
0000
1000
0000
,  // measure 45
0010
0000
1000
0001
0000
0000
0010
0000
0001
0000
1000
0010
0000
0000
1000
0000
,  // measure 46
0100
0000
0010
0001
0000
0000
0100
0010
0100
0000
0010
1000
0000
0000
0001
0000
,  // measure 47
0100
0000
0100
0000
0010
0000
0010
0000
1000
0000
0100
0001
0000
0100
1000
0000
,  // measure 48
0001
0000
1000
0100
0000
0000
0011
0000
1000
0000
0001
0100
0000
0000
1010
0000
,  // measure 49
0001
0000
1000
0100
0000
0000
0011
0000
1000
0000
0001
0100
0000
0000
1010
0000
,  // measure 50
0001
0000
1000
0100
0000
0000
0011
0000
1000
0000
0001
0100
0000
0000
1010
0000
,  // measure 51
0001
0100
0001
1000
0001
0010
0100
0000
1000
0000
0010
0001
0000
0010
1000
0000
,  // measure 52
0001
0000
0000
0010
0000
0000
0001
0000
0000
0000
0000
0000
1000
0000
0000
0000
0000
0000
0010
0000
0000
0000
0000
0000
0100
0000
0000
0001
0000
0000
0100
0000
0000
0001
0000
0000
0000
0000
0000
0000
0000
0000
0000
0000
0010
0000
0000
0000
,  // measure 53
0001
0100
0010
1000
0100
0010
0001
0100
0010
1000
1000
0100
,  // measure 54
1000
0010
0100
0001
0010
0100
1000
0010
0100
0001
0010
0100
,  // measure 55
0010
0100
0010
0100
0010
0001
0100
0100
0001
1000
0010
0000
,  // measure 56
1001
0000
1000
0010
0000
0000
0100
0010
0100
0000
0001
0010
0000
0000
0000
0000
,  // measure 57
0110
0000
0100
1000
0000
0100
0001
0000
0100
0000
1000
0000
0011
0000
0000
0000
,  // measure 58
0100
0000
0001
0010
0000
0000
0100
0010
0100
0000
1000
0010
0000
0000
0100
0001
,  // measure 59
0100
0000
1000
0100
1000
0000
0100
0000
0001
0000
0010
0000
1100
0000
0000
0000
,  // measure 60
1001
0000
0001
0010
0000
0000
0100
0010
0100
0000
1000
0010
0000
0000
0000
0000
,  // measure 61
0110
0000
0100
0001
0000
0100
1000
0000
0100
0000
0001
0000
1010
0000
0000
0000
,  // measure 62
0100
0000
1000
0010
0000
0000
0100
0010
0100
0000
0001
0010
0000
0000
0100
1000
,  // measure 63
0100
0000
0001
0100
0001
0000
0100
0000
1000
0000
0010
0000
0101
0000
0000
0000
,  // measure 64
1001
0000
1000
0010
0000
0000
0100
0010
0100
0000
0001
0010
0000
0000
0000
0000
,  // measure 65
0110
0000
0100
1000
0000
0100
0001
0000
0100
0000
1100
0000
1010
0000
0000
0000
,  // measure 66
0100
0000
0001
0010
0000
0000
0100
0010
0100
0000
1000
0010
0000
0000
0100
0001
,  // measure 67
0100
0000
1000
0100
1000
0000
0100
0000
0001
0000
0011
0000
1100
0000
0000
0000
,  // measure 68
1001
0000
0001
0010
0000
0000
0100
0010
0100
0000
1000
0010
0000
0000
0000
0000
,  // measure 69
0110
0000
0100
0001
0000
0100
1000
0000
0100
0000
0101
0000
0011
0000
0000
0000
,  // measure 70
0100
0000
1000
0010
0000
0000
0100
0010
0100
0000
0001
0010
0000
0000
0100
1000
,  // measure 71
0100
0000
0001
0100
0001
0000
0100
0000
1000
0000
0110
0000
1001
0000
0000
0000
;

//---------------dance-single - ----------------
#NOTES:
     dance-single:
     :
     Medium:
     8:
     0.656814,0.622425,0.121449,0.138799,0.459770,530.000000,516.000000,14.000000,16.000000,0.000000,0.000000,0.656814,0.622425,0.121449,0.138799,0.459770,530.000000,516.000000,14.000000,16.000000,0.000000,0.000000:
0000
0000
0000
0000
,
0000
0000
0000
0000
,
0000
0000
0000
0000
,
0000
0000
0000
0000
0000
0000
0000
0000
0010
0100
0010
0000
0100
0000
0001
0000
,
1000
0100
0001
0001
0100
1000
0001
0001
,
0100
1000
0100
0100
0002
0010
0100
0000
,
1003
0100
0001
0001
0100
1000
0001
0001
,
0100
0000
1000
0000
0100
0000
0100
0000
0001
0000
1000
0100
0000
0000
0011
0000
,
0001
0100
1000
1000
0100
0001
1000
1000
,
0100
0001
0100
0100
2000
0010
0100
0000
,
3001
0100
1000
1000
0100
0001
1000
1000
,
0100
0000
0001
0000
0100
0000
0100
0000
1000
0000
0001
0100
0000
0000
1010
0000
,
0100
0000
1000
0000
0100
0000
0100
0000
0010
0000
0100
0010
0000
0000
0001
0000
,
0100
0000
0001
0000
0100
0000
0100
0000
0010
0000
0100
0010
0000
0000
0000
0000
,
1001
0000
0000
0000
1000
0000
0100
0000
1000
0010
0000
0000
1000
0000
0100
0000
,
1000
0000
0001
0000
0010
0000
0001
0000
1000
0000
0010
1000
0000
0000
0110
0000
,
0100
0001
1000
0001
0010
0100
1000
0100
,
0001
0100
1000
0010
0001
0010
1000
0000
,
1100
0000
0100
1000
0010
0100
0001
0010
,
0100
0000
1000
0000
0010
0000
0100
0000
0001
0000
0010
0001
0000
0000
0101
0000
,
0100
0000
0000
0010
0000
0000
1000
0010
1000
0000
0000
0010
0000
0000
0000
0000
,
0100
0000
0000
0001
0000
0000
0010
0000
0100
0000
0100
0010
0000
0000
0000
0000
,
0001
0000
0000
0010
0000
0000
0001
0100
0001
0000
0000
1000
0000
0000
0100
1000
,
0100
0000
0000
0010
0000
0000
0010
0000
0001
0000
0001
1000
0000
0000
0101
0000
,
0010
0000
0010
1000
0000
0000
1000
0000
0100
0000
0100
0010
0000
0000
0010
0000
,
0001
0000
0001
0100
0000
0000
0100
0000
1000
0000
0100
0000
0001
0000
0000
0000
,
1010
0000
0000
1000
0000
0000
0100
0010
0100
0000
0010
0000
0001
0000
0001
0000
,
0010
0000
0100
0000
1000
0000
0010
0000
0100
0000
0010
1000
0000
0000
0100
0000
,
0100
0000
1000
0000
0010
0000
0100
0000
0001
0000
0010
0001
0000
0000
0010
0000
,
0010
0000
0001
0000
0100
0000
0010
0000
1000
0000
0100
1000
0000
0000
0100
0000
,
0100
0000
0010
0000
1000
0000
0010
0000
0001
0000
0010
0001
0000
0000
0010
0000
,
0010
0000
0100
0000
0001
0000
0100
0000
1000
0000
0100
1000
0000
0000
1010
0000
,
0001
0100
1000
0100
0001
0010
1000
0010
,
0001
0100
1000
0100
0001
0010
1000
0010
,
0001
0100
0010
0100
1000
0100
0010
0100
,
0100
0001
0001
2000
0010
0001
0010
0001
,
3010
0000
0010
0000
0100
0000
0100
0000
0001
0000
0001
0010
0000
0000
0010
0000
,
0001
0000
0001
0000
0100
0000
0100
0000
0010
0000
0010
1000
0000
0000
1000
0000
,
0100
0000
0100
0000
0010
0000
0010
0000
0001
0000
0001
0100
0000
0000
0100
0000
,
0010
0000
0010
0000
1001
0000
0000
0000
1000
0000
1000
0100
0000
0000
1010
0000
,
0010
0000
0010
0100
0000
0000
0001
0000
0100
0000
0100
0001
0000
0000
1000
0000
,
0001
0000
1000
0000
0100
0000
0010
0000
0100
0000
0100
0010
0000
0000
0001
0000
,
1000
0000
1000
0010
0000
0000
1000
0000
0001
0000
0001
0010
0000
0000
0001
0000
,
0100
0000
0100
0010
0000
0000
1000
0000
0100
0000
0100
0010
0000
0000
0011
0000
,
1000
0000
0000
0100
0000
0000
0010
0100
0010
0000
0000
0001
0000
0000
0010
0000
,
0001
0000
0100
0001
0000
0000
0100
0000
1000
0000
0100
0010
0000
0000
1000
0000
,
0010
1000
0000
0001
0000
0000
0010
0000
0001
0010
0000
0100
0000
0000
1000
0000
,
0001
0000
0001
0000
0100
0000
0100
0000
0010
0000
0100
0010
0000
0000
1010
0000
,
1000
0000
0100
1000
0000
0000
0001
0000
0100
0000
0001
0100
0000
0000
0010
0000
,
1000
0000
0010
1000
0000
0000
0001
0000
0010
0000
0001
0010
0000
0000
0100
0000
,
0010
0000
0100
0010
0000
0000
0001
0000
1000
0000
0001
1000
0000
0000
0001
0000
,
0100
0000
1000
0000
0100
0001
0100
0000
0001
0000
0010
0001
0000
0000
0110
0000
,
0001
0000
0000
0000
0000
0000
0100
0000
0000
0000
0000
0000
1000
0000
0000
0000
0000
0000
0100
0000
0000
0000
0000
0000
0001
0000
0000
0100
0000
0000
0001
0000
0000
0100
0000
0000
0000
0000
0000
0000
0000
0000
0000
0000
1000
0000
0000
0000
,
0010
0000
0010
0100
0000
0100
1000
0000
1000
0100
0000
0100
,
0001
0000
0001
0010
0000
0010
0100
0000
0100
0002
0000
0000
,
0000
0000
0000
0000
0000
0103
0010
0100
0010
0100
0010
0000
,
0001
0000
0000
1000
0000
0000
0001
0100
0001
0000
0000
1000
0000
0000
0000
0000
,
0100
0000
0000
1000
0000
0000
1000
0000
0002
0000
0010
0000
0100
0000
0000
0000
,
1003
0000
0000
0001
0000
0000
1000
0100
1000
0000
0000
0001
0000
0000
0100
0000
,
0001
0000
0100
0001
0100
0000
0001
0000
2000
0000
0010
0000
0100
0000
0000
0000
,
3001
0000
0000
1000
0000
0000
0001
0010
0001
0000
0000
1000
0000
0000
0000
0000
,
0010
0000
0000
1000
0000
0000
1000
0000
0002
0000
0100
0000
0010
0000
0000
0000
,
1003
0000
0000
0001
0000
0000
1000
0010
1000
0000
0000
0001
0000
0000
0010
0000
,
0001
0000
0010
0001
0010
0000
0001
0000
2000
0000
0100
0000
0010
0000
0000
0000
,
3002
0000
0000
1000
0000
0000
0103
0001
0100
0000
0000
0010
0000
0000
0000
0000
,
0100
0000
0000
0010
0000
0000
1000
0000
0002
0000
0010
0000
0100
0000
0000
0000
,
2003
0000
0000
0001
0000
0000
3100
1000
0100
0000
0000
0010
0000
0000
0100
0010
,
0100
0000
0010
0001
0010
0000
0001
0000
2000
0000
0010
0000
0100
0000
0000
0000
,
3002
0000
0000
1000
0000
0000
0013
0001
0010
0000
0000
0100
0000
0000
0000
0000
,
0010
0000
0000
0100
0000
0000
1000
0000
0002
0000
0100
0000
0010
0000
0000
0000
,
2003
0000
0000
0001
0000
0000
3010
1000
0010
0000
0000
0100
0000
0000
0010
0100
,
0010
0000
0100
0001
0100
0000
0001
0000
2000
0000
0100
0000
3010
0000
0000
0000
;

//---------------dance-single - ----------------
#NOTES:
     dance-single:
     :
     Easy:
     6:
     0.457292,0.435697,0.043375,0.043375,0.338321,369.000000,364.000000,5.000000,5.000000,0.000000,0.000000,0.457292,0.435697,0.043375,0.043375,0.338321,369.000000,364.000000,5.000000,5.000000,0.000000,0.000000:
0000
0000
0000
0000
,
0000
0000
0000
0000
,
0000
0000
0000
0000
,
0000
0000
0000
0000
0001
0001
1000
0010
,
0100
0000
0000
0100
0001
0000
0001
0000
,
0100
0000
0000
0100
1000
0100
0100
0000
,
0010
0000
0000
0010
1000
0000
1000
0000
,
0010
0000
0000
0000
0000
0000
0010
0000
0001
0000
0000
0010
0000
0000
1000
0000
,
0100
0000
0000
0100
1000
0000
1000
0000
,
0100
0000
0000
0100
0001
0100
0100
0000
,
0010
0000
0000
0010
0001
0000
0001
0000
,
0010
0000
0000
0000
0000
0000
0010
0000
1000
0000
0000
0010
0000
0000
0001
0000
,
0100
0000
0000
0000
0010
0100
0100
0000
,
0010
0000
1000
0000
1000
0000
0000
0000
0100
0000
0000
0010
0000
0000
0000
0000
,
0011
0000
0000
0000
0001
1000
1000
0000
,
0010
0000
1000
0000
0010
0000
0000
0000
0100
0000
0000
1000
0000
0000
0100
0000
,
0001
0000
0000
0010
0001
0010
0000
0000
,
0100
0000
0000
0100
1000
0000
1000
0000
,
1010
0000
0010
0100
0010
0000
0100
0000
,
0001
0000
0100
0000
0100
0000
0000
0000
0010
0000
0000
0001
0000
0000
0010
0000
,
1000
0000
0000
0100
0000
0000
1000
0000
1000
0000
0000
0001
0000
0000
0000
0000
,
1000
0000
0000
1000
0000
0000
1000
0000
0010
0000
0000
0010
0000
0000
0000
0000
,
0100
0000
0000
0010
0000
0000
0100
0000
0100
0000
0000
0001
0000
0000
1000
0000
,
1000
0000
0000
0010
0000
0000
1000
0000
0001
0000
0000
0010
0000
0000
0000
0000
,
0001
0000
0000
0100
0000
0000
0001
0000
0001
0000
0000
1000
0000
0000
0000
0000
,
0100
0000
0000
0100
0000
0000
0100
0000
0010
0000
0000
0010
0000
0000
0000
0000
,
0001
0000
0000
0010
0000
0000
0100
0000
0100
0000
0000
1000
0000
0000
0001
0000
,
0001
0000
0000
0010
0000
0000
0001
0000
1000
0000
0000
0010
0000
0000
0010
0000
,
0010
0000
0000
0000
0100
0000
0001
0000
0100
0000
0000
0100
0000
0000
0001
0000
,
0001
0000
0000
0000
1000
0000
0100
0000
1000
0000
0000
1000
0000
0000
0100
0000
,
0100
0000
0000
0000
0010
0000
0010
0000
0001
0000
0000
0010
0000
0000
0001
0000
,
1000
0000
0000
0010
0000
0000
1000
0000
0001
0000
0000
0010
0000
0000
0000
0100
,
0010
0000
0000
0000
0001
0000
0010
0000
0001
0000
0000
0100
0000
0000
0001
0000
,
0010
0000
0000
0100
0000
0000
1000
0000
0010
0000
0000
0100
0000
0000
0001
0000
,
0010
0000
0100
0000
1000
0000
0000
0000
0001
0000
0000
1000
0000
0000
0000
0000
,
0010
0000
0010
0000
0100
0000
0100
0000
0001
0000
0000
0010
0000
0000
0000
0000
,
0100
0000
0100
0000
1000
0000
0000
0000
0001
0000
0000
0010
0000
0000
0001
0000
,
0100
0000
0100
0000
0001
0000
0000
0000
1000
0000
0000
0010
0000
0000
0100
0000
,
0100
0000
0000
0000
0010
0000
1000
0000
0100
0000
0000
0100
0000
0000
0000
0000
,
0010
0000
0010
0000
0110
0000
0000
0000
0100
0000
0000
0001
0000
0000
0100
0000
,
1000
0000
0000
1000
0000
0000
0000
0000
0001
0000
0000
0001
0000
0000
0000
0000
,
0100
0000
0001
0000
0100
0000
0000
0000
0010
0000
0000
0010
0000
0000
0000
0000
,
1000
0000
0000
0010
0000
0000
0010
0000
0100
0000
0000
0010
0000
0000
0010
0000
,
0001
0000
0000
0010
0000
0000
0010
0000
0100
0000
0000
0010
0000
0000
1000
0000
,
0100
0000
0000
0010
0000
0000
0100
0000
0100
0000
0000
1000
0000
0000
0000
0000
,
0001
0000
0000
0010
0000
0000
0001
0000
0001
0000
0000
0100
0000
0000
0010
0000
,
1000
0000
0000
0100
0000
0000
0010
0000
0001
0000
0000
0100
0000
0000
0010
0000
,
1000
0000
1000
0000
0010
0000
0000
0000
0100
0000
0000
0101
0000
0000
0001
0000
,
0100
0000
0000
0010
0000
0000
1000
0000
0100
0000
0000
0010
0000
0000
0001
0000
,
0100
0000
0000
0010
0000
0000
1000
0000
0100
0000
0000
0010
0000
0000
0001
0000
,
0100
0000
0000
0010
0000
0000
1000
0000
0100
0000
0000
0010
0000
0000
0001
0000
,
0100
0000
0001
0000
0100
0000
0000
0000
0001
0000
0000
0001
0000
0000
0000
0000
,
1000
0000
0100
0000
1000
0000
0000
0000
0100
0000
0000
0100
0000
0000
0000
0000
,
0020
0001
0230
0001
,
2300
0001
3020
0001
,
0230
0000
0001
0301
,
1000
0000
0000
0010
0000
0000
1000
0000
1000
0000
0000
0001
0000
0000
0000
0000
,
0100
0000
0000
0001
0000
0000
0000
0000
0010
0000
0100
0000
0100
0000
0000
0000
,
1000
0000
0000
0010
0000
0000
1000
0000
1000
0000
0000
0001
0000
0000
0000
0000
,
0010
0001
0010
0000
0100
0010
0010
0000
,
0001
0000
0000
0010
0000
0000
0001
0000
0001
0000
0000
1000
0000
0000
0000
0000
,
0100
0000
0000
1000
0000
0000
0000
0000
0010
0000
0100
0000
0100
0000
0000
0000
,
0001
0000
0000
0010
0000
0000
0001
0000
0001
0000
0000
1000
0000
0000
0000
0000
,
0010
1000
0010
0000
0100
0010
0010
0000
,
1001
0000
0000
0010
0000
0000
1000
0000
1000
0000
0000
0001
0000
0000
0000
0000
,
0100
0000
0000
0001
0000
0000
0010
0000
0100
0000
0010
0000
0010
0000
0000
0000
,
0001
0000
0000
0010
0000
0000
0001
0000
0001
0000
0000
1000
0000
0000
0010
0000
,
0010
1000
0100
1000
0010
0100
0100
0000
,
0001
0000
0000
0010
0000
0000
0001
0000
0001
0000
0000
1000
0000
0000
0000
0000
,
0100
0000
0000
1000
0000
0000
0010
0000
0100
0000
0010
0000
0010
0000
0000
0000
,
1000
0000
0000
0010
0000
0000
1000
0000
1000
0000
0000
0001
0000
0000
0010
0000
,
0010
0001
0100
0001
0010
0100
0100
0000
;
