#TITLE:Maybe;
#SUBTITLE:(We Should Call It A Day);
#ARTIST:Hazell Dean;
#TITLETRANSLIT:;
#SUBTITLETRANSLIT:;
#ARTISTTRANSLIT:;
#CREDIT:;
#BANNER:Maybe (We Should Call It A Day)-jacket.png;
#BACKGROUND:Maybe (We Should Call It A Day)-bg.png;
#LYRICSPATH:;
#CDTITLE:;
#MUSIC:Maybe (We Should Call It A Day).ogg;
#OFFSET:-0.020;
#SAMPLESTART:57.760;
#SAMPLELENGTH:12.000;
#SELECTABLE:YES;
#BPMS:0.000=120.000,116.000=120.080;
#STOPS:;
#BGCHANGES:;

//---------------dance-single - ----------------
#NOTES:
     dance-single:
     :
     Hard:
     9:
     0.573,0.665,0.587,0.253,0.427: // measure 1
0000
0000
0000
0000
,  // measure 2
MM00
0000
0000
0000
,  // measure 3
0000
0000
0000
0000
,  // measure 4
0000
0000
0000
0000
,  // measure 5
0000
0000
0000
0000
,  // measure 6
0100
0000
1000
0000
1000
0000
0000
0000
0100
0000
0000
0010
0000
0000
0100
0000
,  // measure 7
1000
0000
0010
0000
0010
0000
0000
0000
0100
0000
0000
0010
0000
0000
0100
0000
,  // measure 8
0001
0000
0010
0000
0010
0000
0000
0000
0100
0000
0000
0010
0000
0000
0100
0000
,  // measure 9
1000
0010
0100
0001
1000
0100
0010
0001
1000
0010
0100
0001
1000
0100
0010
0001
,  // measure 10
1000
0000
0000
0001
0000
0000
1000
0000
0100
0000
0010
0000
,  // measure 11
0002
0000
0000
0000
0000
0000
0000
0000
0103
0000
0001
0000
1000
0000
0000
0000
0000
0000
0100
0000
0000
0010
0000
0000
,  // measure 12
0000
0000
0010
0000
0001
0000
1000
0010
0000
0100
0000
0000
0001
0000
0010
0100
,  // measure 13
0000
0000
1000
0000
0100
0000
0010
0000
0001
0010
0001
0000
0100
1000
0100
1000
,  // measure 14
0100
0000
0000
0000
0000
0000
0001
0000
0000
0010
0000
0000
0001
0000
0000
0000
0100
0000
0000
0000
0010
0000
0000
0000
,  // measure 15
2000
0000
0000
0000
0000
0000
3000
0000
0001
0000
0000
1000
0000
0000
0100
0000
0000
0000
0010
0000
0000
0100
0000
0000
,  // measure 16
1000
0000
0010
0000
0100
0000
0010
1000
0000
0001
0000
0000
0010
0000
0001
0000
,  // measure 17
0100
0000
1000
0000
0100
0000
0001
0000
0100
1000
0100
1000
0100
0000
0001
0010
,  // measure 18
0001
0000
0000
0000
0000
0000
1000
0000
0000
0100
0000
0000
1000
0000
0000
0000
0100
0000
0000
0000
0010
0000
0000
0000
,  // measure 19
1001
0000
0000
0000
1000
0000
0100
1000
0010
0000
0010
0000
0100
0000
0100
0010
,  // measure 20
0000
0000
1000
0000
0100
0000
0010
0001
0000
0010
0000
0000
0100
0000
0010
0001
,  // measure 21
0000
0000
0000
0000
1000
0000
0001
0000
0010
1000
0010
0000
0001
0100
0001
0100
,  // measure 22
1000
0000
0000
0000
0100
0000
0001
0000
0100
0000
0010
0000
,  // measure 23
1001
0000
0000
0000
0001
0000
0100
0001
0010
0000
0010
0000
0100
0000
0100
0010
,  // measure 24
0000
0000
0000
0000
0001
0100
0000
0000
0010
0000
1000
0100
0000
1000
0000
0010
,  // measure 25
0100
0000
0000
0000
1001
0000
0000
0000
1000
0001
1000
0100
0010
0001
1000
0001
,  // measure 26
0100
0000
0000
0010
0000
0000
1100
0000
0011
0000
0101
0000
,  // measure 27
1010
0000
0000
0000
1000
0100
0010
0000
0000
0001
0000
0000
,  // measure 28
2002
0000
0000
0000
0003
0000
0001
0000
0010
0000
0010
0000
0100
0000
3100
1000
,  // measure 29
0001
0000
1001
0000
0000
0000
0110
0000
0000
0000
2002
0000
0000
3003
1100
0000
,  // measure 30
0000
1100
0000
0101
0000
0001
0100
0110
,  // measure 31
0000
1000
0100
0110
0000
0100
0010
1001
,  // measure 32
0000
1001
0000
0101
0000
0101
0001
0100
,  // measure 33
0010
1000
0000
0000
0100
0000
0010
0000
0001
0100
0010
0000
1000
0000
1010
0000
,  // measure 34
0000
1010
0000
0011
0000
0001
0010
0110
,  // measure 35
0000
1100
0000
1010
0000
0011
0000
0101
,  // measure 36
0000
0101
0000
1100
0000
1100
0000
0000
,  // measure 37
1000
0100
0010
0100
1000
0010
0100
0010
1000
0100
0010
0100
1000
0000
1010
0000
,  // measure 38
0000
1100
0000
0011
0000
0010
0100
0110
,  // measure 39
0000
0100
0010
0110
0000
0010
0001
1001
,  // measure 40
0000
0000
1001
0000
0000
0000
0110
0000
0000
0000
0110
0000
1000
0000
0100
0010
,  // measure 41
0000
0001
0100
0000
0010
0000
1000
0100
0000
0010
0001
0000
0010
0000
0011
0000
,  // measure 42
0000
0011
0000
1010
0000
1010
0010
0110
,  // measure 43
0000
0101
0000
1100
0000
1010
0000
0011
,  // measure 44
0000
0000
0011
0000
0000
0000
1010
0000
0000
0000
1010
0000
0000
0000
0000
1000
,  // measure 45
0010
0000
0000
0010
0100
0000
0000
0100
0001
0010
0100
1000
0010
0100
0002
0000
,  // measure 46
0000
0000
0010
0000
0013
0000
0000
0000
0200
0000
0000
1000
0000
0000
0310
0000
,  // measure 47
0000
0000
0001
0000
0101
0000
0000
0000
0100
0010
0100
0010
1000
0010
0100
0001
,  // measure 48
2000
0000
0100
0000
3100
0000
0000
0000
0020
0000
0000
0001
0000
0000
0130
0000
,  // measure 49
0000
0000
1000
0000
1100
0000
0000
0000
1000
0100
1000
0001
0010
0001
0100
0010
,  // measure 50
2000
0000
0100
0000
3100
0000
0000
0000
2000
0000
0000
0100
0000
0000
3001
0000
,  // measure 51
0000
0000
0001
0000
0011
0000
0000
0000
0001
1000
0001
1000
0010
0100
0001
0000
,  // measure 52
0020
0000
0001
0000
0031
0000
0000
0000
0002
0000
0000
0100
0000
0000
1003
0000
,  // measure 53
0001
0010
0100
1000
0001
0100
0010
1000
0001
0010
0100
1000
0001
0100
0010
1000
,  // measure 54
0002
0000
0000
0100
0000
0000
2003
0000
3200
0000
0320
0030
,  // measure 55
0012
0000
0000
0000
0000
0000
1003
0001
2000
0000
0000
0000
0010
0000
0000
0000
,  // measure 56
3200
0000
0000
0000
0001
0000
0000
0000
0320
0000
0000
0000
1000
0000
1030
0010
,  // measure 57
0002
0000
0000
0000
0100
0000
0000
0000
1003
0100
1000
0000
0010
0001
0010
0001
,  // measure 58
0020
0000
0000
1030
0000
0000
0002
0000
0203
0000
0320
0030
,  // measure 59
2010
0000
0000
0000
0000
0000
3001
1000
0002
0000
0000
0000
1000
0000
0000
0000
,  // measure 60
0023
0001
0230
1000
,  // measure 61
0320
0000
0000
0000
1000
0000
0000
0000
0130
1000
0100
0001
0100
0000
1000
0001
,  // measure 62
0010
0000
0000
0110
0000
0000
0011
0000
0101
0000
1100
0000
,  // measure 63
1010
0000
0000
0000
1000
0010
0200
0000
0000
0301
0000
0000
,  // measure 64
2002
0000
0000
0000
3000
0000
1000
0000
0010
0000
0010
0000
0100
0000
0103
0001
,  // measure 65
1000
1001
0000
0110
0000
2002
0000
3003
,  // measure 66
0000
0110
0000
1001
0000
2100
3000
0101
,  // measure 67
0000
0101
0000
1100
0000
1000
0010
0101
,  // measure 68
0000
0000
0001
0000
0010
0000
1100
0000
0000
0000
1000
0010
0100
0000
1001
0000
,  // measure 69
0000
0110
0000
1001
0000
0110
1000
0001
,  // measure 70
0010
0100
0000
0000
1000
0000
0010
0000
0100
0001
1000
0000
0001
0000
0011
0000
,  // measure 71
0000
0011
0000
1010
0000
0010
0100
0101
,  // measure 72
0000
0010
0100
1100
0000
1000
1100
1001
,  // measure 73
0000
1001
0000
0011
0000
0011
0000
0000
,  // measure 74
0001
0010
0100
0010
0001
0100
0010
0100
0001
0010
0100
0010
0001
1000
0001
0000
;

//---------------dance-double - ----------------
#NOTES:
     dance-double:
     :
     Hard:
     8:
     0.541,0.566,0.600,0.187,0.353:
00000000
00000000
00000000
00000000
,
00000000
00000000
00000000
00000000
,
00000000
00000000
00000000
00000000
,
00000000
00000000
00000000
00000000
,
00000000
00000000
00000000
00000000
,
00010000
00000000
00001000
00000000
00000010
00000000
00000000
00000000
00001000
00000000
00000000
00000010
00000000
00000000
00000001
00000000
,
00001000
00000000
00010000
00000000
00100000
00000000
00000000
00000000
00010000
00000000
00000000
00100000
00000000
00000000
10000000
00000000
,
00010000
00000000
00001000
00000000
00000010
00000000
00000000
00000000
00001000
00000000
00000000
00000010
00000000
00000000
00000001
00000000
,
00000100
00001000
00010000
00100000
10000000
01000000
00010000
00001000
,
00021000
00000000
00000000
00030100
00000000
00000000
00000010
00000000
00000001
00000000
00000100
00000000
,
00002000
00000000
00000000
00000000
00000000
00000000
00000000
00000000
00013000
00000000
00001000
00000000
00010000
00000000
00000000
00000000
00000000
00000000
01000000
00000000
00000000
01000000
00000000
00000000
,
00000000
00000000
10000000
00000000
00100000
00000000
01000000
00010000
00000000
00100000
00000000
00000000
00001000
00000000
00010000
00001000
,
00010000
00000100
00000010
00000001
00000100
00001000
00010000
01000000
,
20010000
00000000
00000000
00000000
00000000
00000000
30100000
00000000
00000000
10000000
00000000
00000000
01000000
00000000
00000000
00000000
10000000
00000000
00000000
00000000
00100000
00000000
00000000
00000000
,
00020000
00000000
00000000
00000000
00000000
00000000
00000000
00000000
00031000
00000000
00000000
00010000
00000000
00000000
00001000
00000000
00000000
00000000
00000100
00000000
00000000
00000100
00000000
00000000
,
00000000
00000000
00000001
00000000
00000010
00000000
00000100
00000010
00000000
00000001
00000000
00000000
00001000
00000000
00000001
00000000
,
00000100
00000000
00000100
00000000
00001000
00000000
00001000
00000000
00010000
01000000
00010000
01000000
00010000
00000000
00000100
00000000
,
00001000
00000000
00000000
00000000
00000000
00000000
00000010
00000000
00000000
00000100
00000000
00000000
00000001
00000000
00000000
00000000
00000010
00000000
00000000
00000000
00000100
00000000
00000000
00000000
,
00001000
00000000
00000000
00000000
00000100
00000000
00010000
00001000
00010000
00000000
00010000
00000000
01000000
00000000
01000000
00010000
,
00000000
00000000
00000000
00000000
00010000
00000000
00001000
00100000
00000000
00100000
00000000
00000000
00010000
00000000
00010000
01000000
,
00000000
01000000
00000000
10000000
00000000
10000000
00000000
00000000
01000000
00000000
00010000
00000000
00001000
00000000
00000100
00000000
,
00000012
00000000
00000000
00001003
00010000
00000000
01000000
00000000
00010000
00000000
10000000
00000000
,
00100000
00000000
00000000
00000000
01000000
00000000
00001000
00010000
00001000
00000000
00001000
00000000
00000100
00000000
00000100
00001000
,
00000000
00000000
00010000
00000000
00001000
00100000
00000000
00000000
00010000
00000000
01000000
10000000
00000000
01000000
00000000
00100000
,
00000000
00100000
00000000
00010000
00000000
00010000
00000000
00001000
00010000
00001000
00010000
00001000
00000100
00001000
00000100
00001000
,
00020000
00000000
00000000
00030100
00000000
00000000
00001100
00000000
00011000
00000000
00110000
00000000
,
10010000
00000000
00000000
00000000
10000000
00100000
00010000
00000000
00000000
00001000
00000000
00000000
,
00200000
00000000
00000000
00000000
00000000
00000000
00310000
00000000
01000000
00000000
10000000
00000000
01000000
00000000
00010000
00001000
,
00000010
00001010
00000000
00000011
00000000
00000101
00000000
00001100
,
00000000
00001100
00000000
01010000
00000000
01000000
00001000
00011000
,
00000000
00000000
00000100
00000000
00010000
00000000
00011000
00000000
00000000
00000000
00010000
00001000
00010000
00000000
00011000
00000000
,
00000000
00011000
00000000
10010000
00000000
10010000
00000000
10000000
,
00100000
01000000
00000000
00000000
00010000
00000000
00100000
00000000
00001000
01000000
00010000
00000000
01000000
00000000
01001000
00000000
,
00000000
01001000
00000000
01010000
00000000
00010000
01000000
01100000
,
00000000
10100000
00000000
10010000
00000000
11000000
00000000
01010000
,
00000000
01001000
00000000
00011000
00000000
00001100
00000000
00000000
,
00001000
00000001
00000100
00001000
00010000
00100000
10000000
11000000
,
00000000
11000000
00000000
01010000
00000000
01010000
00001000
00011000
,
00000000
00000000
00001100
00000000
00010000
00000000
00011000
00000000
00000000
00000000
00010000
00001000
00100000
00000000
00101000
00000000
,
00000000
00000000
00101000
00000000
00000000
00000000
00110000
00000000
00000000
00000000
00110000
00000000
00000000
00000000
00010000
10000000
,
00000000
00100000
01000000
00000000
00011000
00000000
00000100
00000010
00000000
00000001
00001000
00000000
00001001
00000000
00001100
00000000
,
00000000
00001100
00000000
00010100
00000000
00010000
00000100
00000110
,
00000000
00001100
00000000
00110000
00000000
10010000
00000000
11000000
,
00000000
00000000
11000000
00000000
00000000
00000000
01010000
00000000
00000000
00000000
01010000
00000000
00000000
00000000
00000000
00010000
,
01000000
00000000
00000000
01000000
00100000
00000000
00000000
00100000
10000000
01000000
00100000
00010000
10000000
00010000
02000000
00000000
,
00000000
00000000
00001000
00000000
03001000
00000000
00000000
00000000
00002000
00000000
00000000
00010000
00000000
00000000
01003000
00000000
,
00000000
00000000
01000000
00000000
00001000
00000000
00000000
00000000
00010000
00001000
00010000
00001000
00010000
00000100
00000020
00000000
,
00000000
00000000
00001000
00000000
00001030
00000000
00000000
00000000
00020000
00000000
00000000
00001000
00000000
00000000
00030100
00000000
,
00000000
00000000
00000100
00000000
00010000
00000000
00000000
00000000
00001000
00010000
00001000
00010000
01000000
00100000
02000000
00000000
,
00000000
00000000
00010000
00000000
03010000
00000000
00000000
00000000
00002000
00000000
00000000
00010000
00000000
00000000
00103000
00000000
,
00000000
00000000
00100000
00000000
00001000
00000000
00000000
00000000
00010000
00001000
00010000
00001000
00000100
00000010
00000200
00000000
,
00000000
00000000
00001000
00000000
00001300
00000000
00000000
00000000
00002000
00000000
00000000
00010000
00000000
00000000
00103000
00000000
,
00010000
01000000
00100000
10000000
01000000
00010000
00001000
00000100
,
00000110
00000000
00000000
00001001
00000000
00000000
00000001
00000000
00000100
00000000
00001000
00000000
,
00011000
00000000
00000000
00000000
00010000
00000000
00001000
00100000
00010000
00000000
00010000
00000000
01000000
00000000
01000000
00010000
,
20000000
00000000
00000000
00000000
31000000
00000000
00000000
00000000
00020000
00000000
00000000
00000000
00031000
00000000
00000100
00001000
,
00000200
00000000
00000000
00000000
00000301
00000000
00000000
00000000
00000010
00000001
00000010
00000000
00000100
00001000
00000100
00001000
,
00000100
00000000
00000000
00011000
00000000
00000000
10000000
00000000
01000000
00000000
00010000
00000000
,
00011000
00000000
00000000
00000000
00010000
00000000
00001000
00010000
00000010
00000000
00000010
00000000
00000100
00000000
00000100
00000001
,
00002000
00013000
02000000
03010000
,
00200000
00000000
00000000
00000000
01300000
00000000
00000000
00000000
10000000
00100000
10000000
00000000
01000000
00010000
01000000
00010000
,
00001000
00000000
00000000
00011000
00000000
00000000
01010000
00000000
00011000
00000000
00001010
00000000
,
00001001
00000000
00000000
00000000
00000001
00000010
00002000
00000000
00000000
02003000
00000000
00000000
,
03020000
00000000
00000000
00000000
00000000
00000000
10030000
00000000
00100000
00000000
00010000
00000000
00001000
00000000
00000100
00000001
,
00001000
00001001
00000000
00001100
00000000
00022000
00000000
00033000
,
00000000
00000000
10010000
00000000
00000000
00000000
01010000
00000000
00000000
00000000
00022000
00000000
00000000
00033000
00010010
00000000
,
00000000
00010010
00000000
00001010
00000000
00001000
00000010
00000101
,
00000000
00000000
00000001
00000000
00000010
00000000
00001100
00000000
00000000
00000000
00000100
00010000
00001000
00000000
00011000
00000000
,
00000000
00011000
00000000
00101000
00000000
00101000
00000000
00100000
,
00010000
01000000
00000000
00000000
01100000
00000000
01000000
00100000
10000000
01000000
00010000
00000000
00001000
00000100
00001000
00000000
,
00010000
00011000
00000000
00011000
00000000
00010000
01000000
10100000
,
00000000
10010000
00000000
11000000
00000000
00110000
00000000
01010000
,
00000000
00011000
00000000
00010100
00000000
00001100
00000000
00000000
,
00001000
00000000
00000010
00000000
00000100
00000000
00000001
00000000
00000010
00001000
00010000
00001000
00010000
00001000
00010000
00000000
;

//---------------dance-single - ----------------
#NOTES:
     dance-single:
     :
     Medium:
     6:
     0.442,0.419,0.460,0.127,0.127:
0000
0000
0000
0000
,
0000
0000
0000
0000
,
0000
0000
0000
0000
,
0000
0000
0000
0000
,
0000
0000
0000
0000
,
0000
0000
1000
0000
0010
0000
0000
0000
1000
0000
0000
0010
0000
0000
0100
0000
,
0000
0000
0001
0000
0010
0000
0000
0000
0001
0000
0000
0010
0000
0000
0100
0000
,
0000
0000
1000
0000
0010
0000
0000
0000
1000
0000
0000
0010
0000
0000
0100
0000
,
0001
1000
0001
0010
0001
1000
0001
0100
,
0001
0000
0000
0100
0000
0000
1000
0000
0100
0000
0001
0000
,
0010
0000
0000
0000
0000
0000
0000
0000
0010
0000
0100
0000
0010
0000
0000
0000
0000
0000
0001
0000
0000
0001
0000
0000
,
0000
0000
1000
0001
0100
0001
1000
0100
,
1000
0100
0010
0001
1000
0100
1000
0010
,
0100
0000
0000
0000
0000
0000
0000
0000
0000
0100
0000
0000
0001
0000
0000
0000
1000
0000
0000
0000
0100
0000
0000
0000
,
0010
0000
0000
0000
0000
0000
0000
0000
0010
0000
0000
0000
0000
0000
0100
0000
0000
0000
1000
0000
0000
1000
0000
0000
,
0000
0000
1000
0000
0100
0010
0100
1000
,
0100
0001
0100
1000
0100
0010
0001
1000
,
0001
0000
0000
0000
0000
0000
0000
0000
0000
0001
0000
0000
1000
0000
0000
0000
0100
0000
0000
0000
1000
0000
0000
0000
,
0010
0000
0000
0000
0100
0010
0100
0000
0000
0100
0000
0000
,
0001
0100
0001
0010
0001
0100
0010
1000
,
0100
0100
1000
1000
0100
0010
0001
1000
,
0001
0000
0000
0000
1000
0000
0001
0000
0100
0000
0001
0000
,
0010
0000
0000
0000
0000
0000
0000
0000
0010
0000
0100
0000
0010
0000
0000
0000
0000
0000
0001
0000
0000
0001
0000
0000
,
0000
0000
1000
0100
1000
0010
1000
0100
,
0010
0010
0001
0001
0100
0010
1000
0001
,
2001
0000
0000
3100
0000
0000
1000
0000
0100
0000
0010
0000
,
0001
0000
0000
0000
0001
1000
0001
0000
0000
2000
0000
0000
,
3020
0000
0000
1030
0100
0001
0100
1000
,
0001
0101
0000
1001
0000
1100
0000
1001
,
0000
1010
0000
1001
0000
1000
0100
0001
,
0000
1000
0100
0001
0000
1000
0001
1001
,
0000
0101
0000
1001
0000
1100
0000
1000
,
0100
0010
0100
1000
0010
0100
0001
1001
,
0000
0011
0000
1001
0000
1000
0100
0010
,
0000
0011
0000
1001
0000
1100
0000
0110
,
0000
0011
0000
0110
0000
1100
0000
0000
,
1000
0010
0100
0001
1000
0010
0100
1001
,
0000
0011
0000
1001
0000
1000
0010
0001
,
0000
1000
0010
0001
0000
1000
0001
1001
,
0000
0011
0000
1001
0000
1010
1000
0100
,
0010
0001
0100
0001
0010
0100
1000
1001
,
0000
1010
0000
1001
0000
0001
0100
0010
,
0000
1010
0000
1001
0000
1100
0000
0110
,
0000
0011
0000
0110
0000
1100
0000
0000
,
1100
0000
1100
0000
1000
0010
0100
0101
,
0000
0000
0001
0000
0100
0000
0000
0000
0200
0000
0000
0310
0000
0000
1000
0000
,
0000
1000
0100
0000
0100
1000
0010
0100
,
0000
0000
0001
0000
0100
0000
0000
0000
0200
0000
0000
0310
0000
0000
1000
0000
,
0000
1000
0100
0000
0100
1000
0010
0100
,
0000
0000
0100
0000
0001
0000
0000
0000
0020
0000
0000
0130
0000
0000
1000
0000
,
0000
1000
0100
0000
0100
1000
0010
0100
,
0000
0000
0100
0000
0001
0000
0000
0000
0020
0000
0000
0130
0000
0000
1000
0000
,
0010
1000
0100
0001
0100
1000
0010
0100
,
1001
0000
0000
0001
0000
0000
1000
0000
1000
0000
1000
0000
,
0020
0000
0000
0000
0000
0000
0000
0000
0000
0000
0000
0000
0000
0000
0000
0000
0030
0000
0100
0000
0000
0001
0000
0000
2000
0000
0000
0000
0000
0000
0000
0000
0000
0000
0000
0000
0000
0000
0000
0000
3000
0000
0000
0000
0000
0000
0000
0000
,
2000
0100
3002
0010
,
0203
0001
1000
0310
,
0110
0000
0000
0001
0000
0000
0001
0000
0001
0000
0001
0000
,
0020
0000
0000
0000
0000
0000
0000
0000
0000
0000
0000
0000
0000
0000
0000
0000
0000
0000
0130
0000
0000
1000
0000
0000
0002
0000
0000
0000
0000
0000
0000
0000
0000
0000
0000
0000
0000
0000
0000
0000
0000
0000
0000
0000
0003
0000
0000
0000
,
0002
0010
2003
0100
,
3020
1000
0001
0130
,
0110
0000
0000
0010
0000
0000
0100
0000
0001
0000
1000
0000
,
0010
0000
0000
0000
0010
1000
0001
0000
0000
1000
0000
0000
,
0020
0000
0000
1030
0100
0001
0100
1000
,
0010
1010
0000
1001
0000
2100
0000
0000
,
3001
0011
0000
1001
0000
0101
0000
1001
,
0000
1100
0000
1001
0000
0001
0100
0010
,
0000
0001
0100
0010
0000
0010
0100
0110
,
0000
1001
0000
0110
0000
1001
0000
1000
,
0010
0100
0001
0010
1000
0010
0001
1001
,
0000
1100
0000
1001
0000
1000
0010
0110
,
0000
0101
0000
0011
0000
0110
0000
1001
,
0000
1100
0000
1001
0000
0101
0000
0000
,
0001
0010
0100
1000
0001
0010
0100
1001
;

//---------------dance-double - ----------------
#NOTES:
     dance-double:
     :
     Medium:
     6:
     0.406,0.394,0.433,0.173,0.110:
00000000
00000000
00000000
00000000
,
000MM000
00000000
00000000
00000000
,
00000000
00000000
00000000
00000000
,
00000000
00000000
00000000
00000000
,
00000000
00000000
00000000
00000000
,
00010000
01000000
10000000
01000000
00010000
01000000
10000000
00000000
,
10000000
00100000
00010000
00100000
10000000
00100000
00010000
00000000
,
00001000
00000100
00001000
00010000
01000000
00010000
00001000
00000000
,
00011000
00010010
00001010
00001001
,
00000101
00000000
00000000
00000000
00000000
00000000
00000001
00000000
00000100
00000000
00000010
00000000
,
00002000
00000000
00000000
00000000
00000000
00000000
00000000
00000000
00003001
00000000
00001000
00000000
00000001
00000000
00000000
00000000
00000000
00000000
00000100
00000000
00000000
00000100
00000000
00000000
,
00000000
00000000
00001000
00010000
01000000
00000000
00010000
01000000
,
10000000
10000000
11000000
01010000
,
10010000
00000000
00000000
00000000
00000000
00000000
00000000
00000000
00000000
00010000
00000000
00000000
10000000
00000000
00000000
00000000
01000000
00000000
00000000
00000000
00100000
00000000
00000000
00000000
,
00020000
00000000
00000000
00000000
00000000
00000000
00000000
00000000
10030000
00000000
00000000
00000000
00000000
00000000
10000000
00000000
00000000
00000000
01000000
00000000
00000000
01000000
00000000
00000000
,
00000000
00000000
00010000
00001000
00000100
00000000
00001000
00000100
,
00000001
00000000
00000001
00000000
00001000
00001000
00001000
00000000
,
00001001
00000000
00000000
00000000
00000000
00000000
00000000
00000000
00000000
00001000
00000000
00000000
00000001
00000000
00000000
00000000
00000100
00000000
00000000
00000000
00000001
00000000
00000000
00000000
,
00000020
00000000
00000000
00000000
00000000
00000000
00000000
00000000
00001030
00000000
00010000
00000000
00001000
00000000
00000000
00000000
00000000
00000000
00010000
00000000
00000000
00010000
00000000
00000000
,
00000000
00000000
00010000
00001000
01000000
00000000
01000000
00010000
,
10000000
10000000
11000000
01010000
,
10010000
00000000
00000000
00000000
00010000
00000000
10000000
00000000
01000000
00000000
10000000
00000000
,
00200000
00000000
00000000
00000000
00000000
00000000
00000000
00000000
00310000
00000000
00001000
00000000
00010000
00000000
00000000
00000000
00000000
00000000
00001000
00000000
00000000
00001000
00000000
00000000
,
00000000
00000000
00001000
00010000
00000100
00000000
00000100
00001000
,
00000001
00000000
00000001
00000000
00000100
00001000
00010000
00000000
,
00011000
00000000
00000000
00001000
00000000
00000000
00010000
00000000
00001000
00000000
00010000
00000000
,
00012000
00000000
00000000
00000000
00013000
00001000
00020000
00000000
00000000
02030000
00000000
00000000
,
23000000
00000000
00000000
00000000
30100000
10000000
00010000
01000000
,
00001000
00011000
00000000
00010100
00000000
00001100
00000000
00001001
,
00000000
00001001
00000000
00001100
00000000
00000100
00001000
00020000
,
00000000
00030100
00001000
00020000
00000000
00031000
00000100
00000001
,
00000000
00001001
00000000
00001000
00000000
00001001
00000000
00000000
,
00000001
00000100
00001000
00000001
00001000
00010000
00000000
00011000
,
00000000
00101000
00000000
00011000
00000000
00010000
00001000
00000100
,
00000000
00001000
00000000
00100000
00000000
00001000
00000000
00011000
,
00000000
00011000
00000000
01001000
00000000
01001000
00000000
00000000
,
01000000
00010000
01000000
00000000
01000000
10000000
01000000
01010000
,
00000000
10010000
00000000
01010000
00000000
01000000
00010000
00002000
,
00000000
01003000
00010000
00002000
00000000
00013000
01000000
10000000
,
00000000
10010000
00000000
00010000
00000000
10010000
00000000
00000000
,
10000000
00010000
10000000
01000000
00010000
00001000
00000000
00011000
,
00000000
00101000
00000000
00011000
00000000
00001000
00010000
01000000
,
00000000
10000000
00000000
00100000
00000000
10000000
00000000
11000000
,
00000000
11000000
00000000
01010000
00000000
01010000
00000000
00000000
,
10010000
00000000
00011000
00000000
00001001
00000000
00001000
00000001
,
00000000
00000000
00000001
00000000
00000100
00000000
00000000
00000000
00000100
00000000
00000000
00000100
00000000
00000000
00000100
00000000
,
00000000
00001000
00010000
00000000
00010000
01000000
10000000
00000000
,
00000000
00000000
10000000
00000000
00010000
00000000
00000000
00000000
00100000
00000000
00000000
00100000
00000000
00000000
00100000
00000000
,
00000000
00010000
00001000
00000000
00001000
00000010
00000001
00000000
,
00000000
00000000
00000001
00000000
00001000
00000000
00000000
00000000
00000100
00000000
00000000
00000100
00000000
00000000
00000100
00000000
,
00000000
00001000
00010000
00000000
00010000
01000000
10000000
00000000
,
00000000
00000000
10000000
00000000
00010000
00000000
00000000
00000000
00100000
00000000
00000000
00100000
00000000
00000000
00100000
00000000
,
00001000
00010000
00000100
00001000
00000001
00000100
00000001
00000000
,
00000101
00000000
00000000
00000000
00000000
00000000
00000001
00000000
00000100
00000000
00000010
00000000
,
00020000
00000000
00000000
00001000
00002000
00000000
00000000
00033000
,
00020000
00000000
02030000
00000000
,
23000000
00000000
00100000
00010000
,
32000000
00000000
00000000
00000000
00000000
00000000
13000000
00000000
01000000
00000000
00100000
00000000
,
00002000
00000000
00000000
00010000
00020000
00000000
00000000
00033000
,
00002000
00000000
00003200
00000000
,
00000302
00000000
00000010
00001000
,
00000103
00000000
00000000
00000001
00000000
00000000
00000100
00000000
00001000
00000000
00010000
00000000
,
00011000
00000000
00000000
00000000
00010000
00001000
00020000
00000000
00000000
02030000
00000000
00000000
,
23000000
00000000
00000000
00000000
31000000
00010000
00001000
00010000
,
00000100
00000010
00000000
00000110
00000000
00001100
00000000
00000000
,
00000000
00001010
00000000
00011000
00000000
01010000
00000000
10010000
,
00000000
10010000
00000000
11000000
00000000
01000000
00010000
00001000
,
00000000
01000000
00010000
00001000
00000000
00001000
00000010
00000100
,
00000000
00000110
00000000
00000010
00000000
00001001
00000000
00001000
,
00000100
00000010
00000001
00000100
00000010
00001000
00000100
00010000
,
00000000
00011000
00000000
00100000
00000000
00010000
01000000
01100000
,
00000000
10100000
00000000
10010000
00000000
01010000
00000000
01001000
,
00000000
00011000
00000000
00010100
00000000
00011000
00000000
00000000
,
00010000
00001000
00100000
00010000
10000000
00100000
01000000
00010000
;

//---------------dance-double - ----------------
#NOTES:
     dance-double:
     :
     Easy:
     4:
     0.258,0.222,0.047,0.267,0.010:
00000000
00000000
00000000
00000000
,
00000000
00000000
00000000
00000000
,
00000000
00000000
00000000
00000000
,
00000000
00000000
00000000
00000000
,
00000000
00000000
00000000
00000000
,
00010000
00001000
00010000
00000000
,
00001000
00000010
00001000
00000000
,
00000000
00010000
01000000
00010000
,
00001000
00000100
00000001
00001000
,
00000001
00000000
00000001
00000010
,
00002000
00000000
00000000
00000000
00013000
00000000
01000000
01000000
,
00000000
10000000
00100000
01000000
,
00010000
00001000
00010000
01000000
,
01100000
00000000
01000000
00010000
,
00200000
00000000
00000000
00000000
00000000
00000000
00000000
00000000
00000000
00000000
00000000
00000000
00000000
00000000
01300000
00000000
00000000
00000000
01000000
00000000
00000000
01000000
00000000
00000000
,
00000000
10000000
01000000
00010000
,
00001000
00000100
00000001
00000100
,
00011000
00000000
00010000
00100000
,
20000000
00000000
00000000
00000000
30010000
00000000
01000000
01000000
,
00000000
00001000
00010000
00001000
,
00000100
00000100
00000001
00001000
,
00001001
00000000
00000001
00000010
,
00002000
00000000
00000000
00000000
00013000
00000000
00100000
00100000
,
00000000
10000000
00010000
10000000
,
00100000
00010000
00001000
00000100
,
00000001
00000000
00000000
00000000
00000000
00000000
00000001
00000000
00000100
00000000
00001000
00000000
,
00020000
00000000
00002000
00003000
,
00200000
00030000
20300000
00000000
,
30000000
10000000
00000000
01000000
00000000
00010000
00000000
00001000
,
00000000
00001000
00000000
00000100
00000000
00000100
00000000
00000001
,
00000000
00000010
00000000
00000100
00000000
00010000
00000000
00002000
,
00000000
00003000
00000000
00002000
00000000
00003000
00000000
00012000
,
00000000
00000000
00000000
01000000
00000000
00010000
00000000
00103000
,
00000000
00100000
00000000
00010000
00000000
01000000
00000000
10000000
,
00000000
01000000
00000000
00100000
00000000
00010000
00000000
00002000
,
00000000
00003000
00000000
00002000
00000000
00003000
00000000
00000000
,
00001000
00000000
00000100
00000000
00000001
00000000
00000010
00001000
,
00000000
00001000
00000000
00010000
00000000
01000000
00000000
10000000
,
00000000
01000000
00000000
00010000
00000000
00001000
00000000
00000200
,
00000000
00000300
00000000
00000200
00000000
00000300
00000000
00012000
,
00000000
00000000
00000000
00010000
00000000
00100000
00000000
01003000
,
00000000
01000000
00000000
10000000
00000000
01000000
00000000
00010000
,
00000000
10000000
00000000
00100000
00000000
00010000
00000000
00200000
,
00000000
00300000
00000000
00200000
00000000
00300000
00000000
00000000
,
10000000
01000000
00010000
00001000
,
00011000
00000000
00001000
00000000
00000200
00000000
00000000
00000300
,
00000000
00000001
00000010
00001000
,
00010000
00000000
01000000
00000000
20000000
00000000
00000000
30000000
,
00000000
10000000
00100000
00010000
,
00001000
00000000
00000100
00000000
00000002
00000000
00000000
00000003
,
00000000
00000001
00000010
00001000
,
00010000
00000000
01000000
00000000
20000000
00000000
00000000
30000000
,
00010000
01000000
00001000
00010000
,
00011000
00000000
00010000
00000100
,
00000020
00000000
00000032
00000000
,
00000203
00000000
00002300
00000000
,
00023000
00000000
01000000
00001000
,
00030200
00000000
00000310
00000001
,
00000200
00000000
00002300
00000000
,
00023000
00000000
02030000
00000000
,
03200000
00000000
00010000
10000000
,
01300000
00000000
01000000
00010000
,
00002000
00000000
00003200
00000000
,
00000302
00000000
00000203
00000000
,
00000300
00001000
00000000
00001000
00000000
00002000
00000000
00003000
,
00000000
00010000
00000000
00010000
00000000
00020000
00000000
00031000
,
00000000
00001000
00000000
00010000
00000000
01000000
00000000
00100000
,
00000000
01000000
00000000
10000000
00000000
01000000
00000000
00010000
,
00000000
00010000
00000000
00001000
00000000
00001000
00000000
00000200
,
00000000
00000000
00000000
00000001
00000000
00000010
00000000
00001300
,
00000000
00001000
00000000
00010000
00000000
00010000
00000000
01000000
,
00000000
10000000
00000000
00100000
00000000
10000000
00000000
01000000
,
00000000
01000000
00000000
00010000
00000000
00010000
00000000
00000000
,
00001000
00000000
00010000
00000000
01000000
00000000
10000000
00010000
;

//---------------dance-single - ----------------
#NOTES:
     dance-single:
     :
     Beginner:
     2:
     0.151,0.172,0.000,0.000,0.000:
0000
0000
0000
0000
,
0000
0000
0000
0000
,
0000
0000
0000
0000
,
0000
0000
0000
0000
,
0000
0000
0000
0000
,
0000
1000
0000
1000
,
0000
0010
0000
0010
,
0000
0100
0000
0100
,
0100
0100
0100
0100
,
0100
0000
0001
0000
,
1000
0000
0100
0000
,
0000
0000
0010
0000
,
0001
0000
1000
1000
,
1000
0000
0100
0000
,
0010
0000
0001
0000
,
0000
0000
0100
0000
,
1000
0000
1000
1000
,
1000
0000
0100
0000
,
0001
0000
1000
0000
,
0000
0000
0001
0000
,
0100
0000
0001
0001
,
0001
0000
1000
0000
,
0010
0000
0100
0000
,
0000
0000
0001
0000
,
1000
0000
0001
0001
,
0001
0000
1000
0000
,
0010
0000
0100
0000
,
0001
0000
0010
0000
,
0000
0100
0000
0100
0000
0100
0000
0000
,
0000
0100
0000
0100
,
0000
1000
0000
0001
,
0000
0100
0000
0001
,
0000
0010
0000
0001
,
0000
1000
0000
0001
,
0000
0010
0000
0001
,
0000
0100
0000
0010
,
0010
0010
0010
0010
,
0000
1000
0000
0001
,
0000
1000
0000
0010
,
0000
1000
0000
0100
,
0000
0010
0000
0100
,
0000
1000
0000
0001
,
0000
1000
0000
0010
,
0000
1000
0000
0100
,
0100
0100
0100
0100
,
0100
0000
0010
0000
,
0100
0000
1000
0000
,
0100
0000
0010
0000
,
0100
0000
0001
0000
,
0100
0000
0010
0000
,
0100
0000
1000
0000
,
0100
0000
0010
0000
,
0001
0001
0001
0001
,
0001
0000
0001
0000
,
0010
0000
1000
0000
,
0100
0000
0001
0000
,
1000
0000
1000
1000
,
1000
0000
0001
0000
,
0010
0000
1000
0000
,
0100
0000
0001
0000
,
0010
0000
0100
0100
,
0100
0000
1000
0000
,
0010
0000
0100
0000
,
0001
0000
0100
0000
,
0000
0100
0000
0100
0000
0100
0000
0000
,
0000
0010
0000
0010
0000
0010
0000
0000
,
0000
1000
1000
1000
,
0000
0010
0010
0010
,
0000
0100
0100
0100
,
0000
0001
0000
0001
,
0000
1000
1000
1000
,
0000
0010
0010
0010
,
0000
0100
0100
0100
,
0001
0001
0001
0001
;

//---------------dance-single - ----------------
#NOTES:
     dance-single:
     :
     Easy:
     4:
     0.258,0.246,0.080,0.347,0.043:
0000
0000
0000
0000
,
0000
0000
0000
0000
,
0000
0000
0000
0000
,
0000
0000
0000
0000
,
0000
0000
0000
0000
,
0000
1000
0001
1000
,
0000
1000
0010
1000
,
0000
1000
0100
1000
,
0010
0100
0001
0010
,
0110
0000
0000
0000
0000
0000
0100
0000
0000
0000
0100
0000
,
0100
0000
0000
0000
1000
0000
1000
0000
0000
0000
0000
0000
,
0000
1000
0100
0010
,
1001
0000
0001
0001
,
0101
0000
0000
0000
0000
0000
0001
0000
0000
0000
0100
0000
,
0200
0000
0000
0000
0000
0000
0000
0300
0000
0000
0000
0000
,
0000
0010
1000
0100
,
0001
0100
1000
0001
,
1001
0000
0000
0000
0000
0000
0001
0000
0000
0000
0010
0000
,
0010
0000
0000
0000
0001
0000
0001
0000
0000
0000
0000
0000
,
0000
0001
0100
0010
,
1001
0000
1000
1000
,
1100
0000
0000
0000
0000
0000
1000
0000
0000
0000
0010
0000
,
0010
0000
0000
0000
0100
0000
0100
0000
0000
0000
0000
0000
,
0100
0001
0010
1000
,
0010
0001
1000
0001
,
1001
0000
0000
0000
0000
0000
1000
0000
0100
0000
0010
0000
,
0002
0000
0000
0000
1000
0000
1003
0000
0000
0000
0000
0000
,
2002
0003
0200
0000
,
0300
0100
0000
0100
0000
0001
0000
3002
,
0000
0003
0000
0002
0000
0003
0000
0100
,
0000
0010
0000
0200
0000
0000
0300
0020
,
0000
0030
0000
0020
0000
0030
0000
0000
,
1000
0000
0001
0000
1001
0000
0000
2000
,
0000
3000
0000
2000
0000
3000
0000
0100
,
0000
0010
0000
0200
0000
0300
0000
0020
,
0000
0030
0000
0020
0000
0030
0000
0000
,
0001
0000
0010
0000
0100
0000
1000
0002
,
0000
0003
0000
0002
0000
0003
0000
0010
,
0000
0100
0000
0020
0000
0000
0030
0200
,
0000
0300
0000
0200
0000
0300
0000
0000
,
1000
0000
0001
0000
1001
0000
0000
2000
,
0000
3000
0000
2000
0000
3000
0000
0010
,
0000
0100
0000
0020
0000
0030
0000
0200
,
0000
0300
0000
0200
0000
0300
0000
0000
,
0001
0001
0010
0100
,
0000
1000
1000
0000
0200
0000
0000
0300
,
0000
0010
0010
0000
0001
0000
1000
0000
,
0000
0001
0001
0000
0200
0000
0000
0300
,
0000
0010
0010
0000
1000
0000
0001
0000
,
0000
1000
1000
0000
0200
0000
0000
0300
,
0000
0010
0010
0000
0001
0000
1000
0000
,
0000
0001
0001
0000
0200
0000
0000
0300
,
0010
1000
0001
0100
,
0110
0000
0100
0001
,
2000
0000
0000
0100
0200
0000
0000
3300
,
2000
0000
3200
0000
,
0320
0000
0001
0100
,
0032
0000
0103
0010
,
2000
0000
0000
0100
0200
0000
0000
3300
,
2000
0000
3200
0000
,
0320
0000
0001
0100
,
0031
0000
0000
0000
0000
0000
0001
0000
0100
0000
0010
0000
,
2000
0000
0000
0000
0001
0000
3001
0000
0000
0000
0000
0000
,
0002
0000
0203
0000
,
0000
1000
0000
1000
0000
2000
0000
3000
,
0000
0001
0000
0001
0000
0301
0000
0002
,
0000
0003
0000
0002
0000
0013
0000
0100
,
0000
1000
0000
0010
0000
0100
0000
0002
,
0000
0003
0000
0002
0000
0003
0000
0000
,
0010
0000
0001
0000
1001
0000
0000
2000
,
0000
3000
0000
2000
0000
3100
0000
0010
,
0000
0100
0000
0001
0000
0100
0000
2000
,
0000
3000
0000
2000
0000
3000
0000
0000
,
1000
0000
0010
0000
0100
0000
1000
0001
;
