#TITLE:Lush Life;
#SUBTITLE:;
#ARTIST:Zara Larsson;
#TITLETRANSLIT:;
#SUBTITLETRANSLIT:;
#ARTISTTRANSLIT:;
#GENRE:;
#CREDIT:;
#BANNER:[Show & Tell] - Lush Life.png;
#BACKGROUND:[Show & Tell] - Lush Life-bg.png;
#LYRICSPATH:;
#CDTITLE:;
#MUSIC:[Show & Tell] - Lush Life.ogg;
#OFFSET:0.000000;
#SAMPLESTART:58.923031;
#SAMPLELENGTH:15.162009;
#SELECTABLE:YES;
#DISPLAYBPM:98.000000;
#BPMS:0.000000=196.000000
,4.000000=98.000000
;
#STOPS:
;
#BGCHANGES:0.000=[Show & Tell] - Lush Life.avi=1.000=0=0=0=StretchNoLoop====,
99999=-nosongbg-=1.000=0=0=0 // don't automatically add -songbackground-
;
#KEYSOUNDS:;
#ATTACKS:;

//---------------dance-single - ----------------
#NOTES:
     dance-single:
     :
     Hard:
     7:
     0.398076,0.471308,0.115305,0.086479,0.389154,290.000000,278.000000,12.000000,9.000000,0.000000,0.000000,0.398076,0.471308,0.115305,0.086479,0.389154,290.000000,278.000000,12.000000,9.000000,0.000000,0.000000:
0000
0000
0000
0000
,
0000
0000
0000
0000
,
0000
0000
0000
0000
,
0000
0000
0000
0000
,
0000
0000
0000
0000
,
0000
0000
0010
0000
0000
0000
0010
0000
0000
0000
0010
0010
0000
0000
0010
0000
,
0000
0000
0100
0000
0000
0000
0100
0000
0000
0000
0100
0100
0000
0000
0100
0000
,
0000
0000
0001
0000
0000
0000
0001
0000
0000
0000
0001
0001
0000
0000
0001
0000
,
0000
0000
1000
0000
0000
0000
1000
0000
0010
0000
0000
0010
0100
0100
0001
0001
,
1000
0100
1000
0010
0110
0100
0011
0000
,
0100
0010
0100
0010
1000
0000
0010
0000
0100
0000
0010
0000
0101
0000
0000
0000
,
0001
0100
0010
0100
0110
0000
1100
0000
,
1000
0000
0010
1000
0000
0000
0100
0000
0000
1000
0000
0000
0010
0100
0010
1000
,
0100
1000
0010
1000
1100
0010
0110
0000
,
0100
0001
0010
0001
0100
0000
0100
0000
0110
0000
0010
0000
1100
0000
0000
0000
,
0010
0100
0001
0010
0002
0000
0103
0000
,
0001
0010
0200
1300
,
1010
0000
0000
0100
0010
0000
0010
0000
0200
0000
0300
0010
0100
0000
0100
0000
,
0020
0000
0030
1000
0100
0000
0100
0000
1000
0000
0010
0100
0010
0000
1000
0000
,
0001
0000
0000
0100
0001
0000
0001
0010
0001
0000
0100
0000
0010
0000
0010
0000
,
0110
0000
0000
0100
0010
0000
0010
1000
0000
1000
0100
1000
0010
0100
0001
0010
,
0001
0000
0000
0100
0010
0000
0010
0000
0200
0000
0300
0010
0100
0000
0100
0000
,
0020
0000
0030
0100
0001
0000
0010
0000
0001
0000
0100
0001
0100
0000
0010
0000
,
1000
0100
1000
0010
0100
0000
0001
0010
0001
0000
0100
0000
0001
0000
0010
0000
,
0220
0000
0000
0330
,
0100
1000
0000
0001
0000
0000
0100
0000
0000
0100
0000
0000
0010
0000
0100
0000
,
0001
0010
0000
0100
0000
1000
0001
0000
0100
0000
0010
0000
1000
0100
1000
0010
,
0100
0001
0000
0010
0000
0000
0001
0000
0000
0001
0000
0000
0100
0000
0010
0000
,
0010
1000
0000
0100
0010
0001
0000
0100
0000
0000
0010
0000
1000
0100
1000
0010
,
0100
0001
0000
0001
0000
0000
0100
0000
0000
0100
0000
0000
0001
0000
1000
0000
,
0010
0100
0000
0001
0000
0000
0010
0000
0000
0000
0001
0000
1000
0001
0010
0001
,
0100
0010
0000
0010
0000
0000
0100
0000
0000
0100
0000
0000
0001
0000
0100
0000
,
0010
1000
0000
0100
0010
0001
0000
0200
0000
0000
0000
0000
0000
0000
0300
0000
,
1000
0000
0100
0000
0001
0000
0100
0000
1000
0000
0100
0001
0000
0000
0000
0000
,
0010
0000
1000
0000
0010
0000
0001
0000
0010
0000
1000
0010
0000
0000
0000
0000
,
0001
0000
0100
0000
0010
0000
0100
0000
0001
0000
0010
0100
0000
0000
0000
0000
,
1000
0010
1000
0010
0100
0000
0001
0010
0001
0100
0010
1000
0000
0100
0010
0000
,
0001
0000
0010
0000
0001
0000
0100
0000
0001
0000
0010
0001
0000
0000
0000
0000
,
0100
0000
1000
0000
0100
0000
0001
0000
0010
0000
0100
1000
0000
0000
0000
0000
,
0010
0000
0001
0000
0010
0000
1000
0000
0100
0000
0010
0001
0000
0000
0000
0000
,
0100
0010
0100
0010
1000
0000
0001
0010
0001
0100
0000
0010
0000
0000
1000
0000
;

//---------------dance-single - ----------------
#NOTES:
     dance-single:
     :
     Medium:
     5:
     0.295125,0.374260,0.153740,0.057652,0.000000,215.000000,199.000000,16.000000,6.000000,0.000000,0.000000,0.295125,0.374260,0.153740,0.057652,0.000000,215.000000,199.000000,16.000000,6.000000,0.000000,0.000000:
0000
0000
0000
0000
,
0000
0000
0000
0000
,
0000
0000
0000
0000
,
0000
0000
0000
0000
,
0000
0000
0000
0000
,
0000
0100
0000
0100
0000
0100
0000
0100
,
0000
0010
0000
0010
0000
0010
0000
0010
,
0000
1000
0000
1000
0000
0001
0000
0001
,
0000
1000
0000
1000
0010
0000
0010
0100
,
0010
0010
1000
0100
1100
0000
1010
0000
,
0010
0100
0001
0010
0011
0000
0101
0000
,
0110
0010
1000
0100
1100
0000
1001
0000
,
0010
0100
0001
0000
0010
0001
0100
0100
,
0110
0000
0100
0001
0011
0000
1010
0000
,
0010
1000
0100
1000
0010
0100
0110
0000
,
1000
0100
1000
0001
0100
0000
0001
0000
,
0020
0001
0100
1030
,
0010
0010
0001
0000
0100
0100
0001
0000
,
0001
0001
0010
0100
1000
0001
0100
0000
,
0010
0100
0001
0000
0001
1000
0001
0000
,
0010
0100
1000
0000
0001
1000
0001
0000
,
0100
0100
0010
0000
0010
0010
0100
0000
,
0100
0001
0010
0000
0010
0100
1000
0000
,
0001
1000
0001
0000
0100
0010
0100
0000
,
0220
0000
0000
0330
,
1000
0100
1000
0000
0010
0000
0110
0000
,
0100
0001
0010
0000
0001
0000
0011
0000
,
0001
0100
0001
0000
1000
0010
1000
0000
,
0001
0100
0001
0000
0010
0001
0010
0000
,
0001
0100
0010
0000
0100
0000
0110
0000
,
0100
0010
1000
0000
0100
0000
1100
0000
,
1000
0001
1000
0000
0010
0100
0010
0000
,
0100
0001
0010
0001
0200
0000
0000
0300
,
0010
0010
0100
0000
0100
0100
0010
0000
,
0010
1000
0100
0000
0010
0100
0001
0000
,
0100
0010
0001
0000
0001
0001
0100
0000
,
0100
0010
1000
0100
1000
0000
1000
0000
,
0010
0100
0001
0000
0001
0001
0100
0000
,
0010
1000
0100
0000
0100
0010
1000
0000
,
0010
0001
0100
0000
0010
0100
0001
0000
,
0010
0001
0100
0010
2000
0000
0002
0000
,
3003
0000
0000
0000
;

//---------------dance-single - ----------------
#NOTES:
     dance-single:
     :
     Easy:
     3:
     0.192175,0.196979,0.009609,0.124914,0.000000,140.000000,139.000000,1.000000,13.000000,0.000000,0.000000,0.192175,0.196979,0.009609,0.124914,0.000000,140.000000,139.000000,1.000000,13.000000,0.000000,0.000000:
0000
0000
0000
0000
,
0000
0000
0000
0000
,
0000
0000
0000
0000
,
0000
0000
0000
0000
,
0000
0000
0000
0000
,
0000
0010
0000
0010
0000
0010
0000
0000
,
0000
0100
0000
0100
0000
0100
0000
0000
,
0000
0001
0000
0001
0000
0001
0000
0000
,
0000
1000
0000
1000
0010
0000
0100
0000
,
0010
0010
0100
0100
,
0001
0000
0010
0000
0001
0001
0100
0000
,
0010
0010
1000
0100
,
2000
0010
0100
3001
,
0001
0100
0010
0000
0010
0000
0100
0000
,
0100
0001
0010
0010
,
0001
1000
0010
0100
,
0002
0100
1000
0013
,
0010
0001
0100
0001
,
0010
0100
1000
0010
,
0100
0000
0000
0000
0100
0000
0001
0010
,
0001
0000
0001
0100
,
0010
0010
0100
0100
,
0010
0100
0001
0010
,
0200
0000
0300
0000
0100
0100
1000
0000
,
2002
0000
0000
3003
,
0001
0100
0010
0010
,
0010
1000
0100
0100
,
1000
0010
0020
0000
0000
0000
0130
0000
,
0010
0010
0200
0000
0000
0000
0310
0000
,
1000
0001
0010
0001
,
1000
0010
1000
1000
,
0100
0010
0020
0000
0000
0000
0130
0000
,
1000
0001
0002
0000
0200
0000
0303
0000
,
0001
0010
0001
0001
,
0100
0010
0100
0100
,
0010
1000
0100
0100
,
1000
0010
0200
0301
,
0001
0010
0100
1000
,
1000
0100
0010
0001
,
1000
0001
0100
0010
,
0100
0010
2000
0002
,
3003
0000
0000
0000
;

//---------------dance-single - ----------------
#NOTES:
     dance-single:
     :
     Beginner:
     1:
     0.124914,0.155661,0.067261,0.028826,0.000000,91.000000,84.000000,7.000000,3.000000,0.000000,0.000000,0.124914,0.155661,0.067261,0.028826,0.000000,91.000000,84.000000,7.000000,3.000000,0.000000,0.000000:
// measure 0
0000
0000
0000
0000
,  // measure 1
0000
0000
0000
0000
,  // measure 2
0000
0000
0000
0000
,  // measure 3
0000
0000
0000
0000
,  // measure 4
0000
0000
0000
0000
,  // measure 5
1000
0000
0001
0000
,  // measure 6
1000
0000
0001
0000
,  // measure 7
0100
0100
0100
0000
,  // measure 8
0010
0010
0010
0000
,  // measure 9
0001
0000
1001
0000
,  // measure 10
1000
0000
0110
0000
,  // measure 11
0100
0100
0100
0000
,  // measure 12
0010
0000
0100
0000
,  // measure 13
0001
0001
0001
0000
,  // measure 14
1000
1000
1000
0000
,  // measure 15
0001
0000
1000
0000
,  // measure 16
1001
0000
0110
0000
,  // measure 17
0010
0000
0100
0000
,  // measure 18
0010
0000
0010
0000
,  // measure 19
1000
1000
1000
0000
,  // measure 20
0001
0001
0001
0000
,  // measure 21
0010
0000
0100
0000
,  // measure 22
0010
0000
1000
1000
,  // measure 23
1000
0000
0001
0000
,  // measure 24
0220
0000
0000
0330
,  // measure 25
0010
0010
0010
0000
,  // measure 26
1000
1000
1000
0000
,  // measure 27
0100
0100
0000
0000
,  // measure 28
0010
0010
0000
0000
,  // measure 29
0001
0001
0001
0000
,  // measure 30
0100
0100
0100
0000
,  // measure 31
0001
0001
0000
0000
,  // measure 32
1000
1000
2000
3000
,  // measure 33
0010
0000
0010
0000
,  // measure 34
0100
0000
0100
0000
,  // measure 35
0001
0000
0001
0000
,  // measure 36
1000
0000
1001
0000
,  // measure 37
1000
0000
0100
0000
,  // measure 38
1000
0000
0010
0000
,  // measure 39
0100
0000
0001
0000
,  // measure 40
0100
0000
0110
0000
;
