#VERSION:0.81;
#TITLE:Like a nameless flower;
#SUBTITLE:;
#ARTIST:阿部靖広 feat.ひうらまさこ;
#TITLETRANSLIT:;
#SUBTITLETRANSLIT:;
#ARTISTTRANSLIT:Yasuhiro Abe feat. Masako Hiura;
#GENRE:;
#ORIGIN:;
#CREDIT:mf32892;
#BANNER:[Show and Tell] - Like a nameless flower.png;
#BACKGROUND:[Show and Tell] - Like a nameless flower-bg.png;
#PREVIEWVID:;
#JACKET:[Show and Tell] - Like a nameless flower-jacket.png;
#CDIMAGE:;
#DISCIMAGE:;
#LYRICSPATH:;
#CDTITLE:cdtitle.png;
#MUSIC:[Show and Tell] - Like a nameless flower.ogg;
#OFFSET:-0.397437;
#SAMPLESTART:40.160000;
#SAMPLELENGTH:12.000000;
#SELECTABLE:YES;
#BPMS:0.000=172.000;
#STOPS:250.000=0.349;
#DELAYS:;
#WARPS:;
#TIMESIGNATURES:0.000=4=4;
#TICKCOUNTS:0.000=4;
#COMBOS:0.000=1;
#SPEEDS:0.000=1.000=0.000=0;
#SCROLLS:0.000=1.000;
#FAKES:;
#LABELS:0.000=Song Start;
#BGCHANGES:;
#KEYSOUNDS:;
#ATTACKS:
;

//---------------dance-single - ----------------
#NOTEDATA:;
#CHARTNAME:;
#STEPSTYPE:dance-single;
#DESCRIPTION:;
#CHARTSTYLE:;
#DIFFICULTY:Hard;
#METER:8;
#RADARVALUES:0.582248,0.557820,0.390142,0.448248,0.020752,390.000000,47.000000,54.000000,0.000000,0.000000,0.000000,0.000000,0.000000,0.582248,0.557820,0.390142,0.448248,0.020752,390.000000,47.000000,54.000000,0.000000,0.000000,0.000000,0.000000,0.000000;
#CREDIT:;
#NOTES:
// measure 0
0000
0000
0000
0000
,  // measure 1
0000
0000
0000
0000
,  // measure 2
0000
0000
0000
0000
,  // measure 3
0000
0000
0000
0000
,  // measure 4
0002
0000
0010
0013
0000
1100
0000
0101
,  // measure 5
0000
0000
0020
0000
0000
1030
0001
0000
,  // measure 6
2000
0000
0010
3010
0000
0101
0000
1100
,  // measure 7
0000
0000
0020
0000
0031
1000
0010
0000
,  // measure 8
0110
0000
0000
0000
0000
0101
0000
1001
,  // measure 9
0000
0000
0000
0000
,  // measure 10
0011
0000
0000
0000
0000
0110
0000
1100
,  // measure 11
0000
0000
0000
0000
0000
0000
0000
0000
0000
0000
1000
0001
1000
0000
0000
0000
,  // measure 12
1001
0000
0001
0010
0100
0010
0001
0100
,  // measure 13
0000
0100
0010
1000
0100
0010
0001
0000
,  // measure 14
1001
0000
0100
0010
1000
0100
0010
0001
,  // measure 15
0000
0000
0000
0000
,  // measure 16
1000
0000
0001
0100
0010
0000
0010
1000
,  // measure 17
0100
0100
0010
0001
0000
0001
1000
0010
,  // measure 18
0100
0000
0100
0001
1000
1000
0100
0010
,  // measure 19
0100
0100
1000
0001
0000
0001
0100
0010
,  // measure 20
1000
0000
0010
1000
0100
0100
0010
0001
,  // measure 21
0100
0100
0010
1000
0000
0001
0010
0100
,  // measure 22
0000
0100
0010
0001
1000
1000
0010
0100
,  // measure 23
0001
0010
0001
1000
0000
1010
0000
0101
,  // measure 24
2000
0000
0000
0100
3100
0000
0000
0010
,  // measure 25
0002
0000
0000
0100
0103
0000
0000
0010
,  // measure 26
2000
0000
3002
0000
,  // measure 27
0020
0003
0000
0000
0000
0000
0030
0100
,  // measure 28
1000
0010
1000
0100
0110
0000
1001
0000
,  // measure 29
0001
0100
0001
0010
0000
0100
1000
0001
,  // measure 30
0000
0100
0010
0000
1000
0100
0010
0001
,  // measure 31
0000
0001
1000
0010
0100
0000
0100
0002
,  // measure 32
0010
0000
1000
0000
0103
0001
1000
0000
,  // measure 33
0020
1000
0230
0001
,  // measure 34
0302
0010
2003
0010
,  // measure 35
3020
0000
0130
0010
2000
0000
3100
0020
,  // measure 36
0001
0100
0001
0130
,  // measure 37
2000
0000
0000
3100
1000
0001
0000
1000
,  // measure 38
0020
0100
0000
0130
0001
0010
0100
1000
,  // measure 39
0000
1000
0001
0100
0010
0000
1000
0200
,  // measure 40
0010
0000
0310
0000
0001
1000
0001
0100
,  // measure 41
0110
1010
1001
1100
,  // measure 42
0010
0001
0100
0000
2010
0000
3100
0000
,  // measure 43
2001
0100
0010
0100
,  // measure 44
3001
0010
0100
0010
0001
0100
0010
1000
,  // measure 45
0100
0001
0100
2000
0000
0010
0000
3001
,  // measure 46
0100
0010
1000
0100
0010
0100
0010
0001
,  // measure 47
2000
0000
3010
1000
0002
0000
0013
0001
,  // measure 48
0200
0000
0310
1000
0002
0000
0013
0100
,  // measure 49
0020
0100
0031
1000
,  // measure 50
0001
0100
0001
0100
0010
1000
0010
1000
,  // measure 51
1010
1001
1100
1001
,  // measure 52
0011
1001
0101
1001
,  // measure 53
1010
1100
1001
1100
,  // measure 54
0011
0000
1001
0000
0001
0010
0100
1000
,  // measure 55
0020
0100
0001
0100
,  // measure 56
2030
0000
3200
0000
0320
0000
0031
0200
,  // measure 57
0000
0000
0010
0000
0010
0000
0310
1000
,  // measure 58
0002
0000
0000
0000
,  // measure 59
0000
0003
0000
0000
0000
0000
0000
0000
,  // measure 60
0000
0000
0000
0000
,  // measure 61
2002
0000
0000
3003
,  // measure 62
0022
0000
0000
0000
0033
1200
0000
1300
,  // measure 63
0001
0000
0010
0100
1000
0000
0001
0100
,  // measure 64
0010
0000
1000
0100
1000
0001
0010
0000
,  // measure 65
0100
0000
0010
0001
0100
0000
0010
1000
,  // measure 66
0001
0000
0010
0001
0100
0001
2000
0000
,  // measure 67
0010
0000
3020
0000
0130
0002
1000
0000
,  // measure 68
1000
0010
0013
0200
,  // measure 69
0000
1300
0001
1000
0000
0001
0020
0100
,  // measure 70
0000
0130
1000
0001
1000
1001
0000
1000
,  // measure 71
0100
0010
0001
0000
1000
0002
0100
0000
,  // measure 72
0100
0000
1003
0001
1000
0100
2200
0000
,  // measure 73
0000
0000
3300
0202
,  // measure 74
0000
0000
0303
1001
,  // measure 75
1000
0001
0000
0001
0010
0200
0000
1300
,  // measure 76
0010
0100
0001
1000
0001
0010
0100
0000
,  // measure 77
1000
0010
0000
0010
0100
0002
0000
0013
,  // measure 78
0100
0010
1000
0010
0001
1000
0010
0010
,  // measure 79
0000
1000
1000
0000
0001
0001
0000
0010
,  // measure 80
0010
0000
0000
0000
0100
0000
0000
0100
0000
0000
1000
0000
0000
1000
0000
0000
,  // measure 81
0010
0000
0000
0010
0000
0000
0100
0000
0000
0100
0000
0000
0001
0000
1000
0000
,  // measure 82
0000
1002
0000
0100
1000
0003
1000
0001
,  // measure 83
1000
1100
0000
0101
2002
0000
0000
0000
,  // measure 84
3003
0000
0000
0000
;

//---------------dance-single - ----------------
#NOTEDATA:;
#CHARTNAME:;
#STEPSTYPE:dance-single;
#DESCRIPTION:;
#CHARTSTYLE:;
#DIFFICULTY:Medium;
#METER:6;
#RADARVALUES:0.462478,0.590920,0.282230,0.614266,0.000000,282.000000,34.000000,74.000000,0.000000,0.000000,0.000000,0.000000,0.000000,0.462478,0.590920,0.282230,0.614266,0.000000,282.000000,34.000000,74.000000,0.000000,0.000000,0.000000,0.000000,0.000000;
#CREDIT:;
#NOTES:
// measure 0
0000
0000
0000
0000
,  // measure 1
0000
0000
0000
0000
,  // measure 2
0000
0000
0000
0000
,  // measure 3
0000
0000
0000
0000
,  // measure 4
0002
0000
1003
0100
0000
0010
0000
0110
,  // measure 5
0000
2000
0000
3001
,  // measure 6
2000
0000
3001
0100
0000
0010
0000
0110
,  // measure 7
0000
0200
0000
0301
,  // measure 8
1001
0000
0000
0000
0000
0011
0000
0110
,  // measure 9
0000
0000
0000
0000
,  // measure 10
1100
0000
0000
0000
0000
1001
0000
0101
,  // measure 11
0000
0000
0000
0000
0000
1000
0002
0000
,  // measure 12
0103
0000
0010
1000
0000
0001
0000
0010
,  // measure 13
0000
0100
0000
0010
0000
0001
0000
1000
,  // measure 14
0001
0000
0100
0010
0000
1000
0000
1001
,  // measure 15
0000
0000
0000
0000
,  // measure 16
0001
0000
0000
0010
0100
0000
0000
0000
,  // measure 17
1000
0001
1000
0001
0000
0100
0000
0010
,  // measure 18
0000
0000
0000
1000
0001
1000
0000
0000
,  // measure 19
0001
0010
0100
0010
0000
0001
0000
1000
,  // measure 20
0000
0000
0000
0010
0100
0010
0000
0000
,  // measure 21
1000
0100
1000
0001
0000
0010
0000
0100
,  // measure 22
0000
0000
0000
0010
0001
0100
0000
0000
,  // measure 23
0001
0100
0010
1000
0000
0100
0000
0020
,  // measure 24
0000
0000
0000
0031
1000
0000
0000
0000
,  // measure 25
0020
0000
0000
1030
0001
0000
0000
0010
,  // measure 26
0200
0000
2300
0000
,  // measure 27
3002
0000
0000
0000
,  // measure 28
0203
0300
0110
1001
,  // measure 29
0001
0000
1000
0001
0000
0010
0000
0200
,  // measure 30
0000
0000
1300
0000
0020
0000
1030
0001
,  // measure 31
0000
0001
0010
0100
0010
0000
0001
2000
,  // measure 32
0000
3010
0100
0100
,  // measure 33
0120
1030
2100
3001
,  // measure 34
0012
1003
2010
3001
,  // measure 35
0012
0000
1003
0000
2010
0000
3000
0002
,  // measure 36
0000
0010
0010
0013
,  // measure 37
0200
0000
0000
1000
1300
0000
0000
0001
,  // measure 38
0200
0000
0000
0000
0310
0000
1000
0001
,  // measure 39
0000
1000
0001
1000
0010
0000
0100
0020
,  // measure 40
0000
1000
0000
0130
,  // measure 41
0002
0023
0230
2300
,  // measure 42
3010
0100
0010
0000
2000
0000
0000
3001
,  // measure 43
0002
0000
0000
0000
,  // measure 44
0000
0013
0100
0000
1000
0000
0010
0000
,  // measure 45
0100
0001
0100
0002
0000
0000
1003
0000
,  // measure 46
0001
0010
0100
0000
1000
0001
1000
0000
,  // measure 47
0020
0100
0230
0001
,  // measure 48
0302
1000
2003
0100
,  // measure 49
3200
0010
0010
0310
,  // measure 50
0002
0203
0320
2030
,  // measure 51
3001
0001
0010
0010
,  // measure 52
1000
1000
0010
0010
,  // measure 53
0001
0001
0100
0100
,  // measure 54
1000
0000
1000
0000
0100
0010
0100
0010
,  // measure 55
2000
0100
0001
0010
,  // measure 56
3002
0000
0023
0000
0230
0000
1300
0002
,  // measure 57
0000
0000
0000
0010
,  // measure 58
2000
0000
0000
0000
,  // measure 59
0000
3003
0000
0000
0000
0000
0000
0000
,  // measure 60
0000
0000
0000
0000
,  // measure 61
0022
0000
0000
0033
,  // measure 62
2200
0000
0000
0000
3300
1001
0000
1000
,  // measure 63
0100
0010
0100
0000
1000
0002
0000
0000
,  // measure 64
0103
0010
0010
0210
,  // measure 65
0301
0012
1003
2100
,  // measure 66
3001
0102
1003
2100
,  // measure 67
3001
0000
0102
0000
0003
2000
0000
0000
,  // measure 68
0100
0100
3100
0020
,  // measure 69
0000
0001
0031
0000
0000
1000
0020
0000
,  // measure 70
0000
0000
0130
0000
0001
1000
0000
0001
,  // measure 71
1000
0001
0100
0000
0010
0200
0000
0000
,  // measure 72
0001
0000
0310
0220
,  // measure 73
0000
0000
0330
2002
,  // measure 74
0000
0000
3003
0012
,  // measure 75
1003
0200
0000
0000
1300
0002
0000
0000
,  // measure 76
0103
0010
1000
0002
,  // measure 77
0013
0200
0000
0000
1300
0002
0000
0000
,  // measure 78
0103
0000
0010
0000
1000
0000
0001
0100
,  // measure 79
0000
0001
0100
0000
0010
1000
0000
0010
,  // measure 80
1000
0000
1010
0000
0000
0110
0000
0000
,  // measure 81
0101
0000
0000
1001
0000
0000
1000
0001
,  // measure 82
0000
2002
0000
0000
0000
0000
0000
3003
,  // measure 83
0000
0100
0000
0100
0200
0000
0300
0000
;

//---------------dance-single - ----------------
#NOTEDATA:;
#CHARTNAME:;
#STEPSTYPE:dance-single;
#DESCRIPTION:;
#CHARTSTYLE:;
#DIFFICULTY:Easy;
#METER:4;
#RADARVALUES:0.285788,0.415875,0.041504,0.340337,0.000000,195.000000,5.000000,41.000000,0.000000,0.000000,0.000000,0.000000,0.000000,0.285788,0.415875,0.041504,0.340337,0.000000,195.000000,5.000000,41.000000,0.000000,0.000000,0.000000,0.000000,0.000000;
#CREDIT:;
#NOTES:
0000
0000
0000
0000
,
0000
0000
0000
0000
,
0000
0000
0000
0000
,
0000
0000
0000
0000
,
0002
1000
0000
1003
,
0000
2000
0000
3001
,
2000
0001
0000
3001
,
0000
0002
0000
1003
,
1001
0000
0000
0000
0000
0010
0000
0100
,
0000
0000
0000
0000
,
0110
0000
0000
0000
0000
1000
0000
0001
,
0000
0000
0000
0020
,
0130
0000
1000
0000
,
0001
0000
0100
0000
,
0010
0000
0000
0000
1000
0001
0000
1000
,
0000
0000
0000
0000
,
1000
0000
0001
0000
,
0100
0000
0010
1000
,
0001
0000
0010
0000
,
0100
0000
0010
0001
,
1000
0000
0001
0000
,
0100
0000
0010
1000
,
0001
0000
0010
0000
,
0100
0000
1000
0001
,
0200
0000
0310
0000
,
2000
0000
3001
0000
,
0020
0000
0230
0000
,
2300
0000
0000
0000
,
3000
0000
0001
0001
,
0010
0010
0100
1000
,
0002
0000
0103
0100
,
0001
0100
0010
1000
,
0002
0000
0013
0000
,
0100
0100
1000
1000
,
0010
0010
0100
0100
,
0002
0000
2003
0000
,
3002
0000
0003
0000
,
0020
0000
0130
0000
,
0200
0000
1300
0000
,
0001
0100
0010
1000
,
0200
0000
0310
0000
,
0001
0100
0010
1000
,
0100
0010
0001
0000
,
1002
0000
0000
0000
,
1003
0010
0100
0000
,
0010
0100
0001
0000
,
1000
0001
1000
0001
,
0020
0000
0230
0000
,
2300
0000
3002
0000
,
0203
0000
0310
0000
,
2000
3200
0320
0032
,
1003
1000
0010
0010
,
0100
0100
0001
0000
,
0001
0001
0010
0010
,
0100
0100
1000
0000
,
0002
0000
0103
0000
,
0100
0000
0010
0000
1000
0000
0100
0020
,
0000
0000
0030
0001
,
2000
0000
0000
0000
,
0000
3000
0000
0000
0000
0000
0000
0000
,
0000
0000
0000
0000
,
1010
0000
0000
0000
,
1001
0000
0000
1000
,
0010
0100
0001
2000
,
0000
3100
0000
0010
,
0010
0001
0001
0100
,
0100
0010
0010
2000
,
0000
3002
0000
2003
,
0000
3000
0000
0200
,
0000
0310
0000
0020
,
0000
0031
0000
1000
,
0010
0100
0001
0020
,
0000
0130
0000
2000
,
0000
0000
3000
0002
,
0000
0000
0003
1000
,
0000
0100
0000
0000
0000
0010
0000
0000
,
0001
1000
0001
0100
,
0000
0010
0000
0000
0000
1000
0000
0000
,
0001
1000
0001
0010
,
0000
0010
1000
0000
,
1000
0000
0001
0000
0000
0010
0000
0000
,
0010
0000
0000
0100
0000
0000
0100
0000
,
0000
2000
0000
0000
0000
0000
0000
0000
,
0000
3001
0000
0100
0001
0000
0000
0000
;
