#TITLE:Let's Dance, Boys!;
#SUBTITLE:;
#ARTIST:Bayonetta Sound Team;
#TITLETRANSLIT:;
#SUBTITLETRANSLIT:;
#ARTISTTRANSLIT:;
#GENRE:;
#CREDIT:;
#BANNER:[Show & Tell] - Let's Dance Boys!.png;
#BACKGROUND:[Show & Tell] - Let's Dance Boys!-bg.png;
#LYRICSPATH:;
#CDTITLE:cdtitle.png;
#MUSIC:[Show & Tell] - Let's Dance Boys!.ogg;
#OFFSET:-0.695000;
#SAMPLESTART:36.720001;
#SAMPLELENGTH:14.500000;
#LASTBEATHINT:256.000183;
#SELECTABLE:YES;
#BPMS:0.000000=133.212006
;
#STOPS:
;
#BGCHANGES:;
#KEYSOUNDS:;
#ATTACKS:;

//---------------dance-single - ----------------
#NOTES:
     dance-single:
     :
     Beginner:
     2:
     0.154448,0.214099,0.034052,0.153232,0.000000,127.000000,123.000000,4.000000,18.000000,0.000000,0.000000,0.154448,0.214099,0.034052,0.153232,0.000000,127.000000,123.000000,4.000000,18.000000,0.000000,0.000000:
0000
0000
0000
0000
,
0000
0000
0000
0000
,
0000
0000
0000
0000
,
0010
0010
0010
0000
,
0100
0000
0001
0000
,
0100
0000
0010
0000
,
1000
0000
0001
0000
,
1000
0000
0110
0000
,
0001
0000
1000
0000
,
0001
0000
0010
0000
,
0100
0000
1000
0000
,
0100
0000
1001
0000
,
0000
0001
0000
0001
,
0000
1000
1000
1000
,
0010
0000
0100
0000
,
0001
0000
1001
0000
,
0000
1000
0000
1000
,
0000
0001
0001
0001
,
0200
0000
0000
0300
,
0010
0010
0010
0000
,
1000
0000
0001
0000
,
1000
0000
0001
0000
,
0010
0000
0100
0000
,
0100
0000
0010
0000
,
0001
0000
1000
0000
,
0001
0000
1000
0000
,
0100
0000
0010
0000
,
0010
0000
0100
0000
,
1000
0000
0001
0000
,
0200
0000
0000
0300
,
0001
0000
1000
0000
,
0020
0030
0000
0000
,
1000
0000
1000
0000
,
0001
0000
0001
0000
,
0010
0000
0010
0000
,
0100
0000
0100
0000
,
0010
0000
0001
0000
,
1000
0000
1000
0000
,
0100
0000
0100
0000
,
0001
0000
0100
0000
,
2000
3000
0200
0300
,
2000
3000
1000
0000
,
0002
0003
0200
0300
,
0002
0003
0001
0000
,
0020
0030
0200
0300
,
0020
0030
0100
0000
,
2000
3000
0002
0003
,
0020
0030
0010
0000
,
0100
0100
0100
0100
,
0100
0100
0100
0000
,
1000
0000
0010
0000
,
0100
0000
0001
0000
,
0010
0000
0001
0000
,
2000
0000
3001
0000
,
0001
0000
0010
0000
,
0100
0000
1000
0000
,
0001
0000
0100
0000
,
1000
0000
0100
0000
,
0001
0000
1000
0000
,
0001
0000
1000
0000
,
0010
0000
0100
0000
,
2002
0000
0000
3003
,
0000
0000
0000
0000
0100
0000
0000
0010
;

//---------------dance-single - ----------------
#NOTES:
     dance-single:
     :
     Hard:
     8:
     0.515638,0.619206,0.195796,0.510773,0.391593,424.000000,401.000000,23.000000,60.000000,0.000000,0.000000,0.515638,0.619206,0.195796,0.510773,0.391593,424.000000,401.000000,23.000000,60.000000,0.000000,0.000000:
// measure 0
0000
0000
0000
0000
,  // measure 1
0000
0000
0000
0000
,  // measure 2
0000
0000
0000
0000
,  // measure 3
1010
0000
0000
0000
0011
0000
0000
0000
1100
0000
0000
0101
0000
0000
1001
0000
,  // measure 4
0001
0000
0100
0000
0010
0000
0000
0200
0000
0000
0301
0000
0010
0000
0000
0000
,  // measure 5
0100
0000
1000
0000
0100
0000
0020
0000
0000
0000
0130
0000
0000
0000
1000
0010
,  // measure 6
1000
0000
0001
0000
0010
0000
0000
0000
0200
0000
0000
1300
0000
0000
0002
0000
,  // measure 7
0000
0000
0103
0000
0010
0100
0000
0000
0001
0000
0000
1000
0000
0000
0100
0000
,  // measure 8
1000
0000
0100
0000
0010
0000
0000
0000
0010
0100
0000
1000
0000
0000
0000
0000
,  // measure 9
0001
0000
0100
0000
1000
0000
0100
0000
0001
0010
0000
0100
0000
0000
0000
0000
,  // measure 10
0001
0000
0100
0000
0010
0000
0001
0000
0200
0000
0000
0301
0000
0000
2000
0000
,  // measure 11
0000
0000
3000
0000
1010
0000
0000
0000
0101
0000
0000
1100
0000
0000
0011
0000
,  // measure 12
0000
0010
1000
0010
0000
0010
0001
0010
,  // measure 13
0000
0001
0100
1000
0100
0001
0100
0001
,  // measure 14
0020
0000
0000
0230
0000
0000
2300
0000
3002
0000
0000
0203
0000
0000
0310
0000
,  // measure 15
0000
2000
0000
3002
0000
0203
0000
0310
,  // measure 16
0000
0010
0001
0010
0000
0010
1000
0010
,  // measure 17
0000
1000
0001
0010
1000
0010
0001
0100
,  // measure 18
0002
0100
1000
0100
,  // measure 19
1003
0000
0010
0000
0001
0000
0010
0000
1000
0000
0010
0000
0100
0001
0100
0001
,  // measure 20
1000
0000
0000
0100
0010
0000
0001
0000
0100
0000
0000
0001
0010
0000
0000
0000
,  // measure 21
0001
0000
0000
0100
0010
0000
1000
0000
0100
0000
0000
1000
0001
0000
0010
0000
,  // measure 22
0200
0000
0000
2300
0000
0000
3002
0000
0203
0000
0000
2300
0000
0000
3002
0000
,  // measure 23
0023
0000
0000
0000
1000
0000
0000
0000
0001
0000
0000
0130
0000
0000
0100
0000
,  // measure 24
0001
0000
0000
0100
0010
0000
1000
0000
0100
0000
0000
1000
0010
0000
0100
0000
,  // measure 25
0001
0000
0000
0100
1000
0000
0100
0000
0001
0000
0000
0010
1000
0000
0010
0000
,  // measure 26
0002
0000
0000
0203
0000
0000
2300
0000
3002
0000
0000
0023
0000
0000
2030
0000
,  // measure 27
3001
0000
0000
0000
0101
0000
0000
0000
1100
0000
0000
0100
0010
0000
0001
0000
,  // measure 28
1000
0000
0000
0010
0000
0000
0100
0000
0001
0000
0000
0010
0000
0000
0100
0000
,  // measure 29
2000
0000
0000
0000
0001
0000
0000
0000
0100
0000
0000
0000
3010
0000
1000
0100
,  // measure 30
1000
0000
0000
0010
0000
0000
0100
0000
0001
0000
0000
0010
0000
0000
0100
0000
,  // measure 31
1001
0000
0000
0000
0010
1000
0001
0020
,  // measure 32
0000
0000
0031
0100
0001
0000
1000
0100
1000
0000
0001
0000
0000
0000
1000
0010
,  // measure 33
1000
0000
0001
0010
0001
0000
2000
0000
0000
0000
0000
0000
3001
0000
0000
0000
,  // measure 34
1000
0100
0100
0001
0100
0010
0001
0010
,  // measure 35
1000
0010
0001
0100
0010
0100
0000
1001
,  // measure 36
0000
0000
0001
0010
0001
0000
1000
0010
1000
0000
0001
0000
0000
0000
0001
0100
,  // measure 37
0001
0000
1000
0100
1000
0000
0002
0000
0000
0000
1003
0000
0010
0000
0100
0000
,  // measure 38
1001
0000
0000
0100
0001
0000
0000
0001
1000
0000
0000
1000
0010
0000
0000
1000
,  // measure 39
0100
0000
0000
0010
0001
0000
0000
0100
0010
0000
0000
1000
0001
0000
0000
0000
,  // measure 40
0002
0000
0000
0000
0000
0000
0103
0010
2000
0000
0000
0000
0000
0000
3100
0010
,  // measure 41
0200
0000
0000
0000
0000
0000
1300
0001
0020
0000
0000
0000
0000
0000
0130
0000
,  // measure 42
0020
0000
0000
0000
0000
0000
0031
1000
0200
0000
0000
0000
0000
0000
0310
0100
,  // measure 43
2000
0000
0000
0000
0000
0000
3010
0100
0002
0000
0000
0000
0000
0000
1003
0000
,  // measure 44
0020
0000
0000
0000
0000
0000
0031
1000
0200
0000
0000
0000
0000
0000
0301
1000
,  // measure 45
0020
0000
0000
0000
0000
0000
1030
0001
0200
0000
0000
0000
0000
0000
0301
0000
,  // measure 46
0020
0000
0000
0000
0000
0000
1030
0001
0100
0000
1000
0000
0001
0000
0100
0000
,  // measure 47
0020
0000
0000
0000
0000
0000
0031
1000
0100
0000
0001
0000
1000
0000
0100
0000
,  // measure 48
1000
0001
1000
0001
1000
0001
1000
0001
,  // measure 49
0100
0010
0100
0010
0100
0010
0100
0010
0100
0000
0010
0000
0010
1000
0001
0100
,  // measure 50
0010
0000
0000
1000
0100
0000
1000
0000
0001
0000
0000
0100
0010
0000
0000
0000
,  // measure 51
0100
0000
0000
0001
0010
0000
0001
0000
1000
0000
0000
0010
0100
0000
0000
0000
,  // measure 52
0002
0000
0000
0023
0000
0000
2030
0000
3002
0000
0000
0203
0000
0000
2300
0000
,  // measure 53
3001
0000
0000
0000
0110
0000
0000
0000
1010
0000
0000
0011
0000
0000
1001
0000
,  // measure 54
1000
0000
0000
0010
0100
0000
0001
0000
0100
0000
0000
0010
1000
0000
0001
0000
,  // measure 55
0001
0000
0000
0100
0010
0000
1000
0000
0010
0000
0000
0100
0001
0000
1000
0000
,  // measure 56
2000
0000
0000
3200
0000
0000
0302
0000
2003
0000
0000
3020
0000
0000
0032
0000
,  // measure 57
1003
0000
0000
0000
1100
0000
0000
0000
0101
0000
0000
1001
0000
0000
0110
0000
,  // measure 58
0100
0001
0000
0100
0001
0000
0000
0000
1000
0100
0000
1000
0100
0000
0000
0000
,  // measure 59
0010
0001
0000
0010
0001
0000
0000
0000
1000
0010
0000
1000
0010
0000
0000
0000
,  // measure 60
0100
0001
1000
0100
0010
0001
1000
0010
,  // measure 61
0100
0000
0000
0100
0000
0000
0100
0000
0001
0000
0000
0001
0000
0000
0001
0000
,  // measure 62
1000
0000
0000
1000
0000
0000
1000
0000
0010
0000
0100
0000
1000
0000
2002
0000
,  // measure 63
0000
3003
0000
0000
;

//---------------dance-single - ----------------
#NOTES:
     dance-single:
     :
     Medium:
     6:
     0.417131,0.459483,0.349028,0.272412,0.000000,343.000000,302.000000,41.000000,32.000000,0.000000,0.000000,0.417131,0.459483,0.349028,0.272412,0.000000,343.000000,302.000000,41.000000,32.000000,0.000000,0.000000:
0000
0000
0000
0000
,
0000
0000
0000
0000
,
0000
0000
0000
0000
,
1001
0110
0010
0100
,
0001
0100
0001
0000
1000
0000
0010
0000
,
1000
0100
1000
0001
0000
0100
0010
0000
,
1000
0001
1000
0000
0100
0000
0010
0001
,
0000
1000
0100
0000
1000
0000
0001
0000
,
0100
0001
0010
0000
1000
0000
0010
0000
,
0100
1000
0010
0001
0010
0000
0100
0000
,
0001
1000
0001
0000
0100
0000
0010
2000
,
0000
3001
0110
1001
,
0000
0010
1000
0010
0000
0010
1000
0010
,
0000
0100
0001
0100
0001
0100
0001
0000
,
0010
0000
0001
0100
0001
0000
1000
0010
,
0000
1000
0000
0100
0000
0010
0000
0001
,
0000
0010
0001
0010
0000
0010
0001
0010
,
0000
0100
1000
0100
1000
0100
1000
0000
,
0200
1000
0001
1300
,
1010
0011
1100
0101
,
0001
0000
0010
0100
1000
0000
0010
0100
,
0001
0000
0100
0010
1000
0000
0100
0010
,
0001
0000
1000
0001
1000
0000
0010
0100
,
0010
1010
0101
1001
,
0100
0000
1000
0001
0010
0000
0001
1000
,
0010
0000
1000
0001
0100
0000
0001
1000
,
0200
2300
3002
0023
,
0130
0000
0110
0000
1001
0000
0010
0100
,
2000
0010
0010
0010
,
3002
0100
0100
0100
,
0023
0100
0100
0130
,
1001
0000
0000
0000
0010
1000
0001
0010
,
0000
0000
0011
0000
0011
0100
0000
0100
,
0011
0000
0100
1000
0000
0001
1000
0000
,
0010
0000
1000
0010
0000
0010
0000
1000
,
0001
0010
0100
1000
0001
1000
0000
0110
,
0000
0000
1010
0000
1010
0100
0000
0100
,
1010
0000
0100
0001
0000
1000
0001
0000
,
1001
0101
1001
1100
,
0110
0011
1010
0110
,
0002
0000
0000
0100
2003
0000
0000
0100
,
3002
0000
0000
0023
0230
0000
0000
1300
,
2000
0000
0000
0010
3002
0000
0000
0010
,
2003
0000
0000
3020
0230
0000
0000
0302
,
0023
0000
0000
1030
0002
0000
0000
0103
,
2000
0000
0000
3010
0200
0000
0000
0301
,
0020
0000
0000
0130
1000
0001
1000
0001
,
0020
0000
0000
0031
1000
0001
0100
0000
,
0100
0001
0100
0001
1000
0100
1000
0100
,
0010
0100
0010
0100
0010
0000
1001
0000
,
1000
0000
0100
0010
0001
0000
0100
0010
,
1000
0000
0010
0100
0001
0000
0010
0100
,
1000
0000
0001
1000
0001
0000
0100
0010
,
0100
0101
1010
1001
,
0010
0000
0001
1000
0100
0000
1000
0001
,
0100
0000
0001
1000
0010
0000
1000
0001
,
0020
0032
2003
3200
,
0310
0000
0110
0000
1001
0000
0100
0010
,
1010
0100
0011
0100
,
1100
0010
0101
0010
,
1001
0010
0110
0100
,
0001
0010
0001
0000
1000
0010
1000
0000
,
0001
1000
0001
0000
0010
0100
2000
0002
,
0000
0000
3003
0000
;

//---------------dance-single - ----------------
#NOTES:
     dance-single:
     :
     Easy:
     4:
     0.288222,0.401436,0.229848,0.170258,0.000000,237.000000,210.000000,27.000000,20.000000,0.000000,0.000000,0.288222,0.401436,0.229848,0.170258,0.000000,237.000000,210.000000,27.000000,20.000000,0.000000,0.000000:
0000
0000
0000
0000
,
0000
0000
0000
0000
,
0000
0000
0000
0000
,
1000
0001
0010
0110
,
0100
1000
0100
1000
,
0001
0100
0010
0100
,
0100
0001
0100
0001
,
1000
1000
0001
0001
,
0100
0001
0010
0001
,
1000
0100
0010
0100
,
0100
1000
0100
1000
,
0010
0010
0100
1001
,
0000
1100
0000
0101
,
0000
1010
0011
0110
,
0010
0001
0100
1000
,
0000
0100
0000
0010
,
0000
1010
0000
0011
,
0000
0101
1100
1001
,
0200
0000
0000
0300
,
1010
0011
0110
1001
,
0001
0010
0100
0010
,
1000
0010
0100
0010
,
0001
0100
1000
0100
,
0001
0001
1000
1001
,
1000
0010
0100
0010
,
0001
1000
0100
0001
,
1000
0100
0001
0100
,
1000
1000
0001
0001
,
1000
0010
0001
0010
,
2000
0100
0100
3100
,
0001
0010
1000
0010
,
0001
0000
0010
0000
,
0200
1000
1000
0000
,
0010
0010
0310
0000
,
0001
0100
0010
1000
,
0010
0100
0001
0000
,
0020
0001
0001
0000
,
0100
0100
0130
0000
,
1000
0001
0100
1000
,
0001
0010
1000
0001
,
0020
0000
0032
0000
,
0203
0000
0301
1000
,
0200
0000
2300
0000
,
3020
0000
1030
0001
,
0020
0000
0230
0000
,
2300
0000
3001
0100
,
0002
0000
0203
0000
,
0320
0000
1030
0100
,
0010
0010
0010
0010
,
0001
1000
0010
0110
,
1000
0100
0010
0100
,
0001
0100
0010
0100
,
1000
0010
0001
0010
,
1000
1000
0001
1001
,
0001
0100
0010
0100
,
1000
0001
0010
1000
,
0001
0010
1000
0010
,
0001
0001
1000
1000
,
0101
0010
1100
0010
,
1010
0100
0011
0100
,
1100
0011
0101
1010
,
2000
0010
3002
1000
,
0203
0000
0001
0000
0320
0000
0000
0130
;
