#TITLE:Lato i morze;
#SUBTITLE:;
#ARTIST:Bracia Figo Fagot;
#TITLETRANSLIT:;
#SUBTITLETRANSLIT:;
#ARTISTTRANSLIT:;
#GENRE:;
#CREDIT:Lisek;
#BANNER:[Show & Tell] - Lato i morze.png;
#BACKGROUND:[Show & Tell] - Lato i morze-bg.png;
#LYRICSPATH:;
#CDTITLE:cdtitle.png;
#MUSIC:[Show & Tell] - Lato i morze.ogg;
#OFFSET:-1.837510;
#SAMPLESTART:37.30;
#SAMPLELENGTH:14.18;
#SELECTABLE:YES;
#BPMS:0.000000=135.00;
#STOPS:
;
#BGCHANGES:0.000=[Show & Tell] - Lato i morze.avi=1.000=1=0=1===CrossFade==,
252.500=[Show & Tell] - Lato i morze-bg.png=1.000=1=0=1===CrossFade==,
99999=-nosongbg-=1.000=0=0=0 // don't automatically add -songbackground-
;
#KEYSOUNDS:;
#ATTACKS:;

//---------------dance-single - Lisek----------------
#NOTES:
     dance-single:
     Lisek:
     Hard:
     7:
     0.501339,0.489903,0.213465,0.247620,0.000000,411.000000,386.000000,25.000000,29.000000,0.000000,0.000000,0.501339,0.489903,0.213465,0.247620,0.000000,411.000000,386.000000,25.000000,29.000000,0.000000,0.000000:
// measure 0
1000
0010
0000
0010
0100
0001
0000
0001
,  // measure 1
0010
0200
0000
2300
0001
0000
3001
0000
,  // measure 2
0001
0100
0000
0100
0010
1000
0000
1000
,  // measure 3
0100
0020
0000
0032
1000
0000
1003
0000
,  // measure 4
1000
0001
0000
0001
0100
0010
0000
0010
,  // measure 5
1000
0002
0000
2003
0001
0000
3001
0000
,  // measure 6
0001
1000
0000
1000
0010
0100
0000
0100
,  // measure 7
0001
2000
0000
3002
1000
0000
1003
0000
,  // measure 8
1000
0100
0010
0001
1000
0010
0100
0001
,  // measure 9
1000
0100
0010
0001
1000
1000
0001
0001
,  // measure 10
0100
0010
1000
0001
1000
0100
0010
0001
,  // measure 11
1000
0001
0100
0010
1000
0001
1001
0000
,  // measure 12
0001
0010
0100
1000
0001
0100
0010
1000
,  // measure 13
0001
0010
0100
1000
0001
0001
1000
1000
,  // measure 14
0010
0100
0001
1000
0001
0010
0100
1000
,  // measure 15
0010
0100
0001
1000
1001
0000
1001
0000
,  // measure 16
0001
0000
1000
0100
0010
0001
0000
1000
,  // measure 17
0000
0010
0100
0001
0010
0100
0000
0000
,  // measure 18
1000
0001
0000
0100
0000
0010
0000
0100
,  // measure 19
0001
1000
0000
2002
0000
0000
3003
0000
,  // measure 20
0101
1010
1100
0011
,  // measure 21
0001
0010
0100
1000
0001
0000
0001
1000
,  // measure 22
0100
0010
0001
0020
0000
0130
1000
1000
,  // measure 23
0001
0001
1000
1000
0001
0001
1000
0000
,  // measure 24
1100
0011
0101
1010
,  // measure 25
1000
0100
0010
0001
1000
0000
1000
0001
,  // measure 26
0100
0010
1000
0001
0100
0000
0100
0000
,  // measure 27
0010
1000
0001
0100
0001
0000
1001
0000
,  // measure 28
1000
0100
0000
0100
0010
0001
0000
0001
,  // measure 29
0100
0020
0000
2030
0001
0000
3001
0000
,  // measure 30
0001
0010
0000
0010
0100
1000
0000
1000
,  // measure 31
0001
0200
0000
0302
1000
0000
1003
0000
,  // measure 32
1000
0100
0000
0100
0010
0100
0000
0100
,  // measure 33
1000
0002
0000
2003
0001
0000
3001
0000
,  // measure 34
0001
0010
0000
0010
0100
0010
0000
0010
,  // measure 35
0001
2000
0001
3002
0000
0000
0003
0000
,  // measure 36
0001
0010
0100
1000
0001
0100
0010
1000
,  // measure 37
0001
0010
0100
1000
0001
0001
1000
1000
,  // measure 38
0010
0100
0001
1000
0001
0010
0100
1000
,  // measure 39
0001
1000
0010
0100
0001
1000
1001
0000
,  // measure 40
1000
0100
0010
0001
1000
0010
0100
0001
,  // measure 41
1000
0100
0010
0001
1000
1000
0001
0001
,  // measure 42
0100
0010
1000
0001
1000
0100
0010
0001
,  // measure 43
0100
0010
1000
0001
1001
0000
1001
0000
,  // measure 44
1000
0000
0001
0100
0010
1000
0000
0000
,  // measure 45
0001
0100
0000
0020
0000
0000
0030
0000
,  // measure 46
1000
0100
0000
0010
0001
0100
0000
0000
,  // measure 47
0001
1000
0000
0010
0000
1000
0000
0000
,  // measure 48
1100
0011
0101
1010
,  // measure 49
1000
0010
0100
0001
1000
0000
1000
0001
,  // measure 50
0010
0100
1000
0002
0000
1003
0010
0010
,  // measure 51
0100
0100
0010
0010
0100
0100
0010
0000
,  // measure 52
0101
1010
1100
0011
,  // measure 53
0001
0100
0010
1000
0001
0000
0001
1000
,  // measure 54
0100
0010
0001
1000
0010
0000
0010
0000
,  // measure 55
0100
0001
1000
0010
1000
0000
1001
0000
,  // measure 56
0001
0010
0000
0010
0100
1000
0000
1000
,  // measure 57
0001
0200
0000
0302
1000
0000
1003
0000
,  // measure 58
1000
0100
0000
0100
0010
0001
0000
0001
,  // measure 59
0100
0020
0000
2030
0001
0000
3001
0000
,  // measure 60
0001
0010
0000
0010
0001
0010
0000
0010
,  // measure 61
0100
2000
0000
3002
1000
0000
1003
0000
,  // measure 62
1000
0100
0000
0100
1000
0100
0000
0100
,  // measure 63
0010
0002
0000
2003
0001
0001
3001
0000
;

//---------------dance-single - Lisek----------------
#NOTES:
     dance-single:
     Lisek:
     Beginner:
     1:
     0.075628,0.107587,0.017077,0.000000,0.000000,62.000000,60.000000,2.000000,0.000000,0.000000,0.000000,0.075628,0.107587,0.017077,0.000000,0.000000,62.000000,60.000000,2.000000,0.000000,0.000000,0.000000:
1000
0000
0000
0000
,
0000
0000
0000
0000
,
0001
0000
0000
0000
,
0000
0000
0000
0000
,
1000
0000
0000
0000
,
0000
0000
0000
0000
,
0001
0000
0000
0000
,
0000
0000
0000
0000
,
1000
0000
0000
0000
,
0100
0000
0000
0000
,
1000
0000
0000
0000
,
0100
0000
0000
0000
,
0010
0000
0000
0000
,
0001
0000
0000
0000
,
0010
0000
0000
0000
,
0001
0000
0000
0000
,
1000
0000
0000
0000
,
0001
0000
0000
0000
,
1000
0000
0000
0000
,
1001
0000
0000
0000
,
0001
0000
0000
0000
,
0100
0000
0000
0000
,
0001
0000
0000
0000
,
0100
0000
0000
0000
,
0010
0000
0000
0000
,
1000
0000
0000
0000
,
0010
0000
0000
0000
,
1000
0000
0000
0000
,
0001
0000
0000
0000
,
1000
0000
0000
0000
,
0001
0000
0000
0000
,
1000
0000
0000
0000
,
0010
0000
0000
0000
,
0100
0000
0000
0000
,
0010
0000
0000
0000
,
0100
0000
0000
0000
,
0001
0000
0000
0000
,
0010
0000
0000
0000
,
0001
0000
0000
0000
,
0010
0000
0000
0000
,
0100
0000
0000
0000
,
1000
0000
0000
0000
,
0100
0000
0000
0000
,
1000
0000
0000
0000
,
0001
0000
0000
0000
,
1000
0000
0000
0000
,
0001
0000
0000
0000
,
1001
0000
0000
0000
,
1000
0000
0000
0000
,
0010
0000
0000
0000
,
1000
0000
0000
0000
,
0010
0000
0000
0000
,
0100
0000
0000
0000
,
0001
0000
0000
0000
,
0100
0000
0000
0000
,
0001
0000
0000
0000
,
1000
0000
0000
0000
,
0001
0000
0000
0000
,
1000
0000
0000
0000
,
0001
0000
0000
0000
,
0100
0000
0000
0000
,
0010
0000
0000
0000
,
0100
0000
0000
0000
,
0010
0000
0000
0000
;

//---------------dance-single - Lisek----------------
#NOTES:
     dance-single:
     Lisek:
     Medium:
     5:
     0.364721,0.381036,0.136618,0.136618,0.000000,299.000000,283.000000,16.000000,16.000000,0.000000,0.000000,0.364721,0.381036,0.136618,0.136618,0.000000,299.000000,283.000000,16.000000,16.000000,0.000000,0.000000:
1000
0100
0000
0000
0100
0010
0000
0000
,
0010
0001
0000
2000
0000
0000
3000
0000
,
0001
0010
0000
0000
0010
0100
0000
0000
,
0100
1000
0000
0002
0000
0000
0003
0000
,
0100
0010
0000
0000
0010
1000
0000
0000
,
1000
0001
0000
0200
0000
0000
0300
0000
,
0010
0100
0000
0000
0100
0001
0000
0000
,
0001
1000
0000
0020
0000
0000
0030
0000
,
1000
0000
0100
0000
0010
0100
0010
0000
,
0100
0000
1000
0000
0001
0100
0001
0000
,
0100
0000
0010
0000
1000
0100
1000
0000
,
0001
0100
0010
1001
,
0001
0000
0010
0000
0100
0010
0100
0000
,
0010
0000
0001
0000
1000
0010
1000
0000
,
0010
0000
0100
0000
0001
0010
0001
0000
,
1000
0010
0110
1001
,
1000
0100
1000
0100
,
0010
0001
0010
0001
,
1000
0010
1000
0010
,
0100
0010
2002
3003
,
0001
0100
0010
1000
,
0001
0010
0100
1000
0001
0000
0000
1000
,
0001
1000
0001
0100
0000
0010
0100
0000
,
1001
0110
1001
0000
,
1000
0010
0100
0001
,
1000
0100
0010
0001
1000
0000
0000
0001
,
1000
0001
1000
0010
0100
0000
0010
0000
,
0100
0010
1000
0001
1000
0000
1001
0000
,
1000
0100
0000
0000
0100
0010
0000
0000
,
0010
0001
0000
2000
0001
0000
3001
0000
,
0001
0010
0000
0000
0010
0100
0000
0000
,
0100
1000
0000
0002
1000
0000
1003
0000
,
0010
0100
0000
0000
0100
0001
0000
0000
,
0001
1000
0000
0020
0100
0000
0130
0000
,
0100
0010
0000
0000
0010
1000
0000
0000
,
1000
0001
1000
0002
0000
0000
0003
0000
,
1000
0000
0010
0000
0100
0001
0100
0000
,
0010
0000
1000
0000
0001
0010
0001
0000
,
0100
0000
0010
0000
1000
0001
1000
0000
,
0010
0100
0010
1001
,
0001
0000
0100
0000
0010
1000
0010
0000
,
0100
0000
0001
0000
0010
0001
0010
0000
,
0001
0000
1000
0000
0100
1000
0100
0000
,
1000
0010
0110
1001
,
0001
0100
0001
0100
,
0010
1000
0010
1000
,
0001
0010
0001
1000
,
2002
0000
0000
3003
,
1000
0100
0010
0001
,
1000
0010
0100
0001
1000
0000
0000
0001
,
1000
0001
1000
0010
0000
0100
0010
0000
,
1001
0110
1001
0000
,
0001
0010
0100
1000
,
0001
0100
0010
1000
0001
0000
0000
1000
,
0001
1000
0001
0100
0010
0000
0100
0000
,
0010
0100
0001
1000
0001
0000
1001
0000
,
0001
0010
0000
0000
0010
0100
0000
0000
,
0100
1000
0000
0002
1000
0000
1003
0000
,
1000
0100
0000
0000
0100
0010
0000
0000
,
0010
0001
0000
2000
0001
0000
3001
0000
,
0100
0010
0000
0000
0010
1000
0000
0000
,
1000
0001
0000
0200
0010
0000
0310
0000
,
0010
0100
0000
0000
0100
0001
0000
0000
,
0001
1000
0000
0002
0000
0000
0003
0000
;

//---------------dance-single - Lisek----------------
#NOTES:
     dance-single:
     Lisek:
     Easy:
     2:
     0.157354,0.190518,0.025616,0.102463,0.000000,129.000000,126.000000,3.000000,12.000000,0.000000,0.000000,0.157354,0.190518,0.025616,0.102463,0.000000,129.000000,126.000000,3.000000,12.000000,0.000000,0.000000:
1000
0000
0000
0000
,
0100
0000
0000
0000
,
1000
0000
0000
0000
,
0010
0000
0000
0000
,
1000
0000
0000
0000
,
0001
0000
0000
0000
,
1000
0000
0000
0000
,
1001
0000
0000
0000
,
0001
0000
0100
0000
,
0010
0000
1000
0000
,
0001
0000
0010
0000
,
0100
0000
1000
0000
,
0001
0000
0100
0000
,
0010
0000
1000
0000
,
0001
0000
0010
0000
,
0100
0000
1000
0000
,
0001
0000
0100
0000
,
0010
0000
0100
0000
,
0001
0000
1000
0000
,
2002
0000
0000
3003
,
1000
0100
1000
0000
,
0001
0010
0001
0000
,
1000
0000
0010
0000
,
0100
0000
0001
0000
,
1000
0010
1000
0000
,
0001
0100
0001
0000
,
1000
0000
0100
0000
,
0010
0000
0001
0000
,
1000
0000
0001
0000
,
1000
0000
0000
2000
0000
0000
3000
0000
,
0001
0000
1000
0000
,
0001
0000
0000
0002
0000
0000
0003
0000
,
0100
0000
0010
0000
,
0100
0000
0000
0200
0000
0000
0300
0000
,
0010
0000
0100
0000
,
0010
0000
0000
0020
0000
0000
0030
0000
,
1000
0000
0100
0000
,
0010
0000
0001
0000
,
1000
0000
0010
0000
,
0100
0000
0001
0000
,
1000
0000
0100
0000
,
0010
0000
0001
0000
,
1000
0000
0010
0000
,
0100
0000
0001
0000
,
1000
0000
0010
0000
,
0100
0000
0010
0000
,
1000
0000
0001
0000
,
2002
0000
0000
3003
,
0001
0010
0001
0000
,
1000
0010
1000
0000
,
0010
0000
0100
0000
,
0001
0000
1000
0000
,
0001
0100
0001
0000
,
1000
0100
1000
0000
,
0010
0000
0100
0000
,
0001
0000
1000
0000
,
0001
0000
1000
0000
,
0001
0000
0000
0002
0000
0000
0003
0000
,
1000
0000
0001
0000
,
1000
0000
0000
2000
0000
0000
3000
0000
,
0010
0000
0100
0000
,
0010
0000
0000
0020
0000
0000
0030
0000
,
0100
0000
0010
0000
,
0100
0000
0000
0200
0000
0000
0300
0000
;
