#TITLE:Iya hon no uchuu;
#SUBTITLE: (Headphone of the Universe);
#ARTIST:itikura;
#TITLETRANSLIT:;
#SUBTITLETRANSLIT:;
#ARTISTTRANSLIT:;
#GENRE:;
#CREDIT:;
#BANNER:Iya hon no uchuu-banner.png;
#BACKGROUND:Iya hon no uchuu-bg.png;
#LYRICSPATH:;
#CDTITLE:;
#MUSIC:Iya hon no uchuu.ogg;
#OFFSET:-1.120000;
#SAMPLESTART:57.139580;
#SAMPLELENGTH:15.000000;
#SELECTABLE:YES;
#BPMS:0.000000=119.959999
,32.000000=59.980000
,34.000000=119.959999
,109.000000=119.099998
,109.250000=119.959999
,157.000000=120.019997
;
#STOPS:
;
#BGCHANGES:;
#KEYSOUNDS:;
#ATTACKS:;

//---------------dance-single - ----------------
#NOTES:
     dance-single:
     :
     Hard:
     9:
     0.551031,0.695735,0.140093,0.289525,0.639756,413.000000,398.000000,15.000000,31.000000,0.000000,0.000000,0.551031,0.695735,0.140093,0.289525,0.639756,413.000000,398.000000,15.000000,31.000000,0.000000,0.000000:
// measure 0
0000
0000
0000
0000
,  // measure 1
0000
0000
0000
0000
,  // measure 2
0001
0100
0001
0100
0000
0100
0001
1000
0000
0000
0000
0100
0010
0000
0100
1000
,  // measure 3
0001
0100
0001
0100
0000
0100
0010
0100
0001
0010
0100
1000
0001
1000
0100
0010
,  // measure 4
0001
0000
1000
0010
0000
0000
1000
0010
0000
0000
1000
0010
0000
0000
1000
0010
,  // measure 5
0100
0000
0001
0010
0000
0000
0001
0010
0000
0000
0001
0010
0000
0000
0001
0010
,  // measure 6
0100
0000
1000
0010
0000
0000
1000
0010
0000
0000
1000
0010
0000
0000
1000
0010
,  // measure 7
0100
0000
0001
0010
0000
0000
0001
0010
0000
0000
0001
0010
0100
1000
0001
1000
,  // measure 8
0001
0000
0001
0100
0000
1000
0100
0001
0000
0000
1000
0100
0010
0100
1000
0001
0010
0000
0000
0000
0001
0000
0100
0000
0000
0000
0000
0000
0001
0000
0100
0000
,  // measure 9
0000
0000
0001
0100
0000
0000
0001
0100
0010
0000
1000
0100
0000
0000
1000
0100
,  // measure 10
0000
0000
1000
0100
0000
0000
1000
0100
0010
0000
0001
0100
0000
0000
0001
0100
,  // measure 11
0001
1000
0001
0000
0100
0000
0001
0000
1000
0000
0010
0000
0100
0000
0001
0000
1000
0000
0000
0000
0000
0000
0000
0000
1000
0000
0000
0000
0000
0000
0000
0000
,  // measure 12
1000
1000
0001
0001
,  // measure 13
0001
0001
0010
0010
,  // measure 14
0010
0000
0000
0000
0010
0000
0001
1000
0001
0000
0001
0010
0000
0010
0100
0000
,  // measure 15
1000
0001
1000
0000
0100
0000
1000
0000
0001
0000
0010
0000
0100
0000
1000
0000
0010
0000
0000
0000
0000
0000
0000
0000
0010
0000
0000
0000
0000
0000
0000
0000
,  // measure 16
0010
0000
0000
0000
0010
0100
0010
1000
0001
0000
0000
0000
0001
0000
0000
0000
,  // measure 17
0001
0000
0000
0000
0001
0010
0001
0010
0100
0000
0000
0000
0100
0000
0000
0000
,  // measure 18
1000
0000
0000
0000
1000
0010
1000
0001
0010
0000
0010
0000
0100
0000
0100
0000
,  // measure 19
1000
0100
0010
0001
1000
0001
0010
0100
1000
0000
0000
0000
2010
0000
0000
0000
,  // measure 20
3001
0100
0000
0010
0000
1000
0001
0100
0002
0000
1003
0000
0002
0000
1003
0000
,  // measure 21
0002
0003
0010
0000
0100
0000
0012
0000
,  // measure 22
1003
0100
0000
0010
0000
0001
1000
0001
0010
0000
0001
0000
0010
0000
0001
0000
,  // measure 23
1000
0001
1000
0001
0100
0000
2010
0000
,  // measure 24
3001
0100
0000
0010
0000
1000
0001
1000
0010
0000
0100
0000
0010
0000
0100
0000
,  // measure 25
0002
1003
0021
0130
,  // measure 26
1020
0000
0000
0000
0130
0000
0000
0000
0001
1000
0000
0100
1000
0001
0000
0010
,  // measure 27
0001
1000
0000
0100
1000
0001
0000
0010
0001
0000
0000
0000
1020
0000
0000
0000
,  // measure 28
0130
0001
0000
1000
0000
0001
0100
0000
0020
0000
0030
0000
0020
0000
0030
0000
,  // measure 29
0200
0300
0200
0300
0001
0000
2100
0000
,  // measure 30
3001
0010
0000
0001
0000
1000
0100
0000
1000
0000
0010
0000
1000
0000
0001
0000
,  // measure 31
0100
0000
0001
1000
0100
0000
0021
0000
,  // measure 32
0130
1000
0000
0001
0000
1000
0001
0000
0010
0000
0100
0000
0010
0000
0100
0000
,  // measure 33
0010
0001
1020
0130
,  // measure 34
0021
0000
0000
0000
0000
0000
0000
0000
0130
0000
0000
0000
0000
0000
0000
0000
1000
0000
0010
0000
0000
0000
0100
0000
0001
0000
1000
0000
0001
0100
0001
0000
,  // measure 35
1000
0010
0100
0001
1000
0001
0100
0010
1000
0000
0000
0000
1100
0000
0000
0000
,  // measure 36
0100
0010
0000
0001
0000
1000
0100
0000
2000
0000
3000
0000
2000
0000
3000
0000
,  // measure 37
0002
0003
0002
0003
1000
0000
0101
0000
,  // measure 38
0100
0010
0000
1000
0000
0001
0100
0000
0001
0000
1000
0000
0100
0000
1000
0000
,  // measure 39
0001
0000
0001
1000
0100
0000
1100
0000
,  // measure 40
0010
0001
0000
1000
0000
0100
1000
0000
0001
0000
0010
0000
0001
0000
0100
0000
,  // measure 41
0001
1000
0201
0310
,  // measure 42
1200
0000
0000
0000
0000
0000
0000
0000
0310
0000
0000
0000
0000
0000
0000
0000
0001
0000
0010
0000
0000
0000
0100
0000
1000
0000
0001
0000
1000
0100
1000
0000
,  // measure 43
0001
0010
0100
1000
0001
1000
0100
0010
0002
0000
0003
0000
0001
0000
0000
0000
,  // measure 44
0100
0010
1000
0001
0010
0001
1000
0100
,  // measure 45
1000
0000
0020
0030
2000
3000
1000
0000
,  // measure 46
0001
0000
0010
0100
1000
0001
0100
0001
,  // measure 47
0010
0000
0100
1000
0002
0003
0001
0000
,  // measure 48
0100
0010
1000
1000
0001
0100
0001
0010
,  // measure 49
0001
0000
1000
0000
0020
0030
0010
0000
,  // measure 50
0200
0000
0000
0000
0300
0000
0000
0000
0100
0000
0000
0000
0000
0000
0000
0000
0001
0000
1000
0000
0000
0000
0010
0000
0100
0000
0010
0000
1000
0001
1000
0000
,  // measure 51
0001
0100
0010
0100
0002
0000
0003
0000
0000
0000
0000
0000
0000
0000
0000
0000
;

//---------------dance-single - ----------------
#NOTES:
     dance-single:
     :
     Medium:
     6:
     0.368244,0.383854,0.196130,0.345562,0.042028,276.000000,255.000000,21.000000,37.000000,0.000000,0.000000,0.368244,0.383854,0.196130,0.345562,0.042028,276.000000,255.000000,21.000000,37.000000,0.000000,0.000000:
0000
0000
0000
0000
,
0000
0000
0000
0000
,
1000
0000
1000
0100
0000
0100
1000
0000
0000
0000
0000
0000
0001
0000
0000
0000
,
1000
0000
1000
0010
0000
0010
0100
0000
0001
0000
0100
0000
0010
0000
1000
0000
,
0001
0020
0030
0020
0030
0020
0030
0020
,
0130
2000
3000
2000
3000
2000
3000
2000
,
3001
0200
0300
0200
0300
0200
0300
0200
,
0310
2000
3000
2000
3000
2000
3000
2000
,
3001
0000
0001
0010
0000
0000
0100
0000
0000
0000
1000
0000
0001
0000
1000
0000
0001
0000
0000
0000
0200
0000
0000
0000
0300
0000
0000
0000
0200
0000
0000
0000
,
0300
0200
0300
0200
0310
2000
3000
2000
,
3000
2000
3000
2000
3001
0020
0030
0020
,
0030
0020
0030
0020
0031
1000
0001
0000
,
0100
0000
0100
0000
0001
1000
0001
0000
,
0010
0000
0100
0000
1000
0001
1000
0000
,
0010
0000
0010
0000
1000
0010
0100
0001
,
0010
0000
0100
0000
1000
0001
1000
0000
,
0010
0000
0010
0000
1000
0001
1000
0000
,
0001
0010
0100
1000
0001
0000
0001
0000
,
1000
0000
1000
0000
0001
1000
0001
1000
,
0001
1001
1000
1010
,
0001
0000
1010
0000
0001
0100
0010
1000
,
0001
1000
0001
0011
,
1000
0000
0011
0000
1000
0100
0010
0001
,
1000
0000
0001
1000
0001
0000
1010
0000
,
0001
0000
1010
0000
0001
1000
0010
0100
,
0001
1000
0002
0013
,
0200
1300
0001
0001
,
0001
1000
0010
0101
,
1000
0000
0101
0000
1000
0010
0100
0001
,
1000
0001
0010
1100
,
0001
0000
1100
0000
0001
0010
0100
1000
,
0001
0000
1000
0001
1000
0000
0101
0000
,
1000
0000
0101
0000
1000
0001
0100
0010
,
1000
0001
0020
0130
,
2000
3001
1000
1000
,
1000
0001
0010
1100
,
0010
0000
1100
0000
0001
0010
0100
1000
,
0001
1000
0010
0101
,
0010
0000
0101
0000
1000
0010
0100
0001
,
1000
0000
0100
0010
0100
0000
1001
0000
,
0010
0000
1001
0000
0010
0100
0010
0100
,
0010
0100
2001
3100
,
1002
0103
0001
0001
,
0001
0001
0010
0010
,
0100
0000
0100
0000
1000
0001
1000
0001
,
1000
0010
0100
0100
,
0001
0000
0001
0000
1000
0010
1000
0010
,
1000
0001
1000
1000
,
0100
0000
0100
0000
0010
0001
0010
0001
,
0010
0100
2000
3001
,
0002
1003
0001
0001
,
0001
0000
0002
0003
0000
0000
0000
0000
;

//---------------dance-single - ----------------
#NOTES:
     dance-single:
     :
     Easy:
     4:
     0.237490,0.263900,0.112074,0.102735,0.004670,178.000000,166.000000,12.000000,11.000000,0.000000,0.000000,0.237490,0.263900,0.112074,0.102735,0.004670,178.000000,166.000000,12.000000,11.000000,0.000000,0.000000:
0000
0000
0000
0000
,
0000
0000
0000
0000
,
0001
0000
0000
0001
0000
0000
0001
0000
0000
0000
0000
0000
0000
0000
0000
0000
,
1000
1000
1000
1000
,
0001
0001
0000
0001
0000
0001
0000
0001
,
0000
1000
0000
1000
0000
1000
0000
1000
,
0000
0010
0000
0010
0000
0010
0000
0010
,
0000
0100
0000
0100
0000
0100
0000
0100
,
0002
0003
1000
1000
0020
0000
0000
0000
,
0030
0000
0000
0000
0000
1000
0000
1000
,
0000
1000
0000
1000
0000
0100
0000
0100
,
0000
0100
0000
0100
0010
0000
0010
0000
,
0010
0010
0001
0001
,
0001
0000
1000
1000
,
1000
1000
0010
0100
,
0001
0000
0001
0001
,
0001
0001
0010
0010
,
0010
0000
0001
0000
,
0001
0000
1000
1000
,
1000
0000
0001
1001
,
0001
1001
0001
0100
,
0010
0000
1000
1001
,
0001
1001
1000
0100
,
0010
0000
0001
1001
,
1000
1001
0001
0100
,
0010
0000
2000
3000
,
0002
0003
1000
1000
,
1000
0001
0010
0110
,
0100
0110
1000
0001
,
1000
0000
0010
0110
,
0100
0110
0001
1000
,
0001
0000
0010
0110
,
0100
0110
0001
1000
,
0001
0000
2000
3000
,
0002
0003
0010
0010
,
0010
0010
0001
0001
,
1000
1000
0001
0100
,
0001
0000
1000
1000
,
0001
0001
0010
0100
,
0010
0100
1000
1000
,
0001
0001
1000
0010
,
0100
0000
0002
0003
,
2000
3000
0001
0001
,
0001
0001
1000
0000
,
1000
0000
0001
0100
,
0001
0000
1000
0000
,
1000
0000
0001
0010
,
0001
0000
1000
0000
,
1000
0000
0010
0100
,
0001
1000
0020
0030
,
0200
0300
0001
0001
,
0001
0000
0002
0003
0000
0000
0000
0000
;

//---------------dance-single - ----------------
#NOTES:
     dance-single:
     :
     Beginner:
     2:
     0.130753,0.191927,0.056037,0.018679,0.000000,98.000000,92.000000,6.000000,2.000000,0.000000,0.000000,0.130753,0.191927,0.056037,0.018679,0.000000,98.000000,92.000000,6.000000,2.000000,0.000000,0.000000:
0000
0000
0000
0000
,
0000
0000
0000
0000
,
0001
0000
0000
0000
,
1000
0000
0000
0000
,
0001
0000
0000
0000
,
0001
0000
0000
0000
,
0010
0000
0000
0000
,
0010
0000
0000
0000
,
2000
3000
0000
0000
,
0000
0000
0001
0000
,
0000
0000
0001
0000
,
0000
0000
1000
0000
,
1000
0000
1000
0000
,
0000
0000
0001
0000
,
0001
0000
0010
0000
,
0000
0000
0001
0000
,
0001
0000
0001
0000
,
0000
0000
1000
0000
,
0000
0000
1000
0000
,
0000
0000
1001
0000
,
0001
0000
1000
1000
,
1000
0000
1001
0000
,
1000
0000
0001
0001
,
0001
0000
1001
0000
,
0001
0000
1000
1000
,
1000
0000
1000
0000
,
0001
0000
0010
0000
,
0010
0000
1001
0000
,
1000
0000
0001
0001
,
0001
0000
1001
0000
,
0001
0000
1000
1000
,
1000
0000
1001
0000
,
1000
0000
0001
0001
,
0001
0000
0010
0000
,
0010
0000
0001
0000
,
0001
0000
1000
0000
,
1000
0000
1000
1000
,
1000
0000
0001
0000
,
0001
0000
0001
0001
,
0001
0000
1000
0000
,
1000
0000
1000
1000
,
1000
0000
0001
0000
,
1000
0000
0001
0000
,
0001
0000
1000
0000
,
1000
0000
0010
0000
,
0000
0000
0100
0000
,
0100
0000
0001
0000
,
0000
0000
1000
0000
,
1000
0000
0100
0000
,
0000
0000
1000
0000
,
1000
0000
0001
0001
,
0001
0000
0002
0003
0000
0000
0000
0000
;
