#TITLE:Is the Sunrise Coming;
#SUBTITLE:;
#ARTIST:Neurotech;
#TITLETRANSLIT:Is the Sunrise Coming;
#SUBTITLETRANSLIT:;
#ARTISTTRANSLIT:;
#GENRE:;
#CREDIT:mf32892;
#BANNER:[Show & Tell] - Is the Sunrise Coming-bn.png;
#BACKGROUND:[Show & Tell] - Is the Sunrise Coming-bg.png;
#LYRICSPATH:;
#CDTITLE:cdtitle.png;
#MUSIC:[Show & Tell] - Is the Sunrise Coming.ogg;
#OFFSET:-1.114871;
#SAMPLESTART:43.849998;
#SAMPLELENGTH:12.000000;
#SELECTABLE:YES;
#BPMS:0.000000=132.000000
;
#STOPS:
;
#BGCHANGES:;
#KEYSOUNDS:;
#ATTACKS:;

//---------------dance-single - ----------------
#NOTES:
     dance-single:
     :
     Hard:
     7:
     0.417879,0.535384,0.125236,0.223636,0.084982,288.000000,14.000000,25.000000,0.000000,0.000000,0.000000,0.417879,0.535384,0.125236,0.223636,0.084982,288.000000,14.000000,25.000000,0.000000,0.000000,0.000000:
// measure 0
0000
0000
0000
0000
,  // measure 1
0000
0000
0000
0000
,  // measure 2
0000
0000
0000
0000
,  // measure 3
0000
0000
0000
0000
,  // measure 4
0000
0000
0000
0000
,  // measure 5
0000
0000
0000
0000
,  // measure 6
0000
0000
0000
0000
,  // measure 7
0000
0000
0000
0000
,  // measure 8
2100
0000
3001
0000
1000
0001
0100
0000
,  // measure 9
0010
1000
0100
1000
0001
0010
0100
0000
,  // measure 10
0012
0000
1003
0000
0001
0100
0010
0000
,  // measure 11
1000
0100
1000
0001
0010
0100
1000
0000
,  // measure 12
1020
0000
0130
0000
0001
1000
0100
0000
,  // measure 13
0010
0001
0010
0100
1000
0100
0010
0000
,  // measure 14
0021
0000
0130
0000
1000
0001
0100
0000
,  // measure 15
0010
1000
0100
0010
0001
1000
0010
0000
,  // measure 16
1000
0100
1000
0001
,  // measure 17
1000
0010
0100
0100
,  // measure 18
0001
0100
0001
0000
1000
0000
0001
0100
0001
0000
0100
0000
0010
0000
0000
0000
,  // measure 19
1000
0100
1000
0000
0001
0000
1000
0100
1000
0000
0100
0000
0010
0000
0000
0000
,  // measure 20
0001
0100
0010
1000
,  // measure 21
0100
1000
0010
0010
,  // measure 22
0100
0001
0100
0000
0010
0000
0100
0001
0100
0000
0010
0000
1000
0000
0000
0000
,  // measure 23
0100
1000
0100
0000
0010
0000
0100
1000
0200
0000
0000
0000
0320
0000
0000
0000
,  // measure 24
0031
0100
0010
0000
1000
0100
1000
0001
,  // measure 25
0010
0000
0010
0001
1000
0001
1000
0010
,  // measure 26
0100
0000
0100
0000
0010
1000
0001
0000
,  // measure 27
0010
0100
1000
0001
0200
0000
0320
0000
,  // measure 28
1030
0100
0010
0000
0001
1000
0100
1000
,  // measure 29
0010
0000
0010
1000
0001
1000
0001
1000
,  // measure 30
0100
0000
0100
0000
0010
0001
1000
0000
,  // measure 31
0020
0000
0000
0030
,  // measure 32
0100
0001
0100
0010
,  // measure 33
1000
0100
0010
0010
,  // measure 34
0001
1000
0001
0000
0100
0000
0001
1000
0001
0000
0100
0000
0010
0000
0000
0000
,  // measure 35
1000
0001
1000
0000
0100
0000
1000
0001
1000
0000
0100
0000
0010
0000
0000
0000
,  // measure 36
0100
1000
0100
0010
,  // measure 37
0001
0100
0010
0010
,  // measure 38
1000
0001
1000
0000
0010
0000
1000
0001
1000
0000
0100
0000
0010
0000
0000
0000
,  // measure 39
0001
1000
0001
0000
0100
0000
0001
1000
0002
0000
0000
0000
0103
0010
0100
0010
,  // measure 40
1000
0000
1100
0000
0001
0010
1000
0010
,  // measure 41
0001
0000
0100
0010
1000
0001
1000
0001
,  // measure 42
0020
0100
0032
0100
,  // measure 43
2003
0100
3020
0230
,  // measure 44
0301
0000
0101
0000
1000
0100
0001
0100
,  // measure 45
1000
0000
0100
0010
0001
1000
0001
1000
,  // measure 46
0020
0100
2030
0100
,  // measure 47
3001
0000
0100
0001
1000
0000
0000
0000
1001
0000
0000
0000
0110
0000
0000
0000
,  // measure 48
0101
0000
0011
0000
0010
0100
1000
0010
,  // measure 49
0100
0000
0100
0010
1000
0001
1000
0001
,  // measure 50
0020
1000
0032
0100
,  // measure 51
2003
3010
0110
1001
,  // measure 52
1010
0000
1100
0000
0100
0010
0001
0100
,  // measure 53
0010
0000
0010
0100
0001
1000
0001
1000
,  // measure 54
0200
0010
2300
0010
,  // measure 55
3002
0000
0103
0001
1000
0001
1000
0002
,  // measure 56
0020
0000
0000
0000
,  // measure 57
0033
0000
0000
0000
;

//---------------dance-single - ----------------
#NOTES:
     dance-single:
     :
     Medium:
     6:
     0.313090,0.331428,0.107345,0.214690,0.000000,209.000000,12.000000,24.000000,0.000000,0.000000,0.000000,0.313090,0.331428,0.107345,0.214690,0.000000,209.000000,12.000000,24.000000,0.000000,0.000000,0.000000:
// measure 0
0000
0000
0000
0000
,  // measure 1
0000
0000
0000
0000
,  // measure 2
0000
0000
0000
0000
,  // measure 3
0000
0000
0000
0000
,  // measure 4
0000
0000
0000
0000
,  // measure 5
0000
0000
0000
0000
,  // measure 6
0000
0000
0000
0000
,  // measure 7
0000
0000
0000
0000
,  // measure 8
1100
0000
0001
0000
1000
0001
0100
0000
,  // measure 9
0010
0000
1010
0000
1000
0001
0010
0000
,  // measure 10
0011
0000
1000
0000
0001
1000
0100
0000
,  // measure 11
1000
0000
1010
0000
1000
0001
0010
0000
,  // measure 12
1100
0000
0001
0000
1000
0001
0100
0000
,  // measure 13
0010
0110
2000
0001
,  // measure 14
3002
0010
0023
0230
,  // measure 15
1300
0001
2000
3020
,  // measure 16
0130
0100
0000
0100
,  // measure 17
0000
0100
0000
0100
,  // measure 18
0001
0000
1000
0001
1000
0000
0001
0000
,  // measure 19
0010
0000
0100
0010
0100
0000
0010
0000
,  // measure 20
0001
1000
0000
1000
,  // measure 21
0000
1000
0000
1000
,  // measure 22
0001
0000
0010
0100
0010
0000
0100
0000
,  // measure 23
1000
0000
0010
0100
0010
0000
0100
0000
,  // measure 24
0001
0000
0001
0000
1000
0001
1000
0000
,  // measure 25
0100
0000
0010
0000
0001
0100
0010
0000
,  // measure 26
1000
1000
0001
0001
,  // measure 27
0010
0100
1100
0101
,  // measure 28
1000
0000
1000
0000
0001
0010
0001
0000
,  // measure 29
0100
0000
0010
0000
1000
0100
1000
0000
,  // measure 30
0001
0100
0010
1000
,  // measure 31
0200
0000
0000
0300
,  // measure 32
1000
0010
0000
0010
,  // measure 33
0000
0010
0000
0010
,  // measure 34
0100
0000
0010
0100
0010
0000
1000
0000
,  // measure 35
0001
0000
1000
0001
1000
0000
0100
0000
,  // measure 36
0010
0001
0000
0001
,  // measure 37
0000
0001
0000
0001
,  // measure 38
1000
0000
0010
0100
0010
0000
0100
0000
,  // measure 39
0001
0000
0010
0100
0010
0000
0100
0000
,  // measure 40
1000
0000
1000
0000
0001
1000
0100
1000
,  // measure 41
0001
0000
0001
0000
0100
0001
0100
0000
,  // measure 42
0020
1000
2030
0001
,  // measure 43
3002
0010
0023
0100
,  // measure 44
0130
0000
1000
0000
0010
1000
0001
0000
,  // measure 45
0010
0000
0001
0000
0100
0001
0100
0001
,  // measure 46
2000
0010
3020
0100
,  // measure 47
0230
0301
1001
0110
,  // measure 48
1002
0000
0010
0000
1003
0001
1000
0001
,  // measure 49
0100
0000
0010
0000
1000
0100
1000
0000
,  // measure 50
0002
0010
0023
0100
,  // measure 51
0230
1000
2300
3001
,  // measure 52
2001
0000
0100
0000
3001
1000
0001
1000
,  // measure 53
0100
0000
0010
0000
0001
0100
0001
0000
,  // measure 54
2000
0010
3020
0100
,  // measure 55
0230
0000
0001
0000
0301
1000
0001
1000
,  // measure 56
0200
0000
0000
0000
,  // measure 57
0300
0000
0000
0000
;

//---------------dance-single - ----------------
#NOTES:
     dance-single:
     :
     Easy:
     3:
     0.194243,0.227437,0.017891,0.089454,0.000000,140.000000,2.000000,10.000000,0.000000,0.000000,0.000000,0.194243,0.227437,0.017891,0.089454,0.000000,140.000000,2.000000,10.000000,0.000000,0.000000,0.000000:
// measure 0
0000
0000
0000
0000
,  // measure 1
0000
0000
0000
0000
,  // measure 2
0000
0000
0000
0000
,  // measure 3
0000
0000
0000
0000
,  // measure 4
0000
0000
0000
0000
,  // measure 5
0000
0000
0000
0000
,  // measure 6
0000
0000
0000
0000
,  // measure 7
0000
0000
0000
0000
,  // measure 8
1000
0000
0001
0000
,  // measure 9
0010
0100
1000
0000
,  // measure 10
0001
0000
1000
0000
,  // measure 11
0010
0100
0001
0000
,  // measure 12
0010
0000
0100
0000
,  // measure 13
0010
0001
1000
0000
,  // measure 14
0001
0000
0100
0000
,  // measure 15
0010
1000
0001
0010
,  // measure 16
0100
1000
0000
0001
,  // measure 17
0000
1000
0000
0001
,  // measure 18
0100
0010
1000
0000
,  // measure 19
0100
0010
0001
0000
,  // measure 20
0010
0001
0000
1000
,  // measure 21
0000
0001
0000
1000
,  // measure 22
0100
0010
0001
0000
,  // measure 23
0100
0010
1000
0000
,  // measure 24
0001
0001
1000
0001
,  // measure 25
0100
0000
0010
0010
,  // measure 26
1000
0000
0001
0000
,  // measure 27
0010
0000
0100
0000
,  // measure 28
1000
1000
0001
1000
,  // measure 29
0100
0000
0010
0010
,  // measure 30
0001
0000
1000
0000
,  // measure 31
0200
0000
0000
0300
,  // measure 32
0010
0001
0000
0100
,  // measure 33
0000
0010
0000
1000
,  // measure 34
0001
0010
0100
0000
,  // measure 35
1000
0001
0100
0000
,  // measure 36
0010
1000
0000
0001
,  // measure 37
0000
1000
0000
0001
,  // measure 38
0010
0100
1000
0000
,  // measure 39
0010
0100
0001
0000
,  // measure 40
1000
1000
0100
1000
,  // measure 41
0001
0000
0100
0010
,  // measure 42
2000
0000
3002
0000
,  // measure 43
0023
0000
0230
1300
,  // measure 44
0001
0001
0100
0001
,  // measure 45
1000
0000
0010
0010
,  // measure 46
2000
0000
3200
0000
,  // measure 47
0320
0000
0130
0110
,  // measure 48
1000
0010
0100
0001
,  // measure 49
1000
0000
0001
0001
,  // measure 50
1000
0100
1000
0001
,  // measure 51
1000
0010
0100
0000
,  // measure 52
0001
0001
0100
0010
,  // measure 53
1000
0000
0001
0001
,  // measure 54
1000
0100
0010
0100
,  // measure 55
1000
0001
0100
0010
,  // measure 56
0220
0000
0330
0000
;
