#TITLE:ID;
#SUBTITLE:;
#ARTIST:luz×nqrse×ぷす;
#TITLETRANSLIT:;
#SUBTITLETRANSLIT:;
#ARTISTTRANSLIT:luz×nqrse×Pusu;
#GENRE:;
#CREDIT:;
#BANNER:[Show & Tell] - ID.png;
#BACKGROUND:[Show & Tell] - ID-bg.png;
#LYRICSPATH:;
#CDTITLE:;
#MUSIC:[Show & Tell] - ID.ogg;
#OFFSET:-0.416390;
#SAMPLESTART:60.428249;
#SAMPLELENGTH:23.997952;
#SELECTABLE:YES;
#DISPLAYBPM:70.000000:140.000000;
#BPMS:0.000000=140.011993
,48.000000=105.009003
,48.375000=210.018005
,48.750000=105.009003
,49.125000=210.018005
,49.500000=105.009003
,49.750000=210.018005
,50.000000=105.009003
,50.500000=210.018005
,51.000000=105.009003
,51.500000=210.018005
,52.000000=140.011993
,84.000000=70.005997
,92.000000=140.011993
,190.000000=105.009003
,190.500000=210.018005
,191.000000=105.009003
,191.500000=210.018005
,192.000000=140.011993
,194.000000=105.009003
,194.500000=210.018005
,195.000000=105.009003
,195.500000=210.018005
,196.000000=140.011993
,198.000000=105.009003
,198.333328=210.018005
,198.666672=140.011993
,199.000000=105.009003
,199.333328=210.018005
,199.666672=140.011993
,206.000000=236.270248
,206.125000=118.135124
,206.500000=59.067562
,206.750000=39.378376
,207.000000=70.005997
,208.000000=105.009003
,208.250000=52.500000
,208.500000=105.009003
,208.750000=52.500000
,209.000000=140.011993
,211.000000=210.018005
,211.375000=105.009003
,211.750000=140.011993
,212.000000=210.018005
,212.500000=105.009003
,213.000000=140.011993
,217.000000=210.018005
,217.333328=105.009003
,217.666672=140.011993
,218.000000=210.018005
,218.333328=105.009003
,218.666672=140.011993
,219.000000=210.018005
,219.333328=105.009003
,219.666672=140.011993
,220.666672=46.667000
,221.000000=140.011993
;
#STOPS:220.666672=1.428000
;
#BGCHANGES:16.000=[Show & Tell] - ID.avi=1.000=1=0=0=StretchNoLoop==CrossFade==,
99999=-nosongbg-=1.000=0=0=0 // don't automatically add -songbackground-
;
#KEYSOUNDS:;
#ATTACKS:;

//---------------dance-single - ----------------
#NOTES:
     dance-single:
     :
     Hard:
     9:
     0.571386,0.731196,0.199985,0.274054,0.292571,540.000000,513.000000,27.000000,37.000000,10.000000,0.000000,0.571386,0.731196,0.199985,0.274054,0.292571,540.000000,513.000000,27.000000,37.000000,10.000000,0.000000:
0000
0000
0000
0000
,
0000
0000
0000
0000
,
0000
0000
0000
0000
,
0000
0000
0000
0000
,
0002
0013
20M0
3010
,
00M1
0100
1000
0100
0020
0000
1030
0000
,
0002
0103
2M00
3100
,
0M01
0010
1000
0010
0002
0000
1003
0000
,
2000
3010
00M2
0013
,
10M0
0010
0001
0010
0200
0000
0301
0000
,
2000
3100
0M02
0103
,
1M00
0100
0001
0100
0010
0010
0002
0000
,
2003
0000
0000
3020
0000
0000
0230
0000
0302
0000
0000
0000
2003
0000
0000
0000
,
3001
0000
0010
0010
0100
0100
1000
0000
,
0001
0100
0010
0100
0001
0000
1001
0000
,
1000
0000
0010
0010
0100
0100
0001
0000
,
1000
0100
0010
0100
1000
0000
1001
0000
,
0001
0000
0100
0100
0010
1000
0002
0000
,
1003
0000
0100
0100
0010
0001
1000
0001
,
0100
0000
0000
0000
0001
0000
0000
0000
0010
0000
0010
0000
0100
0000
1000
0001
,
0100
0000
0000
0000
0010
0000
0000
0000
0100
0000
0001
0000
1000
0000
0001
0010
,
0200
1000
0001
0310
,
0120
0001
1000
0130
,
2100
3001
0102
0013
,
0021
0130
1020
0130
,
0001
0000
0000
0100
1000
0000
0100
0000
0001
0000
0100
0000
0010
0000
0010
0000
,
1000
0000
0000
0100
0001
0000
0100
0000
1000
0000
0100
0000
0010
0000
0010
0000
,
0001
0000
0000
0010
1000
0000
0010
0000
0001
0000
1000
0000
0010
0000
0010
0000
,
1000
0000
0000
0010
0001
0000
0010
0000
1000
0000
0001
0000
0010
0000
0010
0000
,
0001
0100
1000
0100
0001
0010
1000
0010
,
0001
0010
0100
1000
0001
0100
0010
1000
,
0001
0100
0001
0100
0010
0100
0010
0100
0010
0000
1000
0000
0001
0000
0010
0000
,
0100
0000
0100
1000
0000
1000
0001
0000
0100
0010
1000
0001
1000
0000
1001
0000
,
0001
0000
0010
0000
0100
0000
1000
0100
0000
1000
0001
0000
1000
0000
0010
0000
,
0100
0000
0001
0000
1000
0000
0010
1000
0001
0000
0010
0000
0010
0000
0100
0000
,
1000
0000
0000
1000
0001
0000
0000
0001
0100
0000
0100
0000
0101
0000
0000
0000
,
0001
0100
0010
0010
1000
0100
0010
0010
,
0001
0000
0010
0000
0100
0000
1000
0100
0000
1000
0001
0000
1000
0000
0010
0000
,
0100
0000
0001
0000
0010
0000
0100
0010
0001
0000
1000
0000
1000
0000
0001
0000
,
0100
0000
0000
0100
0010
0000
0000
0010
1000
0000
1000
0000
1001
0000
0000
0000
,
0001
0010
0100
0100
1000
0010
0100
0100
,
0001
0000
1001
0000
0100
0010
1001
0000
,
1000
0100
0010
0010
0100
0010
0001
1000
,
0010
0000
0110
0000
1000
0001
0110
0000
,
0010
1000
0010
0010
1000
0001
0010
0010
,
0200
0000
0310
0100
2000
0000
3001
0000
,
0201
0310
1200
0310
,
0001
0000
1000
0100
0010
0100
1000
0100
0010
0000
0000
0000
0110
0000
0000
0000
,
0010
0000
0001
0100
0010
0100
0001
0100
0010
0000
0000
0000
0110
0000
0000
0000
,
0010
0000
0000
0000
0000
0000
0100
0000
0000
0010
0000
0000
0100
0000
0000
0001
0000
0000
0010
0000
0000
0100
0000
0000
1000
0000
0000
0000
0000
0000
0000
0000
1000
0000
0000
0000
0001
0000
0000
0000
0000
0000
0000
0000
0001
0000
0000
0000
,
1000
0000
0010
0100
0001
0000
0001
0000
1000
0000
0001
0010
0100
0000
0100
0000
,
1000
0000
0000
0000
0001
0000
0010
0000
0100
0000
1000
0000
0100
0000
0010
0000
0002
0000
0000
0000
0000
0000
0000
0000
1003
0000
0001
0100
0010
1000
0010
0100
,
0002
0003
0002
0003
1000
0000
0010
0100
0001
0010
0100
1000
0001
0000
0000
0001
,
0020
0000
0000
0000
0130
0000
1000
0001
1000
0000
0001
0000
0100
0000
0010
0100
,
0010
0000
0000
1000
0000
0000
0001
0000
0000
0000
0001
0000
0100
0000
0000
0000
0100
0000
0010
0000
0000
0000
0010
0000
,
1000
0000
0000
0000
0000
0000
0000
0000
0001
0000
0000
0000
0000
0000
0000
0000
1000
0000
0000
0000
0000
0000
0000
0000
0000
0000
0000
0000
0000
0000
0000
0000
0002
0003
0000
0000
0000
0000
0000
0000
0000
0000
0000
0000
0000
0000
0000
0000
1000
0000
0000
0000
0000
0000
0000
0000
0000
0000
0000
0000
0001
0000
0000
0000
0000
0000
0000
0000
0000
0000
0000
0000
0100
0000
0000
0000
0000
0000
0000
0000
0000
0000
0000
0000
0000
0000
0000
0000
0000
0000
0000
0000
0000
0000
0000
0000
0010
0000
0000
0000
0000
0000
0000
0000
0000
0000
0000
0000
0000
0000
0000
0000
0000
0000
0000
0000
0000
0000
0000
0000
1000
0000
0000
0000
0000
0000
0000
0000
0000
0000
0000
0000
0010
0000
0000
0000
0000
0000
0000
0000
0000
0000
0000
0000
0000
0000
0000
0000
0000
0000
0000
0000
0000
0000
0000
0000
1000
0000
0000
0000
0000
0000
0000
0000
0000
0000
0000
0000
0001
0000
0000
0000
0000
0000
0000
0000
0000
0000
0000
0000
0000
0000
0000
0000
0000
0000
0000
0000
0000
0000
0000
0000
,
0010
0000
0100
1000
0100
0000
1000
0000
0001
0000
0100
0001
0100
0000
0010
0000
,
0010
1000
0100
0000
1100
0000
0001
0100
,
110M
0000
0001
0010
0100
1000
0100
0010
,
0001
0000
1000
0000
0001
0100
0010
0000
1000
0000
0010
1000
0000
0001
1000
0000
,
0001
0000
0010
0100
0010
0000
0100
0000
1000
0000
0010
0100
0010
0000
1000
0000
,
1000
0001
0100
0000
0101
0000
1000
0100
,
M101
0000
0000
0000
1000
0000
0010
0000
0100
0000
0001
0100
0010
0000
1000
0000
,
0001
0000
0001
0000
1000
0000
0000
1000
0010
0000
0000
0010
0100
0000
0001
0000
,
1001
0000
0001
0010
0100
0100
0010
0100
,
1000
0000
1000
0000
0001
0000
0000
0001
0100
0000
0000
0100
0010
0000
1000
0000
,
1001
0000
0001
0010
0100
0100
1000
0100
,
0010
0001
0200
0000
0310
1000
0002
0000
,
0103
2010
3001
0012
,
1003
0000
0001
0100
0010
0100
1000
0100
,
0001
0000
1000
0001
1000
0000
0100
0000
0010
0000
0100
0000
0001
0000
0100
0000
,
1000
0000
0001
1000
0001
0000
0010
0000
1000
0000
0010
0000
0001
0000
0100
0000
,
1000
0000
0100
0000
0001
0000
0001
0100
0000
0100
0010
0000
0010
1000
0000
1000
,
0001
1001
0000
0000
0000
0000
0000
0000
;

//---------------dance-single - ----------------
#NOTES:
     dance-single:
     :
     Medium:
     7:
     0.423249,0.487464,0.192578,0.222206,0.029627,400.000000,374.000000,26.000000,30.000000,0.000000,0.000000,0.423249,0.487464,0.192578,0.222206,0.029627,400.000000,374.000000,26.000000,30.000000,0.000000,0.000000:
0000
0000
0000
0000
,
0000
0000
0000
0000
,
0000
0000
0000
0000
,
0000
0000
0000
0000
,
1000
0100
0010
0001
,
1000
0100
0001
0100
1000
0000
1001
0000
,
0001
0100
0010
1000
,
0001
0100
1000
0100
0001
0000
1001
0000
,
1000
0010
0100
0010
,
0001
0010
0100
0010
1000
0000
1001
0000
,
0001
0010
0100
0010
,
1000
0010
0100
0010
0001
0010
0100
0000
,
1000
0000
0000
1000
0000
0000
0001
0000
0100
0000
0000
0000
0110
0000
0000
0000
,
0010
1000
0001
1000
,
0100
0000
0010
0001
0100
0000
0101
0000
,
0100
0001
1000
0100
,
0010
0000
0001
1000
0100
0000
1100
0000
,
1000
0000
0010
0000
0100
0001
0100
0000
,
0001
0000
1000
0000
0100
1000
0100
1000
,
0100
0000
0010
0000
0001
0010
0001
0000
,
1000
0000
0010
0000
0100
0010
0100
0000
,
0120
0100
0100
0130
,
2001
0001
0001
3001
,
2000
3100
0200
0310
,
0020
0031
0002
1003
,
0001
0000
0010
0000
0100
0010
0100
0000
,
1000
0000
0010
0000
0100
0010
0100
0000
,
0010
0000
1000
0000
0001
1000
0001
0000
,
0010
0000
0100
0000
1000
0001
1000
0000
,
0001
0100
0001
0100
0010
1000
0010
1000
,
0001
0010
0001
0010
0100
1000
0100
1000
,
0001
0001
0100
0100
0010
0010
2000
0000
,
3002
0000
0000
0023
0000
0000
0230
0000
1300
0000
0000
0000
1001
0000
0000
0000
,
0001
0100
0001
1000
0100
0000
1100
0000
,
1000
0100
1000
0100
0010
0000
0011
0000
,
0001
0001
1000
1000
,
0001
0100
0010
0010
1000
0001
0010
0000
,
0100
1000
0100
1000
0001
0000
0101
0000
,
0100
0010
0100
0010
1000
0000
1001
0000
,
0001
0001
1000
1000
,
0010
0000
0100
0000
0001
1000
0001
0000
,
1000
0000
0100
0000
0010
0010
0100
0000
,
0010
0001
0010
0000
0001
1000
0001
0000
,
1000
0000
0010
0000
0100
0100
0001
0000
,
1000
0010
1000
0000
0001
0010
0001
0000
,
1001
0000
1000
1000
,
0010
0010
0110
0110
,
1000
0010
0001
0010
0100
0000
0100
0000
,
0001
0010
1000
0010
0100
0000
0100
0000
,
0010
0100
1000
0001
0100
0000
0110
0000
,
0010
0010
1000
1000
,
0001
0000
0010
0000
0100
0000
1000
0000
0002
0000
0000
0000
1003
0010
0100
0001
,
2000
3000
2000
3000
0001
0000
0010
0000
0100
0000
0010
0000
0001
0000
0000
0000
,
1001
1000
1000
0100
,
0100
0020
0032
0203
,
0320
0000
0000
0000
0000
0000
0000
0000
0000
0000
0000
0030
0000
0000
0000
0000
1000
0000
0000
0000
0000
0000
0000
0000
0010
0000
0000
0000
0000
0000
0000
0000
0100
0000
0000
0000
0000
0000
0000
0000
0001
0000
0000
0000
0000
0000
0000
0000
0000
0000
0000
0000
0000
0000
0000
0000
1000
0000
0000
0000
0000
0000
0000
0000
,
1000
0001
1000
0100
0010
0001
0000
1000
,
1000
0001
0010
0000
0011
0000
1000
0000
,
1010
0000
1000
0010
0100
0001
0100
0010
,
1000
0000
0001
0010
0100
1000
0000
0001
,
0001
1000
0100
0010
0001
1000
0000
0001
,
0001
1000
0010
0000
1010
0000
0001
0000
,
0011
0000
1000
0100
0010
0001
0010
0100
,
1000
0000
0000
0000
0001
0000
0000
0000
0100
0000
0000
0100
0010
0000
0000
0000
,
0110
0000
0010
1000
0010
0010
1000
0001
,
1000
0000
1000
0000
0001
0000
0000
0000
0010
0000
0000
0010
0100
0000
0000
0000
,
0110
0000
0100
0010
0100
0100
1000
0001
,
1000
0010
0100
0000
0000
0010
0100
0000
,
0001
0010
0010
0110
,
0110
2000
3200
0302
,
0103
1000
0002
0000
0203
0000
2300
0000
,
3100
0001
2000
0000
3020
0000
0032
0000
,
0013
0000
1000
0000
0002
0000
0000
0023
0000
0000
0230
0000
0000
2300
0000
0000
,
3001
0001
0000
0000
0000
0000
0000
0000
;

//---------------dance-single - ----------------
#NOTES:
     dance-single:
     :
     Easy:
     4:
     0.275112,0.351455,0.103696,0.185171,0.000000,260.000000,246.000000,14.000000,25.000000,0.000000,0.000000,0.275112,0.351455,0.103696,0.185171,0.000000,260.000000,246.000000,14.000000,25.000000,0.000000,0.000000:
0000
0000
0000
0000
,
0000
0000
0000
0000
,
0000
0000
0000
0000
,
0000
0000
0000
0000
,
0001
0001
0010
0010
,
0100
0010
0100
0100
,
1000
1000
0001
0001
,
0100
0010
0100
0100
,
0010
0010
1000
1000
,
0001
0010
0100
0110
,
0010
0010
0001
0001
,
1000
0010
0100
0001
,
1001
0000
0000
0000
,
1000
0010
1000
0001
,
1000
0100
0010
0010
,
0001
0010
0001
1000
,
0001
0100
0010
0010
,
1000
1000
1000
1000
,
0001
0001
0001
0001
,
1000
0100
0010
0100
,
0010
0001
1000
0001
,
2002
0000
0000
0000
3000
0000
0000
0000
0200
0000
0000
0000
0300
0003
0000
0000
,
2020
0030
0200
3300
,
0022
0000
0030
0000
,
0200
0000
0303
0000
,
0001
0100
0010
0010
,
1000
0100
0010
0010
,
0001
0010
0001
0001
,
1000
0010
1000
1000
,
0100
0100
0010
0010
,
0001
0100
1000
0100
,
0001
0010
0100
0100
,
2002
0000
0000
3003
,
1000
0100
1000
0000
,
0001
0100
0010
0000
,
0100
0010
1000
0000
,
0010
0010
1000
1000
,
0001
1000
0100
0000
,
1000
0001
0100
0000
,
0010
1000
0001
0000
,
1000
1000
0100
0100
,
0010
0001
1000
0000
,
0001
0001
1000
0010
,
0100
0001
1000
0000
,
0100
0100
0010
0010
,
0001
0000
0200
0310
,
0020
1030
2000
3001
,
0001
0010
0220
0330
,
1000
0010
0220
0330
,
0001
1000
2002
3003
,
0001
0001
0100
0100
,
1000
0000
0100
0000
0002
0000
1003
0010
,
0100
0100
0001
0000
1000
0000
1001
0000
,
1001
0001
0010
1000
,
0010
0001
0010
0100
,
2000
0000
0000
0000
0000
0000
0000
0000
0000
0000
0000
3000
0000
0000
0000
0000
0001
0000
0000
0000
0000
0000
0000
0000
0000
0000
0000
0000
0000
0000
0000
0000
0010
0000
0000
0000
0000
0000
0000
0000
0000
0000
0000
0000
0000
0000
0000
0000
0100
0000
0000
0000
0000
0000
0000
0000
0000
0000
0000
0000
0000
0000
0000
0000
,
0100
1000
0010
0100
,
0100
0010
1000
1001
,
0000
0001
0010
0001
,
1000
0010
0100
0001
,
0001
0010
0100
1000
,
1000
0010
0100
0110
,
0000
0010
0100
0001
,
1000
0100
0100
0100
,
0000
0010
0100
0010
,
0001
0100
0100
0100
,
0000
0010
0010
1000
,
1000
1001
0000
0002
,
0013
0020
0130
0200
,
1300
0001
0001
0001
,
0001
0100
0100
0100
,
0100
0010
0010
0010
,
0010
1000
0001
1000
,
0001
0000
0000
0000
;

//---------------dance-single - ----------------
#NOTES:
     dance-single:
     :
     Beginner:
     1:
     0.117452,0.160544,0.022221,0.000000,0.000000,111.000000,108.000000,3.000000,0.000000,0.000000,0.000000,0.117452,0.160544,0.022221,0.000000,0.000000,111.000000,108.000000,3.000000,0.000000,0.000000,0.000000:
// measure 0
0000
0000
0000
0000
,  // measure 1
0000
0000
0000
0000
,  // measure 2
0000
0000
0000
0000
,  // measure 3
0000
0000
0000
0000
,  // measure 4
1000
0000
0000
0000
,  // measure 5
1000
0000
1000
0000
,  // measure 6
0100
0000
0000
0000
,  // measure 7
0100
0000
0100
0000
,  // measure 8
0010
0000
0000
0000
,  // measure 9
0010
0000
0010
0000
,  // measure 10
0001
0000
0000
0000
,  // measure 11
0001
0000
0001
0000
,  // measure 12
0001
0000
0000
0000
,  // measure 13
1000
0000
0000
0000
,  // measure 14
0010
0000
1000
0000
,  // measure 15
0001
0000
0000
0000
,  // measure 16
0010
0000
0001
0000
,  // measure 17
1000
0000
0000
0000
,  // measure 18
0001
0000
0000
0000
,  // measure 19
0100
0000
0100
0000
,  // measure 20
0010
0000
0010
0000
,  // measure 21
1000
0000
0000
0000
,  // measure 22
0001
0000
0000
0000
,  // measure 23
0010
0000
0000
0000
,  // measure 24
0000
0000
0000
0000
,  // measure 25
0100
0000
0000
0000
,  // measure 26
0100
0000
0000
0000
,  // measure 27
1000
0000
0000
0000
,  // measure 28
1000
0000
0000
0000
,  // measure 29
0001
0000
0001
0000
,  // measure 30
0001
0000
0001
0000
,  // measure 31
0100
0000
0100
0000
,  // measure 32
0010
0000
0000
0000
,  // measure 33
1000
0000
0000
0000
,  // measure 34
1000
0000
0000
0000
,  // measure 35
0001
0000
0001
0000
,  // measure 36
0010
0000
0010
0000
,  // measure 37
0100
0000
0000
0000
,  // measure 38
0100
0000
0000
0000
,  // measure 39
1000
0000
1000
0000
,  // measure 40
0001
0000
0001
0000
,  // measure 41
0100
0000
0000
0000
,  // measure 42
0010
0000
0010
0000
,  // measure 43
0010
0000
0000
0000
,  // measure 44
1000
0000
1000
0000
,  // measure 45
1000
0000
0000
0000
,  // measure 46
0001
0000
1001
0000
,  // measure 47
1000
0000
0000
0000
,  // measure 48
0001
0000
0000
0000
,  // measure 49
1000
0000
0000
0000
,  // measure 50
0100
0000
0100
0000
,  // measure 51
0100
0000
0000
0010
,  // measure 52
0010
0010
0000
0000
,  // measure 53
0000
0001
0000
0001
,  // measure 54
0000
1000
0000
0000
,  // measure 55
0000
0001
0001
0000
,  // measure 56
0000
0010
0010
0000
,  // measure 57
0000
0100
0000
0100
,  // measure 58
0000
1000
0000
1000
,  // measure 59
0000
0010
0010
0000
,  // measure 60
0000
0100
0100
0000
,  // measure 61
0000
0001
0000
0001
,  // measure 62
0000
1000
0000
1000
,  // measure 63
0000
0100
0100
0100
,  // measure 64
0000
0100
0000
0100
,  // measure 65
0000
0010
0010
0010
,  // measure 66
0000
0010
0000
0010
,  // measure 67
0000
0001
0000
0000
,  // measure 68
0000
1000
0000
1001
,  // measure 69
0000
0001
0000
0001
,  // measure 70
0000
0100
0000
0100
,  // measure 71
0000
0010
0000
0010
,  // measure 72
0000
1001
0000
0000
;
