#TITLE:I'm an Albatraoz;
#SUBTITLE:;
#ARTIST:AronChupa;
#TITLETRANSLIT:;
#SUBTITLETRANSLIT:;
#ARTISTTRANSLIT:;
#CREDIT:;
#BANNER:I'm an albatraoz.png;
#BACKGROUND:I'm an albatraoz - bg.png;
#LYRICSPATH:;
#CDTITLE:cdtitle.png;
#MUSIC:I'm an albatraoz.ogg;
#OFFSET:-0.575;
#SAMPLESTART:30.120;
#SAMPLELENGTH:12.900;
#SELECTABLE:YES;
#BPMS:0.000=128.000,153.000=64.000,155.000=128.000,167.000=64.000,175.000=128.000,242.000=64.000,244.000=128.000;
#STOPS:11.000=0.940
,53.000=1.400
,70.000=1.400
,83.000=0.940
,109.000=1.400
,126.000=1.400
,139.000=0.240
,139.500=0.240
,140.000=0.240
,140.500=0.240
,175.000=1.860
,227.000=0.480
;
#BGCHANGES:;

//---------------dance-single - ----------------
#NOTES:
     dance-single:
     :
     Hard:
     9:
     0.500,0.652,0.455,0.195,0.513:
0000
0000
0000
0000
,
0000
0000
0000
0000
,
0000
0000
0000
000M
,
2020
0000
0000
3030
0000
0000
0001
0000
0000
0000
0010
0000
0100
0000
0000
0000
0010
0000
0100
0000
0000
0000
0000
0000
,
1000
0000
0001
0100
0000
0001
0100
0000
0010
2000
0000
0000
,
0001
0000
0000
3001
0000
0100
0010
0000
0100
0010
0000
0000
,
1000
0000
0001
0010
0000
0001
0010
0000
0001
0200
0000
0000
,
0301
0000
1000
0001
0000
0001
1000
0000
1000
0010
0000
0010
,
1000
0000
1000
0100
0000
0100
1000
0000
1000
0010
0000
0010
,
1000
0100
0010
0001
0000
0001
0010
0000
0010
0100
0000
0100
,
0010
0000
0010
0001
0000
0001
0010
0000
0010
0100
0000
0100
,
0010
0001
0100
0020
0000
0000
0100
0000
0000
0001
0000
0000
,
0100
1000
0100
0001
,
0100
0000
0000
103M
0000
0000
0001
0000
1000
0010
0000
0100
,
0001
0000
0000
1010
0000
0000
2200
3300
0000
1010
0000
0000
,
1010
0000
0001
0010
0000
0000
1001
0000
1000
0010
0000
0010
,
0100
0000
0100
0001
0000
0000
2002
3003
0000
0011
0000
0000
,
0011
0000
1000
0010
0000
0000
M110
0000
0000
2002
3003
0000
,
0011
0000
0000
0011
0000
1000
0010
0000
0000
1001
0000
1000
,
0100
0010
0100
1000
0000
1000
0001
0000
0000
2200
3300
0000
,
0110
0000
0000
0110
0000
0010
0001
0000
0000
M101
0000
0000
,
0000
0000
0001
1000
0000
1000
0001
0000
0001
0010
0000
0010
,
0001
0000
0001
0100
0000
0100
0001
0000
0001
0010
0000
0010
,
0001
0100
0010
1000
0000
1000
0010
0000
0010
0100
0000
0100
,
0010
0000
0010
1000
0000
1000
0010
0000
0010
0100
0000
0100
,
0010
1000
0100
0020
0000
0000
0100
0000
0000
1000
0000
0000
,
0100
0001
0100
1000
,
0100
0000
0000
M031
0000
0000
1000
0000
0001
0010
0000
0100
,
1000
0000
0000
1010
0000
0000
0022
0033
0000
0101
0000
0000
,
0101
0000
0001
0010
0000
0000
1001
0000
0000
0001
0000
0010
,
0100
0000
0100
1000
0000
0000
0011
0000
0000
0001
0000
0010
,
0100
0000
0100
1000
0000
0000
011M
0000
0000
2002
3003
0000
,
0011
0000
0000
0011
0000
1000
0010
0000
0000
0101
0000
0000
,
0001
0100
0010
0100
0000
0001
0100
0000
0000
1100
0000
0000
,
1000
0000
0100
0000
0010
0000
0100
0000
0000
0000
1000
0000
0100
0000
0000
0000
0000
0000
0011
0000
0000
000M
0000
0000
,
M000
0000
0000
000M
0000
0000
1100
0000
0000
0000
0000
0000
0001
0000
0000
0000
0100
0000
0010
0000
0000
0000
0010
0000
,
1000
0000
0000
0011
0000
0000
0001
0000
1000
0010
0000
1000
,
0100
0000
0000
0011
0000
0000
0001
0000
1000
0010
0000
1000
,
0100
0000
M101
1000
0000
1000
M101
0000
,
1000
0000
0100
0010
0000
0010
0001
0000
0000
1010
0000
0000
,
1000
0010
0100
0010
0000
1000
0100
0000
0000
0011
0000
0000
,
0001
0000
0010
0000
0100
0000
0010
0000
0000
0000
0001
0000
0100
0000
0000
0000
0000
0000
1M01
0000
0001
0010
0000
0010
,
0100
0000
0000
0000
0000
0000
1000
0000
1000
0001
0000
0001
1000
0000
1000
0010
0000
0010
1000
0000
1000
0001
0000
0001
,
1000
0000
1000
0100
0000
0100
1000
0000
1000
0001
0000
0001
1000
0000
1000
0010
0000
0010
100M
0000
0000
0000
0010
0000
,
1000
0000
0000
1000
0000
0001
1000
0000
0000
0001
0000
0010
,
0001
0000
0000
0001
0000
1000
0001
0000
0000
1000
0000
0010
,
1000
0000
0000
1000
0000
0001
1000
0000
0000
0001
0000
0010
,
0001
0000
0000
0001
0000
0000
0001
0100
0010
2000
0000
0000
,
0100
0010
0100
0001
,
0100
0010
3100
1001
,
0001
0000
0000
0000
0000
0000
0001
0000
0010
0110
0000
0000
,
0100
0000
0000
0000
0000
0000
0100
0000
1000
1100
0000
0000
,
1000
1010
0010
0110
,
0100
0000
0000
0101
0000
0000
0001
0000
0000
1000
0010
1000
,
0010
1000
0100
0010
0001
0010
0001
0010
0100
0110
0000
0000
,
0100
0000
0000
0100
0000
0000
0100
0000
0000
0100
0010
0001
,
0100
0010
1000
0010
0100
0001
0010
0100
1000
100M
0000
0000
,
1000
0000
1000
0010
0000
0010
0220
0330
0000
1010
0000
0000
,
1010
0000
0001
0010
0000
0000
1001
0000
0000
0001
0000
0010
,
0100
0000
0100
1000
0000
0000
0202
0303
0000
0011
0000
0000
,
0011
0000
0000
0000
1000
0000
0010
0000
0000
0000
0000
0000
101M
0000
0000
0001
0000
0000
0000
0000
0000
0001
0000
0000
,
202M
3030
0000
1001
0000
0000
1001
0000
0001
1000
0000
0000
,
1010
0000
0000
1000
0100
0010
0100
0000
1000
0100
0000
0000
,
2020
3030
0000
0101
0000
0000
0011
0000
0000
1100
0000
0000
,
1001
0000
0001
0010
0000
0100
1000
0000
0000
0000
0000
0000
;

//---------------dance-single - ----------------
#NOTES:
     dance-single:
     :
     Medium:
     6:
     0.374,0.419,0.311,0.188,0.170: // measure 1
0000
0000
0000
0000
,  // measure 2
0000
0000
0000
0000
,  // measure 3
0000
0000
0000
0000
,  // measure 4
0012
1003
0100
0001
,  // measure 5
0100
1000
1000
0002
,  // measure 6
0100
0103
0010
1000
,  // measure 7
0010
0100
0100
0002
,  // measure 8
0000
0000
0000
0003
0000
0000
1000
0000
0000
0000
0001
0000
0100
0000
0000
0000
0000
0000
1000
0000
0000
0000
0001
0000
,  // measure 9
0100
0000
0000
0001
0000
1000
0100
0000
0000
0001
0000
1000
,  // measure 10
0100
0000
0000
0001
0000
1000
0010
0000
0000
0001
0000
1000
,  // measure 11
0010
0000
0000
1000
0000
0001
0010
0000
0000
1000
0000
0001
,  // measure 12
0010
2000
0001
0100
,  // measure 13
0001
0100
0001
0100
,  // measure 14
3001
0000
0000
0101
0000
0000
1000
0000
0010
0100
0000
0010
,  // measure 15
0100
0000
0000
0001
0000
0000
0022
0033
0000
1000
0000
0000
,  // measure 16
1000
0000
0010
1000
0000
0000
0001
0000
0000
1000
0000
0000
,  // measure 17
0100
0000
0010
0100
0000
0000
2002
3003
0000
0010
0000
0000
,  // measure 18
0010
0000
0100
0010
0000
0000
0101
0000
0000
2020
3030
0000
,  // measure 19
0001
0000
0000
0001
0000
0100
0001
0000
0000
1010
0000
0000
,  // measure 20
0100
0000
0000
1000
0000
0100
0010
0000
0000
0022
0033
0000
,  // measure 21
0100
0000
0000
0100
0000
1000
0100
0000
0000
1001
0000
0000
,  // measure 22
0000
0000
0000
1000
0000
0001
0010
0000
0000
1000
0000
0001
,  // measure 23
0010
0000
0000
0001
0000
1000
0010
0000
0000
0001
0000
1000
,  // measure 24
0010
0000
0000
1000
0000
0001
0100
0000
0000
1000
0000
0001
,  // measure 25
0100
0000
0000
0001
0000
1000
0100
0000
0000
0001
0000
1000
,  // measure 26
0100
0002
1000
0010
,  // measure 27
1000
0010
1000
0010
,  // measure 28
1003
0000
0000
1100
0000
0000
0001
0000
0010
0100
0000
0010
,  // measure 29
0100
0000
0000
1000
0000
0000
2020
3030
0000
0010
0000
0000
,  // measure 30
0010
0000
0100
0010
0000
0000
0101
0000
0000
0010
0000
0000
,  // measure 31
1000
0000
0001
1000
0000
0000
0101
0000
0000
0010
0000
0000
,  // measure 32
1000
0000
0001
1000
0000
0000
1001
0000
0000
0022
0033
0000
,  // measure 33
0010
0000
0000
0010
0000
0100
0010
0000
0000
1001
0000
0000
,  // measure 34
1000
0000
0000
0010
0000
0100
0010
0000
0000
1001
0000
0000
,  // measure 35
1000
0000
0000
0010
0000
0100
0010
0000
0000
1000
0000
0000
,  // measure 36
0000
0000
0000
1001
0000
0000
1000
0000
0000
0100
0000
0010
,  // measure 37
0100
0000
0000
0011
0000
0000
0001
0000
0000
0010
0000
0100
,  // measure 38
0010
0000
0000
0011
0000
0000
0001
0000
0000
0010
0000
0100
,  // measure 39
0010
0000
0110
0100
0000
0100
0110
0000
,  // measure 40
0001
0000
0000
0100
0000
0010
0100
0000
0000
1010
0000
0000
,  // measure 41
1000
0000
0000
0010
0000
0100
0010
0000
0000
1010
0000
0000
,  // measure 42
1000
0000
0000
0000
0000
0000
0010
0000
0000
0000
0100
0000
0010
0000
0000
0000
0000
0000
0110
0000
0000
0010
0000
0000
,  // measure 43
0100
0000
0001
0100
0001
0010
0001
0100
,  // measure 44
0001
0010
0001
0100
0001
0010
0001
0000
,  // measure 45
0100
0010
0010
1000
,  // measure 46
0001
1000
0001
0000
,  // measure 47
0100
0010
0010
1000
,  // measure 48
0010
1000
0001
0200
,  // measure 49
0010
0001
0010
0001
,  // measure 50
0010
0001
0010
0301
,  // measure 51
0000
0000
0000
0000
0000
0000
0000
0000
1000
0001
0000
0000
,  // measure 52
0000
0000
0000
0000
0000
0000
0000
0000
1000
0001
0000
0000
,  // measure 53
0001
1010
0001
1100
,  // measure 54
0010
0101
0100
0110
,  // measure 55
0110
0101
0101
1010
,  // measure 56
1000
1000
1000
1000
,  // measure 57
0010
0100
0010
1000
,  // measure 58
0010
0000
0000
0100
0000
0000
0202
0303
0000
0001
0000
0000
,  // measure 59
0001
0000
0010
0001
0000
0000
1001
0000
0000
0001
0000
0000
,  // measure 60
0100
0000
0001
0100
0000
0000
2002
3003
0000
1000
0000
0000
,  // measure 61
1000
0000
0000
0000
0010
0000
1000
0000
0000
0000
0000
0000
1100
0000
0000
0100
0000
0000
0000
0000
0000
0100
0000
0000
,  // measure 62
2200
3300
0000
0100
0000
0000
0100
0000
1000
0100
0000
0000
,  // measure 63
1010
0000
0000
0100
0000
0000
0100
0000
0010
0100
0000
0000
,  // measure 64
2020
3030
0000
1010
0000
0000
0101
0000
0000
0101
0000
0000
,  // measure 65
1000
0000
0010
0100
0000
0010
0100
0000
0000
0000
0000
0000
;

//---------------dance-single - ----------------
#NOTES:
     dance-single:
     :
     Easy:
     4:
     0.273,0.326,0.275,0.043,0.000:
0000
0000
0000
0000
,
0000
0000
0000
0000
,
0000
0000
0000
0000
,
2000
3001
0010
0100
,
0010
0001
0001
2000
,
0010
3010
0100
0001
,
0100
0010
0010
2000
,
0000
3000
0001
0000
0010
0000
0001
0000
,
0010
1000
0010
1000
,
0010
1000
0100
1000
,
0100
0001
0100
0001
,
0100
0002
0000
0000
,
0000
0000
0000
0000
,
0000
0013
1000
0010
,
0100
0001
1100
0001
,
0001
0001
1000
0001
,
0010
0010
1001
0100
,
0100
0100
1010
0101
,
1000
1000
1000
0101
,
0010
0001
0100
0101
,
0010
0010
0010
1001
,
0000
0001
0100
0001
,
0100
1000
0100
1000
,
0100
0001
0010
0001
,
0010
1000
0010
1000
,
0010
2000
0000
0000
,
0000
0000
0000
0000
,
0000
3100
0001
0010
,
0100
1000
0101
0100
,
0100
0100
1010
0100
,
0001
0001
1010
0100
,
0001
0001
1001
1100
,
0100
0100
0100
1001
,
0001
0100
0100
1001
,
0001
0100
0100
0001
,
0000
0001
0001
0010
,
0010
1100
1000
0100
,
0100
1100
1000
0100
,
0100
0110
0000
0110
,
0001
0010
0010
0101
,
0001
0100
0100
0101
,
0001
0100
0100
0110
,
0000
1000
0001
1000
,
0001
0010
0100
0010
,
0100
0010
0010
0001
,
1000
0001
1000
0000
,
0010
0100
0100
0001
,
0100
0001
1000
0020
,
0100
0100
0100
0100
,
0100
0100
0100
0130
,
0000
0000
0000
1001
,
0000
0000
0000
1001
,
1000
0100
1000
0001
,
0100
0001
0010
0110
,
0110
1001
1001
0101
,
0001
0001
0001
0001
,
0100
0010
0100
0001
,
0010
0100
0110
0001
,
1000
0001
1001
1000
,
0010
1000
1001
0001
,
1000
0001
0011
0000
,
0011
0010
0100
0010
,
0110
0100
0010
0100
,
0110
0110
1001
1001
,
0001
0010
0100
0000
;
