#TITLE:Give Me Up;
#SUBTITLE:(Happy Grandale Remix);
#ARTIST:Michael Fortunati;
#TITLETRANSLIT:;
#SUBTITLETRANSLIT:;
#ARTISTTRANSLIT:;
#CREDIT:;
#BANNER:;
#BACKGROUND:;
#LYRICSPATH:;
#CDTITLE:;
#MUSIC:GIVE ME UP (Happy Grandale Remix).mp3;
#OFFSET:-0.160;
#SAMPLESTART:44.656;
#SAMPLELENGTH:11.200;
#SELECTABLE:YES;
#BPMS:0.000=170.860;
#STOPS:;
#BGCHANGES:;

//---------------dance-single - ----------------
#NOTES:
     dance-single:
     :
     Hard:
     9:
     0.623,0.580,0.077,0.188,0.047:
0000
0000
0000
0000
,
0000
0000
0000
0000
,
1000
0100
0001
1000
0010
0001
1000
0100
,
0001
1000
0010
0001
1000
0100
0001
0000
,
0001
0100
1000
0001
0010
1000
0001
0100
,
1000
0001
0010
1000
0001
0100
1000
0000
,
1000
0100
0001
1000
0010
0001
1000
0100
,
0001
1000
0010
0001
1000
0100
0001
0100
,
0010
0000
0000
0100
0000
0000
1000
0000
0000
0000
0010
0000
0010
0000
0000
0000
,
0100
0000
0000
0001
0000
0000
0010
0000
0000
0000
0100
0000
0100
0000
0000
0000
,
1000
0000
0000
0001
0000
0000
0100
0000
0000
0000
0010
0000
0010
0000
0000
0000
,
1000
0000
0000
0001
0000
0000
0100
0000
0000
0000
0010
0000
0010
0000
0000
0000
,
1000
0000
0000
0001
0000
0000
0010
0000
0000
0000
0100
0000
0100
0000
0000
0000
,
1000
0000
0000
0010
0000
0000
0100
0000
0000
0000
0001
0000
0001
0000
0000
0000
,
1100
0100
0110
0010
,
0011
0000
0101
0000
1010
0000
0010
0100
,
0001
0000
1000
0000
0010
0100
0000
0100
,
0000
0000
0000
0001
0010
0001
1000
0001
,
0200
0300
0000
0000
0000
0000
0000
0000
0000
0000
0000
0000
0000
0000
0000
0000
0000
0000
0000
0000
0000
0000
0000
0000
0000
0000
0000
0000
0000
0000
0000
0000
0000
0000
0000
0000
0000
0000
0000
0000
0000
0000
0000
0000
0000
0000
0000
0000
0010
0000
0000
0000
0000
0000
0000
0000
0000
0000
0000
0000
0000
0000
0000
0000
0000
0000
0000
0000
0000
0000
0000
0000
0000
0000
0000
0000
0000
0000
0000
0000
0000
0000
0000
0000
0000
0000
0000
0000
0000
0000
0000
0000
0000
0000
0000
0000
1000
0000
0000
0000
0000
0000
0000
0000
0000
0000
0000
0000
0000
0000
0000
0000
0000
0000
0000
0000
0000
0000
0000
0000
0020
0000
0000
0000
0000
0000
0000
0000
0000
0000
0000
0000
0000
0000
0000
0000
0000
0000
0000
0000
0000
0000
0000
0000
0000
0000
0000
0000
0000
0000
0000
0000
0000
0000
0000
0000
0000
0000
0000
0000
0000
0000
0000
0000
0000
0000
0000
0000
0000
0000
0000
0000
0000
0000
0000
0000
0000
0000
0000
0000
0000
0000
0000
0000
0000
0000
0000
0000
0000
0000
0000
0000
,
0230
0000
0000
0301
0000
0000
1000
0100
,
1000
0001
0100
0010
1000
0010
0100
0010
,
1000
0000
0000
0001
0000
0000
0100
0000
0010
0000
1000
0000
0010
0000
0100
0000
,
0010
0000
1001
0000
0001
0100
0001
0010
,
0002
0000
0000
0000
0003
0010
0100
0010
,
0000
0100
1000
0100
0000
0010
0001
0010
,
0000
0001
1000
0001
0000
1000
0010
0100
,
0000
0010
1000
0010
0000
0100
0001
0000
,
0020
0000
0000
0130
0000
1000
0001
0100
,
0000
0100
0001
1000
0000
1000
0010
0100
,
0000
0001
0010
0001
0000
1000
0100
0010
,
0000
0001
0010
0001
0000
1000
0001
0000
,
0200
0000
0000
0000
0000
0000
0310
1000
,
0100
1000
0100
1000
0001
0100
0010
1000
,
0020
0000
1030
0100
0020
0000
0031
0100
,
0001
1000
0001
0100
0001
0010
0001
1000
,
0002
0000
0013
0100
1000
0000
0001
0010
,
0100
1000
0001
0100
0010
1000
0001
0100
,
0020
0000
1030
0100
0020
0000
0031
0100
,
0001
1000
0001
0100
0001
0010
0001
0010
,
0002
0000
1003
0010
1000
0000
0010
0000
,
1000
0100
0001
1000
0010
0001
1000
0100
,
0001
1000
0010
0001
1000
0100
0001
0000
,
0001
0100
1000
0001
0010
1000
0001
0100
,
1000
0001
0010
1000
0001
0100
1000
0000
,
1000
0100
0001
1000
0010
0001
1000
0100
,
0001
1000
0010
0001
1000
0100
0001
0000
,
0001
0100
0010
0000
0011
0001
0010
0000
,
0001
0100
0001
0010
0001
1000
0001
1000
,
1001
0000
0000
0001
0000
0000
0100
0000
0000
0000
0010
0000
1000
0000
0000
0000
,
0001
0000
0000
0001
0000
0000
0001
0000
0000
0000
0100
0000
0010
0000
0000
0000
,
1000
0000
0000
0100
0000
0000
0010
0000
0000
0000
0001
0000
0001
0000
0000
0000
,
0200
0000
0000
0000
0300
0000
1000
0100
,
0001
0100
1000
0010
0100
0001
0010
0001
,
1000
0000
0000
0010
0000
0000
0100
0000
0001
0000
0010
0000
0001
0000
0100
0000
,
0001
0000
0010
0000
0100
1000
0000
0000
,
0002
0000
0000
0000
0003
1000
0010
1000
,
0000
0001
0100
0001
0000
0010
0100
0010
,
0000
0100
1000
0100
0000
0010
0001
0010
,
0000
0001
0100
0001
0000
0100
0010
0000
,
2000
0000
0000
0000
0000
3001
0100
0001
,
0000
0010
0100
0010
0000
0100
1000
0100
,
0000
0010
0001
0010
0000
0001
0100
0001
,
0000
1000
0010
1000
0000
0001
0100
0000
,
0002
0000
0000
0000
0003
0000
1000
0001
,
0100
0010
0100
0010
1000
0010
1000
0010
,
0200
0000
0301
0010
0100
0000
1000
0001
,
0100
0001
0010
0001
0100
0001
0010
0001
,
2000
0000
3010
0100
0010
0000
1000
0100
,
1000
0100
0010
0001
0010
0001
0100
0010
,
2000
0000
3010
0100
0020
0000
1030
0001
,
0010
0100
1000
0100
0010
0001
1000
0001
,
0100
0100
0010
0010
1000
1000
0001
0001
,
1000
0100
1000
0100
0001
0100
0001
0100
,
1000
0100
1000
0100
1000
0010
1000
0010
,
0001
0010
0001
0010
1000
0010
1000
0010
,
0100
0001
0010
0100
1000
0100
0010
0001
,
1000
0100
1000
0001
0100
0010
1000
0010
,
0200
0000
0301
0010
0001
0000
0100
0010
,
1000
0010
1000
0010
0100
0010
0100
0010
,
2000
0000
0000
3000
,
1001
0000
0000
0000
;

//---------------dance-single - ----------------
#NOTES:
     dance-single:
     :
     Medium:
     7:
     0.481,0.544,0.188,0.102,0.026:
0000
0000
0000
0000
,
0000
0000
0000
0000
,
1000
0100
1000
0100
1000
0100
1000
0100
,
1000
0100
1000
0100
1000
0100
1000
0000
,
0001
0100
0001
0100
0001
0100
0001
0100
,
0001
0100
0001
0100
0001
0100
0001
0000
,
1000
0001
1000
0000
0001
0100
0001
0000
,
0010
0001
0010
0000
0011
0000
1001
0000
,
1000
0000
0000
0001
0000
0000
1000
0000
0000
0000
0000
0000
0010
0000
0000
0000
,
0100
0000
0000
0001
0000
0000
0100
0000
0000
0000
0000
0000
0010
0000
0000
0000
,
1000
0000
0000
0001
0000
0000
1000
0000
0000
0000
0000
0000
0010
0000
0000
0000
,
0100
0000
0000
0001
0000
0000
0100
0000
0000
0000
0000
0000
0010
0000
0000
0000
,
1001
0000
0000
0010
0000
0000
0100
0000
0000
0000
0000
0000
0001
0000
0000
0000
,
1000
0000
0000
0100
0000
0000
1000
0000
0000
0000
0000
0000
0001
0000
0000
0000
,
0100
0000
0000
0010
0000
0000
1000
0000
,
0101
0011
0101
0001
,
1000
0000
0100
0000
0010
0001
0010
0001
,
0010
0000
0001
0000
0100
0010
0100
0010
,
0100
0000
0001
0000
1000
0001
0000
0000
,
2000
0000
0000
0000
,
3001
0000
0100
0000
0010
1000
0010
0100
,
0001
0000
0010
0000
0100
1000
0100
1000
,
0100
0010
0001
0100
,
0010
1000
0010
1000
0010
0000
1000
0000
,
1001
0001
0100
0001
,
0010
0001
0100
0010
,
1000
0010
0100
0001
,
2002
0000
3003
0000
,
1001
0001
1000
0001
,
0100
0010
1000
0100
,
0010
0001
0100
0010
,
0020
0000
0030
1000
,
1001
0001
0100
0010
,
1000
0000
0100
0010
0100
0000
0010
0001
,
0010
0001
0100
0010
,
1000
0000
0100
1000
0100
0000
0010
0001
,
0010
0001
0100
0010
,
1000
0000
0010
1000
0010
0000
0100
0001
,
0100
0001
0100
0000
0010
0000
1000
0000
,
0002
0000
0000
0000
,
1003
0100
1000
0100
1000
0100
1000
0100
,
1000
0100
1000
0100
1000
0100
1000
0000
,
0001
0010
0001
0010
0001
0010
0001
0010
,
0001
0010
0001
0010
0001
0000
1000
0000
,
0100
1000
0100
1000
0100
1000
0100
1000
,
0100
1000
0100
1000
0100
1000
0100
0000
,
0010
0001
0110
0010
,
1010
0101
0011
1100
,
1000
0000
0001
0000
0100
0010
1000
0010
,
0100
0000
0001
0000
0010
0001
0010
0001
,
0010
0001
1000
0010
,
0200
0000
0300
0001
,
1001
0000
0010
0000
1000
0010
1000
0010
,
1000
0000
0001
0000
0100
0001
0100
0000
,
0001
0010
0001
1000
,
0002
0000
0000
0003
,
1001
0010
0100
0010
,
1000
0100
0010
0001
,
0100
0010
1000
0001
,
2002
0000
3003
0000
,
1001
0010
0100
0010
,
1000
0100
0010
0001
,
0100
0010
1000
0001
,
0200
0000
0000
0300
,
0010
1000
0010
1000
0010
0000
0100
0000
,
0001
0000
0010
0001
0010
0000
0001
1000
,
0001
0100
0010
1000
,
0001
0000
0100
0010
0100
0000
0001
0000
,
1001
0000
0010
0000
1000
0001
0100
0000
,
0001
0000
0010
0001
0010
0000
0001
1000
,
0001
1000
0010
0100
,
0001
0000
0010
0001
0010
0000
0001
0000
,
1001
0010
0100
0010
,
2000
0000
3100
0010
0100
0000
0010
0001
,
0010
0001
0100
0010
,
1000
0000
0001
0100
0001
0000
0010
0000
,
1001
0010
0100
0010
,
1000
0001
0010
0100
,
1000
0100
1000
0000
0001
0100
0001
0000
,
0020
0000
0000
0030
;

//---------------dance-single - ----------------
#NOTES:
     dance-single:
     :
     Easy:
     6:
     0.485,0.546,0.734,0.119,0.000:
0000
0000
0000
0000
,
0000
0000
0000
0000
,
0000
0000
0000
0000
,
0000
0000
0000
0000
,
0010
1000
0010
1000
,
0010
0100
0001
0100
,
0001
1000
0010
0100
,
0001
0010
0001
0010
,
0011
0001
1000
0001
,
0101
0001
1000
0010
,
1010
0001
0100
0001
,
0010
0001
0100
0001
,
0101
0010
1000
0010
,
0110
0001
0010
0001
,
0011
0001
0100
0001
,
0101
0101
0101
1001
,
1000
0010
0110
0000
,
0010
0000
1000
0001
,
0100
0010
1000
0100
,
0020
0000
0000
0000
,
0031
0100
0010
1000
,
0010
0100
0001
0010
,
0001
1000
0001
0010
,
0001
1000
0001
1000
,
1001
0010
1001
0100
,
1001
0010
1001
0100
,
1001
0010
0101
0001
,
2000
0000
3010
0000
,
0101
0001
0010
0001
,
0001
0100
0010
1000
,
1010
0001
0101
0001
,
1001
1001
0110
0110
,
1100
0100
0010
0001
,
0002
0100
0010
1003
,
2001
0010
0100
3001
,
0100
0001
0010
0001
,
2001
0010
0001
3100
,
0001
0010
0001
0100
,
0201
0010
0010
0310
,
0001
0010
0001
1000
,
1001
0001
0100
0010
,
1000
0100
0010
0001
,
1001
0010
0100
0001
,
0010
0100
1000
0100
,
1100
0001
0010
0100
,
1000
0001
0100
0010
,
0101
0010
1010
0001
,
0110
1001
1100
0011
,
0101
0010
1000
0010
,
0100
0001
0010
0100
,
1100
0001
0100
0010
,
1010
0001
0100
0001
,
0011
0001
1001
0010
,
0110
1000
0100
0010
,
0011
0001
0101
0010
,
1100
0011
1001
0110
,
1001
0001
0010
0001
,
0011
0100
1000
0100
,
1100
0010
0100
0010
,
0110
0001
1001
0100
,
1100
0001
0010
0001
,
0011
0100
1000
0100
,
0110
0010
0011
0001
,
0101
1010
0101
0011
,
0002
1000
1000
1003
,
1100
0010
0011
0001
,
0200
0010
0010
0310
,
0011
0100
1100
0010
,
2001
0010
0010
3010
,
0101
0010
0110
0100
,
2100
0010
0010
3010
,
0001
0100
0010
0110
,
2001
0100
0100
3100
,
0012
0100
0010
0103
,
2100
0010
0100
3010
,
0102
0010
0100
0013
,
1100
0010
0100
0010
,
1001
0110
1001
0001
,
0101
0010
1010
0001
,
1001
0110
1001
0110
,
1001
0000
0000
0000
;

//---------------dance-single - ----------------
#NOTES:
     dance-single:
     :
     Challenge:
     14:
     1.000,1.000,0.017,0.162,1.000: // measure 1
0000
0000
0000
0000
,  // measure 2
0000
0000
0000
0000
,  // measure 3
1000
0100
1000
0100
1000
0100
0010
0001
0010
0001
0010
0001
0100
0010
0100
0010
,  // measure 4
0100
0010
1000
0100
1000
0100
1000
0100
0010
0001
0010
0001
0010
0000
0001
1000
,  // measure 5
0100
0010
0100
0010
0100
0010
0001
1000
0001
1000
0001
1000
0010
0100
0010
0100
,  // measure 6
0010
0100
0010
1000
0010
1000
0010
1000
0001
0100
0001
0100
0001
0000
1000
0001
,  // measure 7
1000
0100
0010
0001
0010
0100
1000
0001
0100
0010
1000
0001
0100
0010
1000
0100
,  // measure 8
0010
0001
0010
0100
1000
0001
0100
0010
1000
0100
0010
0001
0100
0010
1000
0001
,  // measure 9
0100
0001
0000
0001
0100
0000
0100
0001
0000
1000
0100
0010
0001
0000
0010
0000
,  // measure 10
0100
1000
0000
0100
0010
0000
0010
0001
0000
0001
0010
0001
0010
0000
0100
0000
,  // measure 11
1000
0100
0000
0010
0001
0000
0010
0001
0000
0001
0010
0100
1000
0000
0100
0000
,  // measure 12
1000
0001
0000
0001
1000
0000
1000
0001
0000
0001
0010
0100
1000
0000
0100
0000
,  // measure 13
1000
0010
0000
0010
1000
0000
0010
0100
0000
0010
0100
0010
0100
0000
0001
0000
,  // measure 14
1000
0010
0000
1000
0010
0000
1000
0010
0000
0100
0010
0100
0001
0000
1000
0000
,  // measure 15
0001
0100
0000
0010
0100
0000
0010
0100
0000
1000
0100
0010
0001
0000
0001
0000
,  // measure 16
1000
0100
0010
0001
0100
0010
0100
0001
0010
0100
1000
0100
0010
0001
0100
0010
,  // measure 17
2000
0000
3200
0000
0310
0001
0000
0001
,  // measure 18
0100
0000
0000
0010
0000
0000
1000
0000
0010
0000
0100
0000
0010
0000
1000
0000
,  // measure 19
0020
0000
0230
0000
0301
0010
0000
0000
,  // measure 20
2002
0000
0000
0000
3003
0000
0100
0010
,  // measure 21
0100
0001
0100
0010
1000
0100
0010
0000
,  // measure 22
0001
0000
0000
0001
0000
0000
0100
0000
0010
0000
1000
0000
0100
0000
0010
0000
,  // measure 23
0001
0100
0001
0100
0010
1000
0010
1000
0001
0100
0001
1000
0100
0010
0001
0100
,  // measure 24
0010
1000
0010
1000
0001
0100
0001
0100
0010
0000
1000
0100
1000
0000
0001
0010
,  // measure 25
0000
0100
1000
0200
0000
0310
0001
0020
,  // measure 26
0000
0031
0100
0002
0000
1003
0010
2000
,  // measure 27
0000
3001
0100
0002
0000
0013
0100
0000
,  // measure 28
0200
0000
0000
2300
0000
3001
0100
0002
,  // measure 29
0000
0103
0010
0200
0000
0310
1000
0020
,  // measure 30
0000
0130
0001
0200
0000
0310
1000
0001
,  // measure 31
1000
0000
0000
0100
0000
0000
0010
0000
0000
0001
0000
0000
0010
0000
0000
0100
0000
0000
1000
0000
0000
0001
0000
0000
0100
0000
0000
0010
0000
0000
1000
0000
0000
0100
0000
0000
0010
0000
0001
0000
0100
0000
0010
0000
0000
1000
0000
0000
,  // measure 32
0001
0000
0010
0000
0100
0000
1000
0000
0100
0000
0010
0000
0001
0000
0100
0000
0010
0000
1000
0000
0100
0000
0010
0000
0001
0000
0000
0010
0000
0000
0100
0000
0000
1000
0000
0000
0100
0000
0000
0010
0000
0000
0001
0000
0000
0100
0000
0000
,  // measure 33
0010
1000
0100
0010
0100
1000
0001
0100
0010
1000
0100
0010
0100
1000
0001
0100
,  // measure 34
0010
1000
0001
0010
0100
1000
0100
0010
0001
0100
0010
1000
0001
0010
0100
1000
,  // measure 35
0100
0010
0001
0100
0010
0100
0001
0010
0100
1000
0100
1000
0001
0100
0010
1000
,  // measure 36
0001
0010
0100
1000
0100
0010
0001
0100
0010
0100
0001
0010
0100
1000
0100
0010
,  // measure 37
0001
0100
0010
0100
0001
0010
0100
1000
0100
0010
0001
0100
0010
0100
0001
0010
,  // measure 38
0100
1000
0100
1000
0001
0100
0001
0100
0010
1000
0010
1000
0001
0100
0010
1000
,  // measure 39
0100
0010
0001
0010
0100
1000
0001
0100
0010
1000
0100
0010
0001
0100
0010
1000
,  // measure 40
0100
0010
0100
1000
0001
0100
0010
1000
0100
0010
0001
0100
0010
1000
0100
0010
,  // measure 41
0001
0100
0001
1000
0010
1000
0001
0100
,  // measure 42
0001
1000
0010
1000
0001
0100
0001
0000
,  // measure 43
1000
0100
1000
0001
0010
0001
1000
0100
,  // measure 44
1000
0001
0010
0001
1000
0100
1000
0000
,  // measure 45
0001
0001
0100
1000
1000
0100
0001
0010
,  // measure 46
0010
0100
1000
1000
0001
0100
0100
0000
,  // measure 47
1000
0010
1000
0010
0100
0001
0100
0001
0100
0010
1000
0100
0010
0001
0010
0100
,  // measure 48
1000
0001
0100
0010
1000
0100
0010
0001
0100
0010
1000
0010
0100
0000
0001
0100
,  // measure 49
0001
1000
0000
1000
0001
0000
0001
0100
0000
0100
0010
1000
0010
0000
0100
0000
,  // measure 50
0001
0010
0000
0010
0001
0000
0001
1000
0000
1000
0010
0100
0001
0000
0010
0000
,  // measure 51
0001
0100
0000
0100
0001
0000
0100
0010
0000
0100
0001
0100
0010
0000
1000
0000
,  // measure 52
0100
0010
0000
0001
0010
0000
0100
0010
0000
0001
0010
0100
0010
0000
0001
0000
,  // measure 53
1000
0100
0000
0010
0001
0000
1000
0010
0000
0100
0001
0100
0010
0000
1000
0000
,  // measure 54
0001
0100
0000
0100
0001
0000
1000
0010
0000
0010
1000
0001
0100
0000
0010
0000
,  // measure 55
1000
0000
0000
0000
0000
0000
0100
0000
0000
0010
0000
0000
0001
0000
0100
0000
0001
0000
0100
0000
0000
0010
0000
0000
1000
0000
0000
0001
0000
0000
0100
0000
0000
0010
0000
0000
1000
0000
0001
0000
1000
0000
0100
0000
0000
0010
0000
0000
,  // measure 56
0001
0100
0010
1000
0100
0010
0001
0100
0010
1000
0001
0000
1000
0010
1000
0000
,  // measure 57
1000
0100
0000
0010
0001
0000
0010
0100
0000
1000
0100
0010
0001
0000
0010
0000
,  // measure 58
0010
0001
0000
0010
0100
0000
0010
0001
0000
0010
0100
0010
0100
0000
1000
0000
,  // measure 59
0010
1000
0000
0010
0100
0000
0001
0010
0000
0100
1000
0100
0010
0000
0001
0000
,  // measure 60
0010
0100
0000
0100
1000
0000
0100
0010
0000
0001
0010
0001
0010
0000
0100
0000
,  // measure 61
1000
0100
0000
0100
1000
0000
0001
0010
0000
0001
0010
0001
1000
0000
0010
0000
,  // measure 62
0100
0001
0000
0001
1000
0000
1000
0100
0000
1000
0100
0010
0100
0000
0010
0000
,  // measure 63
0001
0000
0000
0010
0000
0000
0100
0000
0000
1000
0000
0000
0100
0000
0000
0010
0000
0000
0001
0000
0000
0100
0000
0000
0010
0000
0000
1000
0000
0000
0001
0000
0000
0100
0000
0000
0001
0000
1000
0000
0001
0000
1000
0000
0000
0001
0000
0000
,  // measure 64
0100
0010
1000
0100
0010
0001
0010
0100
1000
0001
0100
0010
1000
0100
0010
0001
,  // measure 65
0100
0010
1000
0001
0010
0100
1000
0100
0010
0001
0100
0010
1000
0001
0100
0010
,  // measure 66
1000
0100
1000
0100
0010
0001
0010
0001
0100
0010
0100
0010
1000
0100
0010
0001
,  // measure 67
0010
0100
1000
0001
0100
0010
1000
0100
0010
0001
0010
0100
1000
0001
0100
0010
,  // measure 68
1000
0100
0010
0001
0100
0010
1000
0001
0010
0100
1000
0100
0010
0001
0100
0010
,  // measure 69
0100
0010
1000
0001
0100
0010
1000
0100
0010
0001
0010
0100
1000
0001
0100
0010
,  // measure 70
1000
0100
0010
0001
0010
0100
1000
0001
0100
0010
1000
0100
0010
0001
0100
0010
,  // measure 71
1000
0001
0100
0010
1000
0100
0010
0001
0100
0010
1000
0001
0100
0010
1000
0001
,  // measure 72
0000
1000
0100
0010
0001
0100
0010
1000
0010
1000
0001
0000
0001
1000
0001
0000
,  // measure 73
1000
0010
1000
0001
0100
0010
1000
0001
0100
0010
1000
0100
0010
0001
0010
0100
,  // measure 74
1000
0001
0100
0010
0100
0001
0010
0100
1000
0100
0010
0001
0100
0010
1000
0100
,  // measure 75
0010
0100
1000
0001
0100
0010
1000
0001
0010
0100
1000
0100
0010
0001
0100
0010
,  // measure 76
0100
0001
0010
0100
1000
0100
0010
0001
0100
0010
0100
0001
0010
0100
1000
0100
,  // measure 77
0010
0001
0100
0010
0100
0001
0010
0100
1000
0001
0010
0001
1000
0100
0010
0001
,  // measure 78
0100
0010
1000
0100
0010
0001
0100
0010
0100
0001
0010
0100
1000
0001
0010
0100
,  // measure 79
0010
0001
0100
0010
0100
0001
0010
0100
1000
0100
0010
0100
1000
0001
0100
0010
,  // measure 80
1000
0000
0100
0000
0010
0000
0001
0000
0010
0000
0100
0000
1000
0000
0001
0000
0010
0000
0100
0000
1000
0000
0100
0000
0010
0000
0001
0000
0100
0000
0010
0000
1000
0000
0001
0000
0100
0000
0000
0000
0000
0000
0010
0000
0000
0100
0000
0000
,  // measure 81
2002
0000
0000
0000
,  // measure 82
3003
0000
0000
0000
;

//---------------dance-single - Copied from----------------
#NOTES:
     dance-single:
     Copied from:
     Edit:
     15:
     1.000,1.000,0.009,0.017,1.000:
0000
0000
0000
0000
,
0000
0000
0000
0000
,
1000
0100
1000
0100
1000
0100
0010
0001
0010
0001
0010
0001
0100
0010
0100
0010
,
0100
0010
1000
0100
1000
0100
1000
0100
0010
0001
0010
0001
0010
0001
1000
0100
,
0010
0001
0010
0001
1000
0100
0010
0001
0010
0100
1000
0001
0100
0010
1000
0100
,
0010
0001
0100
0010
1000
0001
0010
0100
1000
0100
0010
0001
0100
0010
0100
0001
,
1000
0100
0010
0001
0010
0100
1000
0001
0100
0010
1000
0001
0100
0010
1000
0100
,
0010
0001
0010
0100
1000
0001
0100
0010
1000
0100
0010
0001
0100
0010
1000
0001
,
1000
0100
0010
0001
0100
0000
0010
1000
0000
0010
0100
0001
0100
0010
1000
0000
,
0100
0010
0001
0010
0100
0000
1000
0001
0000
0100
0010
1000
0001
0100
0010
1000
,
0100
0010
0001
0100
0010
0000
1000
0010
0000
0100
0001
0100
0010
1000
0100
0010
,
0001
0100
0010
1000
0001
0000
0100
0010
0000
1000
0100
0010
0100
1000
0001
0100
,
0010
1000
0100
0010
0001
0000
0100
0010
0000
1000
0001
0100
0010
1000
0100
0010
,
0001
0100
0000
0100
0010
0000
1000
0010
0000
0010
0100
0000
0001
0100
0010
1000
,
0100
0010
0000
0001
0100
0000
0010
1000
0000
0100
0010
0001
0100
0010
1000
0001
,
1000
0100
0010
0001
0100
0010
0100
0001
0010
0100
1000
0100
0010
0001
0100
0010
,
1000
0100
1000
0100
1000
0000
0001
0100
0000
0010
1000
0100
0010
0001
0100
0010
,
1000
0001
0000
0001
1000
0000
0010
1000
0000
1000
0010
0100
0001
0100
0010
1000
,
0100
0010
0000
0001
0010
0000
0100
1000
0000
1000
0001
0100
0001
1000
0100
0010
,
0001
0100
0000
0100
0010
0000
0010
1000
0000
1000
0001
0100
0010
0100
0010
1000
,
0100
0010
0000
0001
0010
0000
0100
1000
0000
0100
0010
0000
0001
0100
0010
1000
,
0001
0100
0000
0010
1000
0000
1000
0010
0000
0100
0001
0000
0100
0010
1000
0001
,
1000
0100
1000
0100
0010
0001
0010
0001
0100
0010
0100
0010
1000
0100
1000
0100
,
0010
0001
0010
0001
0100
0010
0100
0010
1000
0100
1000
0100
0010
0001
0010
0001
,
1000
0100
0010
0001
0010
0100
1000
0001
0100
0010
1000
0100
0010
0100
1000
0001
,
0100
0010
1000
0001
0010
0001
1000
0100
0010
0100
1000
0001
0100
0010
1000
0001
,
0100
0010
1000
0100
0010
0100
1000
0001
0100
0010
1000
0001
0010
0100
1000
0100
,
0010
0001
0100
0010
1000
0001
0100
0010
1000
0001
0100
0010
1000
0100
0010
0100
,
1000
0001
0100
0010
1000
0001
0100
0010
1000
0001
0010
0001
1000
0010
0100
0001
,
0100
0010
1000
0100
0010
0001
0100
0010
1000
0001
0100
0010
1000
0001
0100
0010
,
0100
0000
0000
0001
0000
0000
0010
0000
0000
0001
0000
0000
0010
0000
0000
0100
0000
0000
1000
0000
0000
0001
0000
0000
0100
0000
0000
0010
0000
0000
1000
0000
0000
0100
0000
0000
0010
0000
0001
0000
0100
0000
0010
0000
0000
1000
0000
0000
,
0001
0000
0010
0000
0100
0000
1000
0000
0100
0000
0010
0000
0001
0000
0100
0000
0010
0000
1000
0000
0100
0000
0010
0000
0001
0000
0000
0010
0000
0000
0100
0000
0000
1000
0000
0000
0100
0000
0000
0010
0000
0000
0001
0000
0000
0100
0000
0000
,
0010
1000
0100
0010
0100
1000
0001
0100
0010
1000
0100
0010
0100
1000
0001
0100
,
0010
1000
0001
0010
0100
1000
0100
0010
0001
0100
0010
1000
0001
0010
0100
1000
,
0100
0010
0001
0100
0010
0100
0001
0010
0100
1000
0100
1000
0001
0100
0010
1000
,
0001
0010
0100
1000
0100
0010
0001
0100
0010
0100
0001
0010
0100
1000
0100
0010
,
0001
0100
0010
0100
0001
0010
0100
1000
0100
0010
0001
0100
0010
0100
0001
0010
,
0100
1000
0100
1000
0001
0100
0001
0100
0010
1000
0010
1000
0001
0100
0010
1000
,
0100
0010
0001
0010
0100
1000
0001
0100
0010
1000
0100
0010
0001
0100
0010
1000
,
0100
0010
0100
1000
0001
0100
0010
1000
0100
0010
0001
0100
0010
1000
0100
0010
,
0001
0010
0100
1000
0001
1000
0100
0010
0100
1000
0001
0100
0010
1000
0100
0010
,
0001
0100
0010
1000
0001
0010
0001
1000
0010
0100
0001
0010
0001
0100
0010
1000
,
0001
0010
0100
1000
0100
0010
0001
0100
0010
0100
0001
0010
0100
1000
0100
0010
,
0001
0100
0010
0100
0001
0010
0100
1000
0100
0010
0001
0100
0010
0100
0001
0010
,
0100
1000
0100
0010
0001
0100
0010
0100
0001
0010
0100
1000
0100
0010
0001
0100
,
0010
1000
0001
0010
0100
1000
0100
0010
0001
0100
0010
1000
0100
0010
0001
0100
,
0010
1000
0001
0100
0010
1000
0100
0010
0001
0010
0100
1000
0001
0100
0010
1000
,
0100
0010
0100
1000
0001
0100
0010
1000
0100
0010
0001
0010
0100
1000
0001
0100
,
0001
0000
0000
1000
0001
0000
0001
0100
0000
0100
0010
1000
0010
0000
0100
0000
,
0001
0010
0000
0010
0001
0000
0001
1000
0000
1000
0010
0100
0001
0000
0010
0000
,
0001
0100
0000
0100
0001
0000
0100
0010
0000
0100
0001
0100
0010
0000
1000
0000
,
0100
0010
0000
0001
0010
0000
0100
0010
0000
0001
0010
0100
0010
0000
0001
0000
,
1000
0100
0000
0010
0001
0000
1000
0010
0000
0100
0001
0100
0010
0000
1000
0000
,
0001
0100
0000
0100
0001
0000
1000
0010
0000
0010
1000
0001
0100
0000
0010
0000
,
1000
0000
0000
0000
0000
0000
0100
0000
0000
0010
0000
0000
0001
0000
0100
0000
0001
0000
0100
0000
0000
0010
0000
0000
1000
0000
0000
0001
0000
0000
0100
0000
0000
0010
0000
0000
1000
0000
0001
0000
1000
0000
0100
0000
0000
0010
0000
0000
,
0001
0100
0010
1000
0100
0010
0001
0100
0010
1000
0001
0000
1000
0010
1000
0000
,
1000
0100
0000
0010
0001
0000
0010
0100
0000
1000
0100
0010
0001
0000
0010
0000
,
0010
0001
0000
0010
0100
0000
0010
0001
0000
0010
0100
0010
0100
0000
1000
0000
,
0010
1000
0000
0010
0100
0000
0001
0010
0000
0100
1000
0100
0010
0000
0001
0000
,
0010
0100
0000
0100
1000
0000
0100
0010
0000
0001
0010
0001
0010
0000
0100
0000
,
1000
0100
0000
0100
1000
0000
0001
0010
0000
0001
0010
0001
1000
0000
0010
0000
,
0100
0001
0000
0001
1000
0000
1000
0100
0000
1000
0100
0010
0100
0000
0010
0000
,
0001
0000
0000
0010
0000
0000
0100
0000
0000
1000
0000
0000
0100
0000
0000
0010
0000
0000
0001
0000
0000
0100
0000
0000
0010
0000
0000
1000
0000
0000
0001
0000
0000
0100
0000
0000
0001
0000
1000
0000
0001
0000
1000
0000
0000
0001
0000
0000
,
0100
0010
1000
0100
0010
0001
0010
0100
1000
0001
0100
0010
1000
0100
0010
0001
,
0100
0010
1000
0001
0010
0100
1000
0100
0010
0001
0100
0010
1000
0001
0100
0010
,
1000
0100
1000
0100
0010
0001
0010
0001
0100
0010
0100
0010
1000
0100
0010
0001
,
0010
0100
1000
0001
0100
0010
1000
0100
0010
0001
0010
0100
1000
0001
0100
0010
,
1000
0100
0010
0001
0100
0010
1000
0001
0010
0100
1000
0100
0010
0001
0100
0010
,
0100
0010
1000
0001
0100
0010
1000
0100
0010
0001
0010
0100
1000
0001
0100
0010
,
1000
0100
0010
0001
0010
0100
1000
0001
0100
0010
1000
0100
0010
0001
0100
0010
,
1000
0001
0100
0010
1000
0100
0010
0001
0100
0010
1000
0001
0100
0010
1000
0001
,
0000
1000
0100
0010
0001
0100
0010
1000
0010
1000
0001
0000
0001
1000
0001
0000
,
1000
0010
1000
0001
0100
0010
1000
0001
0100
0010
1000
0100
0010
0001
0010
0100
,
1000
0001
0100
0010
0100
0001
0010
0100
1000
0100
0010
0001
0100
0010
1000
0100
,
0010
0100
1000
0001
0100
0010
1000
0001
0010
0100
1000
0100
0010
0001
0100
0010
,
0100
0001
0010
0100
1000
0100
0010
0001
0100
0010
0100
0001
0010
0100
1000
0100
,
0010
0001
0100
0010
0100
0001
0010
0100
1000
0001
0010
0001
1000
0100
0010
0001
,
0100
0010
1000
0100
0010
0001
0100
0010
0100
0001
0010
0100
1000
0001
0010
0100
,
0010
0001
0100
0010
0100
0001
0010
0100
1000
0100
0010
0100
1000
0001
0100
0010
,
1000
0000
0100
0000
0010
0000
0001
0000
0010
0000
0100
0000
1000
0000
0001
0000
0010
0000
0100
0000
1000
0000
0100
0000
0010
0000
0001
0000
0100
0000
0010
0000
1000
0000
0001
0000
0100
0000
0000
0000
0000
0000
0010
0000
0000
0100
0000
0000
,
2002
0000
0000
0000
,
3003
0000
0000
0000
;

//---------------dance-single - ----------------
#NOTES:
     dance-single:
     :
     Beginner:
     1:
     0.058,0.136,0.009,0.000,0.000:
0000
0000
0000
0000
,
0000
0000
0000
0000
,
1000
0000
0000
0000
,
0000
0000
0000
0000
,
0001
0000
0000
0000
,
0000
0000
0000
0000
,
0100
0000
0000
0000
,
0000
0000
0000
0000
,
0010
0000
0000
0000
,
0000
0000
0000
0000
,
0100
0000
0000
0000
,
0000
0000
0000
0000
,
0001
0000
0000
0000
,
0000
0000
0000
0000
,
1000
0000
0000
0000
,
0000
0000
0000
0000
,
0010
0000
0000
0000
,
0000
0000
0000
0000
,
0100
0000
0000
0000
,
0000
0000
0000
0000
,
0001
0000
0000
0000
,
0000
0000
0000
0000
,
1000
0000
0000
0000
,
0010
0000
0000
0000
,
0100
0000
0000
0000
,
0010
0000
0000
0000
,
0100
0000
0000
0000
,
0000
0000
0000
0000
,
0001
0000
0000
0000
,
0000
0000
0000
0000
,
1000
0000
0000
0000
,
0000
0000
0000
0000
,
1000
0000
0000
0000
,
0001
0000
0000
0000
,
0100
0000
0000
0000
,
0010
0000
0000
0000
,
1000
0000
0000
0000
,
0001
0000
0000
0000
,
0010
0000
0000
0000
,
0100
0000
0000
0000
,
1000
0000
0000
0000
,
0000
0000
0000
0000
,
0010
0000
0000
0000
,
0000
0000
0000
0000
,
0100
0000
0000
0000
,
0000
0000
0000
0000
,
0010
0000
0000
0000
,
0000
0000
0000
0000
,
0100
0000
0000
0000
,
0000
0000
0000
0000
,
0001
0000
0000
0000
,
0000
0000
0000
0000
,
1000
0000
0000
0000
,
0000
0000
0000
0000
,
0010
0000
0000
0000
,
0000
0000
0000
0000
,
0100
0000
0000
0000
,
0000
0000
0000
0000
,
0010
0000
0000
0000
,
0000
0000
0000
0000
,
0100
0000
0000
0000
,
0000
0000
0000
0000
,
0010
0000
0000
0000
,
0000
0000
0000
0000
,
1000
0000
0000
0000
,
0000
0000
0000
0000
,
0010
0000
0000
0000
,
0000
0000
0000
0000
,
0100
0000
0000
0000
,
0000
0000
0000
0000
,
0010
0000
0000
0000
,
0000
0000
0000
0000
,
1000
0000
0000
0000
,
0000
0000
0000
0000
,
0001
0000
0000
0000
,
0000
0000
0000
0000
,
0100
0000
0000
0000
,
0000
0000
0000
0000
,
0010
0000
0000
0000
,
1000
0000
0000
0000
,
1001
0000
0000
0000
;
