#TITLE:Clear ft. Mothica;
#SUBTITLE:(Shawn Wasabi Remix);
#ARTIST:PUSHER;
#TITLETRANSLIT:;
#SUBTITLETRANSLIT:;
#ARTISTTRANSLIT:;
#GENRE:BUBBLEGUM TRAP;
#CREDIT:;
#BANNER:[Show & Tell] - Clear ft. Mothica (Shawn Wasabi Remix).png;
#BACKGROUND:[Show & Tell] - Clear ft. Mothica (Shawn Wasabi Remix)-bg.png;
#LYRICSPATH:;
#CDTITLE:;
#MUSIC:[Show & Tell] - Clear ft. Mothica (Shawn Wasabi Remix).ogg;
#OFFSET:2.211000;
#SAMPLESTART:28.365000;
#SAMPLELENGTH:15.000000;
#LASTBEATHINT:2.066613;
#SELECTABLE:YES;
#DISPLAYBPM:102.000000;
#BPMS:0.000000=102.000000
;
#STOPS:97.937500=1.177000
;
#BGCHANGES:;
#KEYSOUNDS:;
#ATTACKS:;

//---------------dance-single - ----------------
#NOTES:
     dance-single:
     :
     Hard:
     8:
     0.491156,0.613661,0.276190,0.295238,0.447619,361.000000,332.000000,29.000000,31.000000,0.000000,0.000000,0.491156,0.613661,0.276190,0.295238,0.447619,361.000000,332.000000,29.000000,31.000000,0.000000,0.000000:
// measure 0
0000
0000
0000
0000
,  // measure 1
0000
0000
0000
0000
,  // measure 2
0000
0000
0000
0000
,  // measure 3
0000
0000
0000
0000
,  // measure 4
0000
0000
0000
0000
,  // measure 5
0010
0000
0000
0010
0000
0000
0010
0000
1000
0000
0000
1000
0000
0000
1000
0000
,  // measure 6
0001
0000
0000
0001
0000
0000
0001
0000
0100
0000
0000
0100
0000
0000
0200
0300
,  // measure 7
0010
0000
0000
1000
0000
0000
0001
0000
0010
0000
0000
0001
0000
0000
1000
0000
,  // measure 8
0100
0000
0000
1000
0000
0000
0001
0000
0100
0000
0000
0001
0000
0000
2000
3000
,  // measure 9
0100
0000
0000
0010
0000
0000
0100
0000
1000
0000
0000
0010
0000
0000
0200
0300
,  // measure 10
0001
0000
0000
0010
0000
0000
0100
0000
0010
0000
0000
0001
0000
0000
0200
0300
,  // measure 11
0010
0000
0000
0100
0000
0000
0010
0000
0100
0000
0000
0001
0000
0000
0020
0030
,  // measure 12
0100
0000
0000
1000
0000
0000
0100
0000
1000
0000
0000
0001
0000
0100
0010
0000
,  // measure 13
1001
0000
0001
0100
0010
0000
1000
0100
0001
0000
0001
0100
0010
0000
0001
0000
,  // measure 14
1001
0000
1000
0100
0010
0000
0001
0100
1000
0000
0100
0001
0010
0100
1000
0010
,  // measure 15
0110
0000
0100
0010
1000
0000
0100
0010
0001
0000
0001
0010
0001
0100
0010
0000
,  // measure 16
0110
0000
0010
1000
0100
0000
0001
1000
0001
0000
0100
0010
0100
0000
0010
0000
,  // measure 17
0200
0000
0000
0301
0010
0000
0010
0000
0000
0100
1000
0000
1000
0000
0001
0000
,  // measure 18
0110
0000
0000
0010
1000
0000
1000
0000
0000
0001
0010
0000
0100
0010
0100
0010
,  // measure 19
0200
0000
0000
1300
0001
0000
0001
0000
0000
0100
0010
0000
0010
0000
1000
0000
,  // measure 20
1001
0000
0001
0010
0001
0000
1000
0010
1000
0010
0100
0001
0010
0100
1000
0010
,  // measure 21
0200
0000
0000
0310
1000
0000
1000
0000
0000
0100
0010
0000
0010
0000
0001
0000
,  // measure 22
0101
0000
0000
0010
1000
0000
1000
0000
0000
0001
0100
0000
0100
0000
0010
0000
,  // measure 23
0200
0000
0000
0310
0100
0000
0100
0000
0000
1000
0001
0000
0001
0000
0010
0000
,  // measure 24
1100
0000
1000
0001
0010
0000
0100
0000
0200
0000
0000
1300
0010
0000
0101
0000
,  // measure 25
0101
0000
0001
0010
0100
0000
0100
0000
1100
0000
1100
0000
0101
0000
0001
0010
,  // measure 26
0200
0000
0010
0000
1300
0000
0001
0000
0200
0000
0000
0310
1000
0000
1100
0000
,  // measure 27
1100
0000
1000
0010
0100
0000
0100
0000
0101
0000
0101
0000
1100
0000
0100
0010
,  // measure 28
0001
0000
0001
0010
0100
0010
0001
0010
0200
0000
0000
1300
0010
0000
0101
0000
,  // measure 29
0101
0000
0001
1000
0100
0000
0010
0000
0011
0000
0011
0000
0101
0000
0001
0000
,  // measure 30
1000
0100
0010
0001
0010
0100
1000
0010
0200
0000
0000
0310
1000
0000
0011
0000
,  // measure 31
0011
0000
0100
1000
0001
0000
0100
0001
1000
0000
0100
0010
0001
0000
0010
0100
,  // measure 32
1000
0000
0010
0100
0001
1000
0001
0010
0200
0000
0000
1300
0020
0000
0001
0000
,  // measure 33
0100
0000
0031
0010
1000
0000
0100
0000
0021
0000
1000
0000
0001
0000
1030
0010
,  // measure 34
0001
0000
0010
0000
0100
0000
1000
0000
0200
0000
0000
0301
0200
0000
1000
0000
,  // measure 35
0001
0000
1300
0100
0001
0000
0100
0000
1200
0000
0001
0000
1000
0000
0301
0100
,  // measure 36
1000
0010
0100
0001
0010
0100
0010
0001
0200
0000
0000
0310
0200
0000
1000
0000
,  // measure 37
0001
0000
1300
0100
0001
0000
0100
0000
1020
0000
0001
0000
1000
0000
0031
0010
,  // measure 38
1000
0000
0100
0000
0010
0000
0001
0000
0200
0000
0000
1300
0200
0000
0001
0000
,  // measure 39
1000
0000
0301
0010
1000
0000
0001
0000
1001
0000
0001
0010
0100
0000
0100
0000
,  // measure 40
0000
0100
1000
0000
1000
0000
0001
0000
0200
0000
0000
0000
0000
0000
0000
0000
,  // measure 41
0000
0000
0320
0000
,  // measure 42
2030
0000
3200
0000
,  // measure 43
0000
0000
0320
0000
,  // measure 44
0032
0000
0000
0000
0000
0000
1003
0100
0000
0000
0000
0000
0000
0000
0000
0000
;

//---------------dance-single - ----------------
#NOTES:
     dance-single:
     :
     Medium:
     6:
     0.344218,0.507857,0.295238,0.066667,0.080952,253.000000,222.000000,31.000000,7.000000,0.000000,0.000000,0.344218,0.507857,0.295238,0.066667,0.080952,253.000000,222.000000,31.000000,7.000000,0.000000,0.000000:
// measure 0
0000
0000
0000
0000
,  // measure 1
0000
0000
0000
0000
,  // measure 2
0000
0000
0000
0000
,  // measure 3
0000
0000
0000
0000
,  // measure 4
0000
0000
0000
0000
,  // measure 5
0010
0000
0100
0000
1000
0000
0001
0010
,  // measure 6
0100
0000
0010
0000
0001
0000
0100
0010
,  // measure 7
1000
0000
0001
0000
0100
0000
0010
1000
,  // measure 8
0100
0000
0100
0000
0010
0000
0010
0001
,  // measure 9
0100
0000
0000
0001
0000
0000
0010
0000
0010
0000
0000
0100
0000
0000
1000
0000
,  // measure 10
0010
0000
0000
0010
0000
0000
0100
0000
0001
0000
0000
0001
0000
0000
0010
0000
,  // measure 11
0100
0000
0000
1000
0000
0000
0010
0000
0100
0000
0000
0001
0000
0000
1000
0000
,  // measure 12
0100
0000
0000
0010
0000
0000
0010
0000
0100
0000
0000
0100
0000
0000
0100
0000
,  // measure 13
1000
0001
0110
0000
0001
1000
0110
0000
,  // measure 14
0010
0000
0000
0010
0001
0000
0000
0000
0001
0100
0000
0100
0010
0000
0000
0000
,  // measure 15
1100
0001
0100
0000
0101
1000
0100
0000
,  // measure 16
0100
0010
0000
0010
0001
0000
0100
0010
0000
0010
1000
0000
1001
0000
0000
0000
,  // measure 17
0100
0000
0010
0010
0000
1000
1000
0000
,  // measure 18
0010
0000
0100
0100
0000
0001
0001
0000
,  // measure 19
0100
0000
0010
0010
0000
0100
0100
0000
,  // measure 20
0001
0010
0100
1000
,  // measure 21
0100
0000
0100
0100
0000
0010
0010
0000
,  // measure 22
1000
0000
0001
0001
0000
1000
1000
0000
,  // measure 23
0100
0000
0001
0001
0000
1000
1000
0000
,  // measure 24
0010
0000
0100
0000
0110
0000
1000
0001
,  // measure 25
1000
0010
0010
0000
0001
1000
0001
0100
,  // measure 26
0100
0010
1000
0100
0110
0000
0010
0001
,  // measure 27
0010
0100
0100
0000
1000
0100
1000
0010
,  // measure 28
0010
0000
0100
0000
0110
0000
0100
0001
,  // measure 29
0100
0010
0010
0000
1000
0100
1000
0010
,  // measure 30
0010
0100
0001
1000
0100
0000
0010
0010
,  // measure 31
0001
1000
0010
0000
0100
0000
0001
0010
,  // measure 32
0100
1000
0010
0100
0110
0000
1001
1001
,  // measure 33
1001
0100
0010
0000
1001
1001
1001
0010
,  // measure 34
0100
0001
1001
0100
0110
0000
0011
0011
,  // measure 35
0011
0100
1000
0000
1010
1010
1010
0001
,  // measure 36
0100
0010
1001
0010
0110
0000
1100
1100
,  // measure 37
1001
0010
0100
0000
0011
0011
1001
0100
,  // measure 38
0010
0000
0000
0000
0010
0000
0000
0000
0100
0000
0000
0010
1000
0000
1000
0000
,  // measure 39
0000
0010
0001
0000
0001
0000
0100
0000
0010
0000
0000
0000
1000
0000
0000
0000
,  // measure 40
0100
0010
0001
1000
0200
0000
0000
0000
,  // measure 41
0000
0000
0320
0000
,  // measure 42
0032
0000
0203
0000
,  // measure 43
0000
0000
0320
0000
,  // measure 44
2030
0000
0000
0000
0000
0000
3200
0300
0000
0000
0000
0000
0000
0000
0000
0000
;

//---------------dance-single - ----------------
#NOTES:
     dance-single:
     :
     Easy:
     3:
     0.240816,0.296667,0.057143,0.076190,0.000000,177.000000,171.000000,6.000000,8.000000,0.000000,0.000000,0.240816,0.296667,0.057143,0.076190,0.000000,177.000000,171.000000,6.000000,8.000000,0.000000,0.000000:
// measure 0
0000
0000
0000
0000
,  // measure 1
0000
0000
0000
0000
,  // measure 2
0000
0000
0000
0000
,  // measure 3
0000
0000
0000
0000
,  // measure 4
0000
0000
0000
0000
,  // measure 5
0010
0010
0010
0000
,  // measure 6
0100
0100
0100
0000
,  // measure 7
0001
1000
0001
0000
,  // measure 8
1000
0001
1000
0000
,  // measure 9
0001
0000
0000
0001
0010
0000
0000
0100
,  // measure 10
1000
0000
0000
1000
0010
0000
0000
0010
,  // measure 11
0100
0000
0000
0001
0001
0000
0000
1000
,  // measure 12
1000
0000
0000
0010
0010
0000
0000
0000
,  // measure 13
0100
0000
1001
0000
0010
0100
0010
0000
,  // measure 14
1000
0100
0010
0000
1001
0000
0110
0000
,  // measure 15
0100
0000
0010
0100
0010
0000
1000
0100
,  // measure 16
1000
0000
0001
0100
0001
0000
0010
0000
,  // measure 17
0100
0100
0100
0100
,  // measure 18
1000
1000
1000
1000
,  // measure 19
0001
0001
0001
0001
,  // measure 20
0010
0010
0010
0010
,  // measure 21
0100
1000
0100
0000
0001
0010
0001
0000
,  // measure 22
1000
0010
1000
0000
0001
0010
0001
0000
,  // measure 23
0100
0100
0010
0010
,  // measure 24
1001
0000
0000
0000
0000
0000
0000
0000
2002
0000
0000
0000
0000
0000
0000
3003
0010
0000
0000
0000
0000
0000
0000
0000
0100
0000
0000
0000
0010
0000
0000
0000
,  // measure 25
0100
0000
0010
0000
0100
0010
0100
0000
,  // measure 26
0001
0000
1000
0000
0100
0000
0010
0100
,  // measure 27
0010
0000
0100
0000
0010
0100
0010
0000
,  // measure 28
0100
0000
1001
0000
0001
0000
1000
0100
,  // measure 29
1000
0000
0001
0000
1000
0100
1000
0000
,  // measure 30
0001
0000
1000
0000
0010
0000
0100
0001
,  // measure 31
0100
0010
1000
0010
,  // measure 32
0100
0100
0001
0000
0010
0000
0100
0010
,  // measure 33
0100
0010
0100
0000
0001
1000
0001
1000
,  // measure 34
0001
0000
0100
0000
0010
0000
1000
0001
,  // measure 35
1000
0001
1000
0000
0010
0100
0010
0100
,  // measure 36
0010
0000
0010
0000
1000
0000
0100
1000
,  // measure 37
0100
0000
0010
0000
0001
0100
0001
0000
,  // measure 38
0100
0000
0100
0000
0010
0000
1000
0001
,  // measure 39
1000
0010
0100
0001
,  // measure 40
0010
0100
0200
0000
,  // measure 41
0000
0300
2000
3000
,  // measure 42
0002
0003
0200
0000
,  // measure 43
0000
0300
0020
0030
,  // measure 44
0200
0000
0300
0000
;
