#TITLE:Cheat Codes;
#SUBTITLE:;
#ARTIST:Nitro Fun;
#TITLETRANSLIT:;
#SUBTITLETRANSLIT:;
#ARTISTTRANSLIT:;
#GENRE:;
#CREDIT:;
#BANNER:[Show & Tell] - Cheat Codes.png;
#BACKGROUND:[Show & Tell] - Cheat Codes-bg.png;
#LYRICSPATH:;
#CDTITLE:;
#MUSIC:[Show & Tell] - Cheat Codes.ogg;
#OFFSET:-0.040000;
#SAMPLESTART:37.540020;
#SAMPLELENGTH:9.240005;
#SELECTABLE:YES;
#BPMS:0.000000=128.000000
;
#STOPS:
;
#BGCHANGES:;
#KEYSOUNDS:;
#ATTACKS:;

//---------------dance-single - ----------------
#NOTES:
     dance-single:
     :
     Hard:
     9:
     0.450140,0.640460,0.348968,0.205276,0.302781,307.000000,273.000000,34.000000,20.000000,0.000000,0.000000,0.450140,0.640460,0.348968,0.205276,0.302781,307.000000,273.000000,34.000000,20.000000,0.000000,0.000000:
// measure 0
0000
0000
0000
0000
,  // measure 1
0000
0000
0000
0000
,  // measure 2
0000
0000
0000
0000
,  // measure 3
0000
0000
0000
0000
,  // measure 4
0002
0000
1000
0000
0000
0000
1003
0020
,  // measure 5
0000
0000
0100
0000
0230
0000
0301
0200
,  // measure 6
0000
0000
0010
0000
0000
0000
0301
2000
,  // measure 7
0000
0000
0100
0000
0200
3000
1300
0000
,  // measure 8
2000
0000
0000
0000
0000
0000
3000
0200
,  // measure 9
0000
0000
0000
0000
2300
0000
3000
0020
,  // measure 10
0000
0000
0000
0000
0000
0000
0030
0200
,  // measure 11
0000
0000
2300
0000
,  // measure 12
3200
0000
0000
0000
0000
0000
0300
0002
,  // measure 13
0000
0000
0000
0000
0023
0000
0030
0002
,  // measure 14
0000
0000
0000
0000
0000
0000
0003
2000
,  // measure 15
0000
0000
3020
0130
,  // measure 16
1001
0000
0001
0000
0010
0000
0100
0000
1000
0000
0010
0000
0000
0110
0000
0000
,  // measure 17
0101
0000
0001
0000
0100
0000
0010
0000
1000
0000
0100
0000
0000
1100
0000
0000
,  // measure 18
1010
0000
0010
0000
0100
0000
0001
0000
1000
0000
0100
0000
0000
0110
0000
0000
,  // measure 19
1100
0000
1000
0000
0100
0000
1000
0000
0001
0000
0010
0000
0000
0011
0000
0000
,  // measure 20
0110
0000
0000
0000
1010
0000
0000
0000
1000
0000
0001
0100
0000
0010
0000
0000
,  // measure 21
0110
0000
0000
0000
0101
0000
0000
0000
0001
0000
0100
0001
0000
1000
0000
0000
,  // measure 22
1100
0000
0000
0000
0110
0000
0000
0000
0010
0000
0100
0010
0000
0001
0000
0000
,  // measure 23
1001
0000
0000
0000
0101
0000
0000
0000
0100
0000
0001
1000
0000
0100
0000
0000
,  // measure 24
0110
0000
0000
0000
0010
0000
0000
0000
0001
0000
0000
0010
0100
0000
0010
0000
,  // measure 25
0001
0000
0000
0000
1000
0000
0000
0000
0010
0000
0000
0100
1000
0000
0100
0000
,  // measure 26
0001
0000
0000
0000
0010
0000
0000
0000
0100
0000
0000
0100
1000
0000
0001
0000
,  // measure 27
0100
0000
0000
0000
0010
0000
0000
0000
0100
0000
0000
0100
0001
0000
0010
0000
,  // measure 28
0001
0000
0100
0000
0010
0000
0100
0000
0001
0000
1000
0000
0100
0000
0010
0100
,  // measure 29
0010
0000
0100
0000
1000
0000
0100
0000
0010
0000
0001
1000
0010
0000
0100
0000
,  // measure 30
0010
1000
0001
1000
0100
1000
0001
0100
0001
0010
0001
0010
0100
1000
0100
0010
,  // measure 31
0002
0000
0000
0103
,  // measure 32
0010
0000
0000
0000
0101
0000
0000
0000
0001
1000
0100
0000
0010
0000
0100
0000
,  // measure 33
0010
0000
0000
0000
0011
0000
0010
0001
0000
0001
1000
0010
0100
0000
0010
0000
,  // measure 34
0110
0000
0000
0000
1001
0000
0001
1000
0000
0001
0100
0000
1000
0000
0100
0000
,  // measure 35
0110
0000
0010
0000
1000
0000
0001
0000
0000
0000
1000
0000
0100
0010
0000
0010
,  // measure 36
0100
0000
0000
0000
1001
0000
0000
0000
1000
0010
0000
1000
0100
0000
1000
0000
,  // measure 37
0010
0000
0100
0000
0001
0000
0100
0010
0000
0010
0100
0001
1000
0000
0100
0000
,  // measure 38
0110
0000
0000
0000
1001
0000
0001
0010
0000
0010
1000
0000
0001
0000
0100
0000
,  // measure 39
1100
0000
0100
0000
0010
0000
0100
0000
1000
0000
0010
0000
0100
0001
0000
0001
,  // measure 40
0200
0000
0000
0000
1300
0000
0000
0100
0001
1000
0001
0000
0010
0000
0001
0000
,  // measure 41
0101
0000
0000
0000
1010
0000
0010
1000
0000
1000
0010
0001
0010
0000
0100
0000
,  // measure 42
0110
0000
0000
0000
0101
0000
0001
1000
0000
1000
0100
0000
0010
0000
0001
0000
,  // measure 43
1000
0000
0100
0000
0001
0000
0100
0000
0010
0000
0100
1000
0000
0010
0100
0000
,  // measure 44
0010
0000
0000
0000
1001
0000
0000
0000
0001
0100
0001
0000
0100
0000
0010
0000
,  // measure 45
0100
0010
1000
0000
0100
0000
0010
0100
0000
0100
0010
0001
1000
0000
0010
0000
,  // measure 46
0110
0000
0000
0000
1001
0000
0001
1000
0000
1000
0100
0000
0001
0000
0100
0000
,  // measure 47
0110
0010
0001
1000
0000
0010
0100
0001
,  // measure 48
0010
0000
0000
0000
;

//---------------dance-single - ----------------
#NOTES:
     dance-single:
     :
     Medium:
     7:
     0.394422,0.418762,0.102638,0.051319,0.056451,269.000000,259.000000,10.000000,5.000000,0.000000,0.000000,0.394422,0.418762,0.102638,0.051319,0.056451,269.000000,259.000000,10.000000,5.000000,0.000000,0.000000:
0000
0000
0000
0000
,
0000
0000
0000
0000
,
0000
0000
0000
0000
,
0000
0000
0000
0000
,
1000
0000
0100
0000
1000
0010
0100
0000
,
0001
0000
1000
0000
0001
0010
0100
0000
,
0010
0000
0100
0000
0010
0100
0010
0000
,
0100
0000
1000
0000
0001
1000
0001
0000
,
0100
0000
0010
0000
0100
0001
1000
0001
,
0010
0000
0100
0000
0010
0100
0010
0100
,
1000
0000
0001
0000
1000
0001
1000
0001
,
0100
0000
0010
0000
0100
0010
0100
0010
,
1000
0000
0100
0000
1000
0100
0010
0100
,
0010
0000
0100
0000
0010
0001
1000
0001
,
0100
0000
0010
0000
0100
0010
1000
0010
,
0100
0000
0001
0000
1000
0001
1000
0100
,
0020
0000
0000
0000
0000
0000
0000
0000
0031
0000
0010
0000
0000
0100
0000
0000
,
2000
0000
0000
0000
0000
0000
0000
0000
3010
0000
1000
0000
0000
0100
0000
0000
,
0020
0000
0000
0000
0000
0000
0000
0000
0130
0000
0010
0000
0000
0001
0000
0000
,
0200
0000
0000
0000
0000
0000
0000
0000
0310
0000
0100
0000
0000
0010
0000
0000
,
1000
0000
0100
0000
1000
0000
0010
0000
0100
0000
0010
0000
0000
1000
0000
0000
,
0100
0000
0010
0000
0100
0000
0010
0000
0001
0000
1000
0000
0000
0010
0000
0000
,
0100
0000
0010
0000
1000
0000
0100
0000
1000
0000
0001
0000
0000
0100
0000
0000
,
0010
0100
0010
0100
0001
0010
0100
1000
,
0010
0000
1000
0000
1000
0010
0100
1000
,
0100
0000
0001
0000
0010
0100
0010
1000
,
0010
0000
0100
0000
0010
0001
1000
0010
,
0100
0000
0010
0000
0100
0010
0100
0001
,
1000
0100
1000
0100
0010
0001
0010
0001
,
1000
0010
1000
0010
0100
0001
0100
0001
,
1000
1000
0001
0001
0010
0010
0100
0100
,
0020
0000
0000
0130
,
0010
0000
0110
0000
0010
0100
1000
1000
,
0010
0000
0000
0000
1000
0000
0000
0010
0000
0000
0100
0000
1000
0000
0100
0000
,
0001
0000
0010
0000
0100
0010
0110
0000
,
0100
0010
0001
0100
0000
0100
0001
1000
,
0100
0000
0110
0000
0000
0100
0010
0100
,
1000
0000
0000
0000
0001
0000
0000
1000
0000
0000
1000
0000
0100
0000
0001
0000
,
0100
0000
0010
0000
0100
1000
1100
0000
,
1000
0010
0100
0001
0000
0010
0001
0010
,
0100
0000
0110
0000
0010
0001
0011
0010
,
0001
0000
0000
0000
1000
0000
0000
0010
0000
0000
0100
0000
0010
0000
0100
0000
,
0001
0000
1000
0000
0001
1000
1001
0000
,
0001
1000
0100
0010
0000
0100
0010
0100
,
1000
0000
1010
0000
1000
0010
0110
0100
,
0001
0000
0000
0000
0010
0000
0000
0001
0000
0000
0010
0000
1000
0000
0010
0000
,
0100
0000
1000
0000
0010
0100
0110
0000
,
0010
0100
0001
1000
0000
0001
1000
0100
,
0010
0000
0000
0000
;

//---------------dance-single - ----------------
#NOTES:
     dance-single:
     :
     Easy:
     4:
     0.287386,0.369496,0.051319,0.277122,0.041055,196.000000,191.000000,5.000000,27.000000,0.000000,0.000000,0.287386,0.369496,0.051319,0.277122,0.041055,196.000000,191.000000,5.000000,27.000000,0.000000,0.000000:
0000
0000
0000
0000
,
0000
0000
0000
0000
,
0000
0000
0000
0000
,
0000
0000
0000
0000
,
2000
0000
0000
0000
0000
0000
3000
0200
,
0000
0000
0000
0000
2300
0000
3000
0020
,
0000
0000
0000
0000
0000
0000
0030
0200
,
0000
0000
0302
0000
,
0023
0000
0000
0000
0000
0000
0030
0200
,
0000
0000
0000
0000
2300
0000
3000
0002
,
0000
0000
0000
0000
0000
0000
0003
2000
,
0000
0000
3200
0000
,
0320
0000
0000
0000
0000
0000
0030
0002
,
0000
0000
0000
0000
0203
0000
0300
0020
,
0000
0000
0000
0000
0000
0000
0030
0200
,
0000
0000
0320
1030
,
2002
0000
0000
0000
0000
0000
0000
0000
3003
0000
0001
0000
0000
1000
0000
0000
,
2020
0000
0000
0000
0000
0000
0000
0000
3030
0000
1000
0000
0000
0100
0000
0000
,
0022
0000
0000
0000
0000
0000
0000
0000
0033
0000
0001
0000
0000
0010
0000
0000
,
0220
0000
0000
0000
0000
0000
0000
0000
0330
0000
0100
0000
0000
0010
0000
0000
,
0011
0000
0000
0000
0001
0000
0000
0000
1000
0000
0010
0000
0000
0100
0000
0000
,
0010
0000
0000
0000
0100
0000
0000
0000
0001
0000
1000
0000
0000
0100
0000
0000
,
0010
0000
0000
0000
0100
0000
0000
0000
0010
0000
0001
0000
0000
1000
0000
0000
,
0010
0000
0000
0000
1000
0000
0000
0000
0001
0000
1000
0000
0000
0100
0000
0000
,
0010
0000
0010
0000
0100
1000
0010
0100
,
0010
0000
0010
0000
0100
0001
1000
0100
,
0010
0000
0010
0000
0001
1000
0001
0100
,
0010
0000
0010
0000
0100
0001
1000
0100
,
0010
0010
0100
0100
,
1000
1000
0001
0001
,
1000
0001
0100
0001
0010
0001
1000
0100
,
0020
0000
0000
0031
,
0010
0000
0001
0000
1000
0010
0100
0001
,
1000
0000
0001
0000
1000
0100
1000
0100
,
0100
0000
0100
0000
0010
0100
1000
0000
,
0001
0100
1000
0100
0000
0010
0100
0010
,
0100
0000
0001
0000
1000
0100
0010
0001
,
0010
0000
0100
0000
0010
0100
0010
0100
,
0100
0000
1000
0000
0001
1000
0001
0000
,
1000
0010
0100
0010
0100
0001
0010
1000
,
0010
0000
0001
0000
1000
0010
0100
0010
,
0100
0000
0001
0000
1000
1000
0100
0010
,
0100
0000
1000
0000
0001
1000
0001
1000
,
0010
0000
0100
0000
0010
0100
0010
0100
,
0001
0000
1000
0000
0010
0100
0010
0010
,
1000
0000
0001
0000
0010
0010
0100
0010
,
0001
0000
1000
0000
0010
1000
0001
0000
,
1000
0100
1000
0100
0000
0010
0001
0100
,
0010
0000
0000
0000
;
