#VERSION:0.83;
#TITLE:Castle Of Dreams;
#SUBTITLE:;
#ARTIST:Sirius Isness;
#TITLETRANSLIT:;
#SUBTITLETRANSLIT:;
#ARTISTTRANSLIT:;
#GENRE:;
#ORIGIN:;
#CREDIT:;
#BANNER:Castle Of Dreams.png;
#BACKGROUND:Castle Of Dreams-bg.png;
#PREVIEWVID:;
#JACKET:Castle Of Dreams-jacket.png;
#CDIMAGE:;
#DISCIMAGE:;
#LYRICSPATH:;
#CDTITLE:;
#MUSIC:Castle Of Dreams.mp3;
#OFFSET:-0.048000;
#SAMPLESTART:13.285378;
#SAMPLELENGTH:11.586207;
#SELECTABLE:YES;
#BPMS:0.000=145.000;
#STOPS:;
#DELAYS:;
#WARPS:;
#TIMESIGNATURES:0.000=4=4;
#TICKCOUNTS:0.000=4;
#COMBOS:0.000=1;
#SPEEDS:0.000=1.000=0.000=0;
#SCROLLS:0.000=1.000;
#FAKES:;
#LABELS:0.000=Song Start;
#BGCHANGES:;
#KEYSOUNDS:;
#ATTACKS:
;

//---------------dance-single - ----------------
#NOTEDATA:;
#CHARTNAME:;
#STEPSTYPE:dance-single;
#DESCRIPTION:;
#CHARTSTYLE:;
#DIFFICULTY:Hard;
#METER:8;
#RADARVALUES:0.469893,0.550434,0.117774,0.117774,0.353321,391.000000,377.000000,14.000000,14.000000,0.000000,0.000000,2.000000,0.000000,0.000000,0.469893,0.550434,0.117774,0.117774,0.353321,391.000000,377.000000,14.000000,14.000000,0.000000,0.000000,2.000000,0.000000,0.000000;
#CREDIT:;
#NOTES:
// measure 0
0000
0000
0000
0000
,  // measure 1
0000
0000
0000
0000
,  // measure 2
0000
0000
0000
0000
,  // measure 3
0000
0000
0000
0000
,  // measure 4
1000
0000
0000
1000
0000
0000
0000
0000
0001
0000
0000
0001
0000
0000
0000
0000
,  // measure 5
0200
0000
0000
0300
0020
0000
0000
0030
,  // measure 6
2000
3200
0302
0023
,  // measure 7
0030
0000
1000
0001
0000
0100
0000
0000
0010
0000
1000
0000
0200
0000
0000
0000
,  // measure 8
1300
0000
0001
0100
0000
0000
0001
0000
0010
0000
0000
0100
0000
0000
1000
0000
,  // measure 9
0001
0000
0100
0010
0000
0000
0100
0000
0001
0000
0000
0010
0000
0000
0100
0000
,  // measure 10
1000
0000
0010
0100
0000
0000
0010
0000
1000
0000
0000
0001
0000
0000
0010
0000
,  // measure 11
0001
0000
1000
0100
0000
0000
1000
0000
0010
0000
0000
0100
0000
0000
0001
0000
,  // measure 12
0100
0000
0010
1000
0000
0000
0100
0000
1000
0000
0000
0001
0000
0000
0100
0000
,  // measure 13
0001
0000
0010
0100
0000
0000
1000
0000
0010
0000
0000
0100
0000
0000
0001
0000
,  // measure 14
1001
0010
1001
0100
,  // measure 15
1001
0000
0000
0000
0010
0000
0000
0000
1001
0000
0000
0000
0100
0000
0000
0001
,  // measure 16
0100
0000
0000
0100
0010
0000
0000
0010
1000
0000
0000
1000
0100
0000
0000
0100
,  // measure 17
0010
0000
0000
0010
0001
0000
0000
0001
1000
0000
0000
1000
0010
0000
0000
0010
,  // measure 18
0100
0001
0100
0001
1000
0010
1000
0010
,  // measure 19
0100
0000
0010
0100
0000
0010
0100
0000
0001
0000
0010
0001
0000
0000
0100
0000
,  // measure 20
1001
0000
0000
0000
0000
0000
0000
0000
1000
0010
0000
0100
0001
0100
0000
0001
,  // measure 21
1000
0000
0000
0000
0001
0010
0001
0010
,  // measure 22
0001
0000
0000
0000
0000
0000
0000
0000
1000
0010
0000
0010
0100
0010
0000
0100
,  // measure 23
0001
0000
0000
0000
2000
0000
3001
0100
,  // measure 24
0010
0000
0000
0000
0000
0000
0000
0000
1000
0010
0000
0010
0100
0001
0000
1000
,  // measure 25
0001
0000
0000
0000
0000
0000
0000
0000
0000
0000
0000
0000
0100
0000
0010
0000
0100
0000
0001
0000
0000
1000
0000
0000
,  // measure 26
0100
0000
0000
0000
0000
0000
0000
0000
0010
0100
0000
0010
0001
1000
0000
1000
,  // measure 27
0001
0000
0000
0000
1000
0100
1000
0100
,  // measure 28
0010
0000
0001
0100
0000
0001
0100
0010
,  // measure 29
1000
0000
0100
0000
0010
0001
0010
0001
,  // measure 30
0010
0000
0100
0000
1000
0001
1000
0001
,  // measure 31
1000
0000
0010
0000
0100
0001
0100
0001
,  // measure 32
0100
0000
0010
1000
0000
0001
0010
0100
,  // measure 33
1000
0100
0011
1010
,  // measure 34
1001
0001
0101
1100
,  // measure 35
1001
1000
0110
1001
,  // measure 36
1000
0100
1000
0100
0010
0100
0010
0100
,  // measure 37
0010
0001
0010
0001
1000
0001
1000
0001
,  // measure 38
0100
0010
0100
0010
0100
0001
0100
0001
,  // measure 39
0010
0100
0010
0100
1000
0100
1000
0100
,  // measure 40
1000
0000
0000
0001
0100
0000
0000
0100
0010
0000
0000
0010
0100
0000
0000
0100
,  // measure 41
0001
0000
0000
0001
0010
0000
0000
0010
0100
0000
0000
0100
1000
0000
0000
1000
,  // measure 42
0001
1000
0001
1000
0001
1000
0001
1000
,  // measure 43
0040
0400
0000
0000
0000
0000
0000
0000
0000
0000
0000
0000
0000
0000
0330
0000
,  // measure 44
1000
0000
0001
0100
0000
0100
0010
1000
,  // measure 45
0000
0000
0000
0000
,  // measure 46
0001
0000
0100
0000
,  // measure 47
0001
0000
1000
0000
,  // measure 48
0100
0000
0000
1000
0010
0000
0000
0100
,  // measure 49
0001
0000
0000
0010
0100
0000
0000
1000
,  // measure 50
0100
0000
0000
1000
0010
0000
0000
0100
,  // measure 51
0001
1000
0001
0000
1000
0000
0100
0000
0020
0000
0000
0000
0032
0000
0000
0000
,  // measure 52
1003
0000
0000
0001
0000
0000
0100
0000
0010
0000
0000
1000
0000
0000
0010
0000
,  // measure 53
0100
0000
0000
0001
0000
0000
0010
0000
0100
0000
0000
0010
0000
0000
0001
0000
,  // measure 54
1000
0000
0000
0010
0000
0000
0100
0000
0001
0000
0000
1000
0000
0000
0100
0000
,  // measure 55
0010
0000
0000
0100
0000
0000
0010
0000
0001
0000
0000
1000
0000
0000
0010
0000
,  // measure 56
0100
0000
0000
0001
0000
0000
1000
0000
0100
0000
0000
1000
0000
0000
0010
0000
,  // measure 57
0100
0000
0000
0001
0000
0000
1000
0000
0010
0000
0000
0100
0000
0000
0001
0000
,  // measure 58
0010
0000
0000
0001
0000
0000
0010
0000
0100
0000
0000
0010
0000
0000
0100
0000
,  // measure 59
1000
0000
0000
0100
0000
0000
1000
0000
0010
0000
0000
0100
0000
0000
0001
0000
,  // measure 60
1001
0000
0001
1000
0000
0100
0010
0001
,  // measure 61
1000
0000
0000
0010
0000
0000
0001
0000
0010
0000
0000
0100
0000
0000
0001
0000
,  // measure 62
0010
0000
0000
1000
0000
0000
0010
0000
0100
0000
0000
1000
0000
0000
0001
0000
,  // measure 63
0100
0000
0000
0010
0000
0000
1000
0000
0001
0000
0000
0100
0000
0000
0001
0000
,  // measure 64
0010
0000
0000
0100
0000
0000
1000
0000
0001
0000
0000
0100
0000
0000
0001
0000
,  // measure 65
0010
0000
0000
0100
0000
0000
1000
0000
0100
0000
0000
0001
0000
0000
0100
0000
,  // measure 66
0010
0000
0000
0001
0000
0000
0010
0000
0100
0000
0000
0010
0000
0000
0001
0000
,  // measure 67
2000
3200
0320
0032
,  // measure 68
1003
0000
0100
0010
0000
0001
1000
0001
;

//---------------dance-single - ----------------
#NOTEDATA:;
#CHARTNAME:;
#STEPSTYPE:dance-single;
#DESCRIPTION:;
#CHARTSTYLE:;
#DIFFICULTY:Easy;
#METER:3;
#RADARVALUES:0.212714,0.492494,0.193485,0.185073,0.000000,177.000000,154.000000,23.000000,22.000000,0.000000,0.000000,0.000000,0.000000,0.000000,0.212714,0.492494,0.193485,0.185073,0.000000,177.000000,154.000000,23.000000,22.000000,0.000000,0.000000,0.000000,0.000000,0.000000;
#CREDIT:;
#NOTES:
// measure 0
0000
0000
0000
0000
,  // measure 1
0000
0000
0000
0000
,  // measure 2
0000
0000
0000
0000
,  // measure 3
0000
0000
0000
0000
,  // measure 4
0000
0000
0000
0000
,  // measure 5
0000
0000
0000
0000
,  // measure 6
0000
0000
0000
0000
,  // measure 7
0000
0000
0000
0000
,  // measure 8
1001
1000
0100
0000
,  // measure 9
1000
0001
0100
0000
,  // measure 10
0001
1000
0010
0000
,  // measure 11
1000
0001
0010
0000
,  // measure 12
1001
1000
0001
0000
,  // measure 13
1001
0001
1000
0000
,  // measure 14
1001
0000
1001
0000
,  // measure 15
0110
0000
0110
0000
,  // measure 16
1001
1001
0110
0110
,  // measure 17
1001
1001
0110
0110
,  // measure 18
1000
1000
1000
1000
,  // measure 19
0020
0000
0000
0030
,  // measure 20
1001
0000
1000
0001
,  // measure 21
0100
0000
0001
0001
,  // measure 22
0001
0000
1000
0100
,  // measure 23
1000
0000
0020
1030
,  // measure 24
0001
0000
0010
0001
,  // measure 25
0010
0000
0200
1300
,  // measure 26
0100
0000
0010
0001
,  // measure 27
1000
0000
0001
1000
,  // measure 28
0010
1000
0100
1000
,  // measure 29
0001
0000
1000
0001
,  // measure 30
1001
0000
0001
0100
,  // measure 31
0101
0000
0001
1000
,  // measure 32
1010
0000
1000
0100
,  // measure 33
1100
0000
1000
0001
,  // measure 34
0101
0000
0001
1000
,  // measure 35
1010
0000
1000
0001
,  // measure 36
0021
0030
0002
0003
,  // measure 37
0200
0300
0020
0030
,  // measure 38
2000
3000
0200
0300
,  // measure 39
0020
0030
0002
0003
,  // measure 40
2000
3001
2000
3100
,  // measure 41
2000
3010
2000
3001
,  // measure 42
2000
3200
0320
0032
,  // measure 43
2000
0000
0000
0000
,  // measure 44
3003
0000
0000
0000
,  // measure 45
0000
0000
0000
0000
,  // measure 46
0000
0000
0000
0000
,  // measure 47
0000
0000
0000
0000
,  // measure 48
0001
0000
0100
0000
,  // measure 49
0010
0000
1000
0000
,  // measure 50
0001
0100
0010
1000
,  // measure 51
0002
0000
0000
0003
,  // measure 52
1000
0100
1000
0001
,  // measure 53
1000
0000
0001
0000
,  // measure 54
0100
0000
0010
0000
,  // measure 55
1000
0000
0100
0000
,  // measure 56
1000
0000
0001
0000
,  // measure 57
0010
0000
0001
0000
,  // measure 58
0100
0000
0010
0000
,  // measure 59
1000
0000
0100
0000
,  // measure 60
0010
0100
1000
0001
,  // measure 61
1000
0000
0010
0000
,  // measure 62
1000
0000
0001
0000
,  // measure 63
0010
0000
0001
0000
,  // measure 64
0100
0000
0010
0000
,  // measure 65
1000
0000
0100
0000
,  // measure 66
1000
0000
0001
0000
,  // measure 67
0200
0000
0000
0000
,  // measure 68
0310
0000
1000
0001
0000
1000
0000
0010
;

//---------------dance-single - ----------------
#NOTEDATA:;
#CHARTNAME:;
#STEPSTYPE:dance-single;
#DESCRIPTION:;
#CHARTSTYLE:;
#DIFFICULTY:Medium;
#METER:6;
#RADARVALUES:0.361734,0.492494,0.269197,0.243960,0.046268,301.000000,269.000000,32.000000,29.000000,0.000000,0.000000,0.000000,0.000000,0.000000,0.361734,0.492494,0.269197,0.243960,0.046268,301.000000,269.000000,32.000000,29.000000,0.000000,0.000000,0.000000,0.000000,0.000000;
#CREDIT:;
#NOTES:
// measure 0
0000
0000
0000
0000
,  // measure 1
0000
0000
0000
0000
,  // measure 2
0000
0000
0000
0000
,  // measure 3
0000
0000
0000
0000
,  // measure 4
1000
0000
0001
0000
,  // measure 5
2000
3000
0020
0030
,  // measure 6
0200
0302
2003
3020
,  // measure 7
0030
0000
0000
0000
1000
0001
1000
0000
,  // measure 8
0010
0000
0000
1000
0000
0000
0010
0000
1000
0000
0000
0000
0001
0000
0000
0000
,  // measure 9
0010
0000
0000
0001
0000
0000
0010
0000
0100
0000
0000
0000
1000
0000
0000
0000
,  // measure 10
0100
0000
0000
0010
0000
0000
0100
0000
0010
0000
0000
0000
0001
0000
0000
0000
,  // measure 11
1000
0000
0000
0010
0000
0000
1000
0000
0010
0000
0000
0000
0100
0000
0000
0000
,  // measure 12
0001
0000
0000
1000
0000
0000
0001
0000
0100
0000
0000
0000
0001
0000
0000
0000
,  // measure 13
1001
0010
0100
0001
,  // measure 14
1001
1000
0110
0001
,  // measure 15
0011
0010
0110
0100
,  // measure 16
1100
1100
0101
0101
,  // measure 17
0011
0011
1010
1010
,  // measure 18
0001
1000
0001
1000
0001
1000
0001
1000
,  // measure 19
0000
0000
0010
0000
0000
0100
0000
0000
0010
0000
0000
1000
0000
0000
0001
0000
,  // measure 20
1001
0000
1000
0010
,  // measure 21
0100
0000
0000
0000
0001
0010
0001
0010
,  // measure 22
0000
0000
0100
1000
,  // measure 23
0001
0000
0000
0000
1000
0000
0001
0100
,  // measure 24
0001
0000
0100
0010
,  // measure 25
1000
0000
0000
0000
0001
0000
1000
0001
,  // measure 26
0100
0000
0010
1000
,  // measure 27
0100
0000
0000
0000
0010
0001
0010
0001
,  // measure 28
1000
0000
0001
0100
0000
0010
1000
0100
,  // measure 29
0010
0000
0001
0100
,  // measure 30
1001
0000
1000
0010
,  // measure 31
0100
0010
1000
0001
,  // measure 32
1000
0000
1000
0010
0000
0100
0010
1000
,  // measure 33
0001
0010
1100
0101
,  // measure 34
1001
0001
0011
1010
,  // measure 35
1001
0001
1010
0101
,  // measure 36
0102
0013
2100
3010
,  // measure 37
0102
0013
2100
3010
,  // measure 38
0012
0103
1020
0130
,  // measure 39
0012
0103
1020
0130
,  // measure 40
0002
0203
0320
2030
,  // measure 41
3002
0023
0230
2300
,  // measure 42
3001
1000
0001
1000
0001
1000
0001
1000
,  // measure 43
0020
0000
0000
0000
,  // measure 44
0130
0000
0001
0010
0000
0010
0100
1000
,  // measure 45
0000
0000
0000
0000
,  // measure 46
0001
0000
1000
0000
,  // measure 47
0010
0000
0100
0000
,  // measure 48
0001
0000
0010
0000
,  // measure 49
0001
0000
1000
0000
,  // measure 50
0100
0000
1000
0000
,  // measure 51
2002
0000
0000
3003
,  // measure 52
0001
0000
0000
1000
0000
0000
0010
0000
0100
0000
0000
0001
0000
0000
0010
0000
,  // measure 53
0100
0000
1000
0100
1000
0000
0010
0000
,  // measure 54
0100
0000
0001
0010
0001
0000
1000
0000
,  // measure 55
0010
0000
0100
0001
0100
0000
0001
0000
,  // measure 56
1000
0000
0010
0100
0010
0000
1000
0000
,  // measure 57
0100
0000
0010
0001
0010
0000
0001
0000
,  // measure 58
1000
0000
0010
1000
0010
0000
0100
0000
,  // measure 59
0001
0000
0010
0001
0010
0000
0100
0000
,  // measure 60
1000
0000
0000
0100
0000
0000
1000
0000
0010
0000
0000
0100
0000
0000
0001
0000
,  // measure 61
0010
0000
0001
1000
0001
0000
0100
0000
,  // measure 62
0010
0000
1000
0010
0100
0000
0010
0000
,  // measure 63
1000
0000
0001
1000
0010
0000
1000
0000
,  // measure 64
0001
0000
0100
0010
1000
0000
0100
0000
,  // measure 65
0010
0000
0100
0010
0001
0000
1000
0000
,  // measure 66
0010
0000
0100
0010
1000
0000
0001
0000
,  // measure 67
2000
3020
0230
0302
,  // measure 68
1003
0000
0100
0010
0000
0010
0001
1000
;

//---------------dance-single - ----------------
#NOTEDATA:;
#CHARTNAME:;
#STEPSTYPE:dance-single;
#DESCRIPTION:;
#CHARTSTYLE:;
#DIFFICULTY:Beginner;
#METER:1;
#RADARVALUES:0.103352,0.171613,0.058887,0.000000,0.000000,86.000000,79.000000,7.000000,0.000000,0.000000,0.000000,0.000000,0.000000,0.000000,0.103352,0.171613,0.058887,0.000000,0.000000,86.000000,79.000000,7.000000,0.000000,0.000000,0.000000,0.000000,0.000000,0.000000;
#CREDIT:;
#NOTES:
// measure 0
0000
0000
0000
0000
,  // measure 1
0000
0000
0000
0000
,  // measure 2
0000
0000
0000
0000
,  // measure 3
0000
0000
0000
0000
,  // measure 4
1000
0000
0000
0000
,  // measure 5
0001
0000
0000
0000
,  // measure 6
1000
0000
0001
0000
,  // measure 7
1001
0000
0000
0000
,  // measure 8
0010
0000
0000
0000
,  // measure 9
0100
0000
0000
0000
,  // measure 10
0001
0000
0000
0000
,  // measure 11
1000
0000
0000
0000
,  // measure 12
0010
0000
0000
0000
,  // measure 13
1000
0000
0000
0000
,  // measure 14
0001
0000
0001
0000
,  // measure 15
1000
0000
1000
0000
,  // measure 16
0010
0000
0100
0000
,  // measure 17
0001
0000
1000
0000
,  // measure 18
0010
0000
0100
0000
,  // measure 19
1001
0000
0000
0000
,  // measure 20
0110
0000
0000
0000
,  // measure 21
0000
0000
1000
0000
,  // measure 22
0000
0000
0001
0000
,  // measure 23
0000
0000
0100
0000
,  // measure 24
0000
0000
0010
0000
,  // measure 25
0000
0000
1000
0000
,  // measure 26
0000
0000
1000
0000
,  // measure 27
0000
0000
0001
0000
,  // measure 28
0100
0000
0000
0000
,  // measure 29
0010
0000
0000
0000
,  // measure 30
1001
0000
0000
0000
,  // measure 31
1000
0000
0000
0000
,  // measure 32
0001
0000
0000
0000
,  // measure 33
0100
0000
0000
0000
,  // measure 34
0010
0000
0000
0000
,  // measure 35
1000
0000
0000
0000
,  // measure 36
0001
0000
1000
0000
,  // measure 37
0001
0000
1000
0000
,  // measure 38
0010
0000
0100
0000
,  // measure 39
0010
0000
0100
0000
,  // measure 40
0001
0000
0100
0000
,  // measure 41
0010
0000
1000
0000
,  // measure 42
0001
0000
0010
0000
,  // measure 43
0100
0000
1000
0000
,  // measure 44
1001
0000
0000
0000
,  // measure 45
0000
0000
0000
0000
,  // measure 46
0000
0000
0000
0000
,  // measure 47
0000
0000
0000
0000
,  // measure 48
1000
0000
0000
0000
,  // measure 49
0001
0000
0000
0000
,  // measure 50
0100
0000
0000
0000
,  // measure 51
0001
0000
0000
0000
,  // measure 52
1001
0000
1000
0000
,  // measure 53
0001
0000
0000
0000
,  // measure 54
0100
0000
0000
0000
,  // measure 55
0010
0000
0000
0000
,  // measure 56
1000
0000
0000
0000
,  // measure 57
0100
0000
0000
0000
,  // measure 58
1000
0000
0000
0000
,  // measure 59
0001
0000
0000
0000
,  // measure 60
1001
0000
0001
0000
,  // measure 61
0100
0000
0000
0000
,  // measure 62
0010
0000
0000
0000
,  // measure 63
1000
0000
0000
0000
,  // measure 64
0100
0000
0000
0000
,  // measure 65
1000
0000
0000
0000
,  // measure 66
0010
0000
0000
0000
,  // measure 67
0100
0000
0001
0000
,  // measure 68
1000
0000
0000
0000
;
