#TITLE:Candy Dash;
#SUBTITLE:;
#ARTIST:Ujico*;
#TITLETRANSLIT:;
#SUBTITLETRANSLIT:;
#ARTISTTRANSLIT:;
#GENRE:;
#CREDIT:;
#BANNER:[Show & Tell] - Candy Dash-bn.png;
#BACKGROUND:[Show & Tell] - Candy Dash-bg.png;
#LYRICSPATH:;
#CDTITLE:cdtitle.png;
#MUSIC:[Show & Tell] - Candy Dash.ogg;
#OFFSET:-5.143000;
#SAMPLESTART:68.824997;
#SAMPLELENGTH:12.000000;
#SELECTABLE:YES;
#BPMS:0.000000=196.000000
;
#STOPS:
;
#BGCHANGES:;
#KEYSOUNDS:;
#ATTACKS:;

//---------------dance-single - ----------------
#NOTES:
     dance-single:
     :
     Hard:
     9:
     0.616859,0.618229,0.641289,0.145359,0.012826,505.000000,430.000000,75.000000,17.000000,0.000000,0.000000,0.616859,0.618229,0.641289,0.145359,0.012826,505.000000,430.000000,75.000000,17.000000,0.000000,0.000000:
// measure 0
0000
0000
0000
0000
,  // measure 1
0000
0000
0000
0000
,  // measure 2
0000
0000
0000
0000
,  // measure 3
0000
0000
0000
0000
,  // measure 4
1010
0000
1000
0100
0010
0100
0000
1100
,  // measure 5
0000
1000
0010
0100
0000
0010
1000
0100
,  // measure 6
0010
0000
0011
0000
0001
1000
0000
1001
,  // measure 7
0000
0001
1000
0010
0100
0010
1000
0100
,  // measure 8
0010
0000
0001
0100
0010
0100
0000
0101
,  // measure 9
0000
0001
0010
1000
0010
0001
0100
0010
,  // measure 10
1010
0000
0000
1001
0000
0000
0022
0000
,  // measure 11
0000
0000
0033
2000
,  // measure 12
3001
0000
0100
0001
0100
1000
0100
0001
,  // measure 13
0000
0010
0100
0010
0000
0100
1000
0001
,  // measure 14
1000
0000
0001
0010
0100
0010
0000
0011
,  // measure 15
0000
0110
0000
1100
0000
0100
1000
0100
,  // measure 16
0010
0000
0001
0100
0000
0110
0000
1010
,  // measure 17
0000
1001
0000
0001
1000
0100
1000
0010
,  // measure 18
0100
0000
0100
0001
0000
0001
0010
0000
,  // measure 19
0001
0100
1000
0100
0010
1000
0010
0100
,  // measure 20
0001
0000
1000
1100
0000
0110
0000
0011
,  // measure 21
0000
0001
1000
0001
0000
1000
0001
1000
,  // measure 22
0100
0000
0010
0011
0000
0101
0000
0110
,  // measure 23
0000
1010
0000
1100
0000
0011
0000
0001
,  // measure 24
0100
0000
0001
1000
0001
0010
0100
1000
,  // measure 25
0100
0010
0001
0010
0100
0010
0001
0100
,  // measure 26
0010
0000
1000
1010
0000
0001
0101
0000
,  // measure 27
0000
0000
0000
0000
,  // measure 28
2000
3000
1000
0001
0010
0001
0000
0002
,  // measure 29
0000
0003
1000
0001
1000
0100
0000
0100
,  // measure 30
1000
0010
0100
0020
0000
0130
0001
0200
,  // measure 31
0000
0301
1000
0002
0000
1003
0100
0000
,  // measure 32
1000
0000
0000
1000
0000
0000
2000
0000
,  // measure 33
0000
0000
0000
3000
,  // measure 34
0001
0000
0000
0001
0000
0000
0002
0000
,  // measure 35
0000
0000
0003
2000
,  // measure 36
3001
0000
0100
0010
0100
0001
0010
0100
,  // measure 37
1000
0000
0000
0100
0000
0000
0010
0000
0000
0000
0001
0000
0000
0000
0101
0000
,  // measure 38
0000
1000
0000
1010
0000
0001
0000
0011
,  // measure 39
0000
0011
0000
1100
0000
1100
1100
0000
,  // measure 40
0010
0000
1000
0100
0000
1000
0010
1000
,  // measure 41
0100
0010
1000
0010
0100
1000
0010
0100
,  // measure 42
0001
0000
0000
0010
0000
0000
0100
0000
0000
0000
1000
0000
0001
0000
0100
0000
,  // measure 43
0010
0001
0010
0100
0001
0010
0100
1000
,  // measure 44
0010
0010
0000
0100
0100
0000
0001
0001
,  // measure 45
0000
0000
0000
0000
0000
0001
0100
0001
,  // measure 46
0010
0010
0000
0100
0100
0000
1000
1000
,  // measure 47
0000
0000
0000
0000
,  // measure 48
0101
0001
0000
1001
1000
0000
1100
0100
,  // measure 49
0000
0000
1000
0100
1000
0010
0100
0001
,  // measure 50
0101
0001
0000
1010
0010
0000
1001
1000
,  // measure 51
0000
0000
0010
1000
0010
0100
0002
1003
,  // measure 52
0001
0000
0010
1000
0010
0001
0010
0100
,  // measure 53
0000
0100
1000
0010
0000
0010
1000
0100
,  // measure 54
0010
0000
0001
0100
0010
0100
0000
0101
,  // measure 55
0000
1001
0000
1100
0000
0100
1000
0010
,  // measure 56
0100
0000
0001
0101
0000
1010
0000
1100
,  // measure 57
0000
0011
0000
0001
0100
0010
0001
0010
,  // measure 58
0100
0000
0100
0001
0000
0001
1000
0001
,  // measure 59
0010
1000
0010
0001
0100
0010
0100
0001
,  // measure 60
1000
0000
0100
1100
0000
1010
0000
0110
,  // measure 61
0000
0100
0001
0010
0000
0010
0001
0100
,  // measure 62
0010
0000
1000
1010
0000
1100
0000
0011
,  // measure 63
0000
1001
0000
1001
0000
0101
0000
0100
,  // measure 64
0010
0000
0100
0001
1000
0100
0010
0001
,  // measure 65
0010
0100
1000
0100
0010
0100
1000
0010
,  // measure 66
0100
0000
0001
0101
0000
1000
1100
0000
,  // measure 67
0000
0000
0000
0000
0001
0001
0002
0000
,  // measure 68
1003
0010
0100
1000
0100
0001
0010
0100
,  // measure 69
2000
0000
3001
0002
0000
0103
0100
0010
,  // measure 70
0000
1010
0000
0101
0000
0011
0000
1100
,  // measure 71
0000
1000
0100
0001
0100
0001
0100
1000
,  // measure 72
0010
0100
0100
0100
0000
0010
0100
0010
,  // measure 73
0000
1010
0000
1001
0000
0101
0000
0010
,  // measure 74
0001
0000
0010
0100
0000
1000
0100
1000
,  // measure 75
0010
0100
1000
0100
0001
0100
0010
1000
,  // measure 76
0001
0000
0010
0011
0000
0101
0000
0110
,  // measure 77
0000
1010
0000
1010
0000
1001
0000
0101
,  // measure 78
0000
0001
0010
0100
0010
0100
0000
0110
,  // measure 79
0000
1001
0000
0001
0100
0010
0100
0001
,  // measure 80
1000
0000
0100
0010
0100
1000
0000
1000
,  // measure 81
0010
0100
1000
0100
0010
1000
0100
0010
,  // measure 82
0110
0000
0010
0011
0000
0001
2002
0000
,  // measure 83
0000
0000
0000
0000
,  // measure 84
0000
0000
0000
3003
,  // measure 85
1000
0001
0000
0000
0000
0000
0000
0000
0000
0000
0000
0000
0000
0000
0000
0000
;

//---------------dance-single - ----------------
#NOTES:
     dance-single:
     :
     Medium:
     8:
     0.486158,0.581863,0.418975,0.196662,0.012826,398.000000,349.000000,49.000000,23.000000,0.000000,0.000000,0.486158,0.581863,0.418975,0.196662,0.012826,398.000000,349.000000,49.000000,23.000000,0.000000,0.000000:
// measure 0
0000
0000
0000
0000
,  // measure 1
0000
0000
0000
0000
,  // measure 2
0000
0000
0000
0000
,  // measure 3
0000
0000
0000
0000
,  // measure 4
1000
0000
1000
0000
0010
0100
0000
0200
,  // measure 5
0000
0001
0001
0301
,  // measure 6
1000
0000
1000
0000
0100
0010
0000
0020
,  // measure 7
0000
0001
0001
0031
,  // measure 8
1000
0000
0010
0000
0100
0001
0000
0002
,  // measure 9
0000
1000
1000
1003
,  // measure 10
1100
0000
0000
1100
0000
0000
0022
0000
,  // measure 11
0000
0000
0033
2000
,  // measure 12
3010
0000
1000
0010
1000
0000
0001
0100
,  // measure 13
0000
0000
0001
1000
0000
0001
1000
0001
,  // measure 14
1000
0000
0100
0000
0010
0001
0000
0011
,  // measure 15
0000
0011
0000
0101
0000
0101
0000
0000
,  // measure 16
1000
0000
0010
0100
0000
0010
0000
1000
,  // measure 17
0000
0001
0000
1000
0001
1000
0001
0000
,  // measure 18
0010
0000
0010
0001
0000
0001
1000
0000
,  // measure 19
0010
0000
0010
0000
0100
0001
0100
0000
,  // measure 20
0001
0000
0010
0001
0000
1000
0000
1010
,  // measure 21
0000
0001
0000
0101
0000
0100
0001
0000
,  // measure 22
1000
0000
0100
1000
0000
0010
0000
1010
,  // measure 23
0000
1010
0000
0101
0000
0101
0000
2002
,  // measure 24
0000
0000
3003
0000
1000
0000
0100
0010
,  // measure 25
0000
0100
1000
0000
0010
0100
0001
0100
,  // measure 26
0001
0000
0000
0101
0000
0000
2002
0000
,  // measure 27
0000
0000
0000
3003
,  // measure 28
2000
0000
0001
0000
3001
1000
0000
0020
,  // measure 29
0000
0000
0100
0000
0130
0010
0000
0010
,  // measure 30
0000
0100
0001
0100
0000
0001
1000
0001
,  // measure 31
0000
1000
0100
1000
0000
0100
0010
0000
,  // measure 32
0001
0000
0000
0001
0000
0000
0002
0000
,  // measure 33
0000
0000
0000
0003
,  // measure 34
1000
0000
0000
1000
0000
0000
2000
0000
,  // measure 35
0000
0000
3000
0020
,  // measure 36
0130
0000
0001
0000
1000
0010
1000
0000
,  // measure 37
0001
0000
0000
0010
0000
0000
0100
0000
0000
0000
1000
0000
0000
0000
1001
0000
,  // measure 38
0000
0001
0000
0101
0000
0100
0000
0110
,  // measure 39
0000
0110
0000
1010
0000
1010
0000
0000
,  // measure 40
0001
0000
0010
0001
0000
0001
1000
0000
,  // measure 41
0001
0100
0001
0000
1000
0100
1000
0100
,  // measure 42
0010
0000
0000
0001
0000
0000
0011
0000
0000
0000
0011
0000
0000
0000
1100
0000
,  // measure 43
0000
0100
1000
0000
0001
0010
0001
0000
,  // measure 44
1000
1000
0000
0010
0010
0000
0100
0100
,  // measure 45
0000
0000
0000
0000
0000
0100
0010
1000
,  // measure 46
0001
0001
0000
0010
0010
0000
0100
0100
,  // measure 47
0000
0000
0000
0000
,  // measure 48
1000
0010
0000
0010
1000
0000
1000
0001
,  // measure 49
0000
0000
0000
0000
0000
1000
0001
1000
,  // measure 50
0001
0010
0000
0010
0001
0000
0001
1000
,  // measure 51
0000
0000
0000
0000
1000
0001
2000
0000
,  // measure 52
3001
0000
0100
0010
0100
0000
0001
1000
,  // measure 53
0000
0000
0100
0010
0000
0100
0010
0100
,  // measure 54
0010
0000
0001
1000
0001
1000
0000
1010
,  // measure 55
0000
1010
0000
0110
0000
0110
0000
0000
,  // measure 56
0100
0000
0100
0001
0000
0101
0000
0101
,  // measure 57
0000
1001
0000
1000
0001
0010
0001
0010
,  // measure 58
0100
0000
0100
1000
0000
1000
0010
0000
,  // measure 59
0010
0000
0100
0000
0001
0100
0001
0000
,  // measure 60
1000
0000
1000
0100
0000
1100
0000
1100
,  // measure 61
0000
0100
0000
0010
0000
0001
1000
0000
,  // measure 62
1000
0000
0001
0100
0000
0101
0000
0101
,  // measure 63
0000
0110
0000
1010
0000
1001
0000
2002
,  // measure 64
0000
0000
3003
0000
1000
0000
0010
0100
,  // measure 65
0000
0010
1000
0000
0100
0010
0100
0010
,  // measure 66
0001
0000
0000
0011
0000
0000
2002
0000
,  // measure 67
0000
0000
3003
0000
0001
1000
0002
0000
,  // measure 68
0103
0010
0100
0000
0010
1000
0010
0000
,  // measure 69
1000
0000
0001
0010
0000
0010
0001
0010
,  // measure 70
0000
0001
0000
0101
0000
0100
0000
0110
,  // measure 71
0000
0010
1000
0010
1000
0000
1000
0000
,  // measure 72
0000
0001
0010
0001
0000
1000
0100
1000
,  // measure 73
0000
0100
0000
0010
0000
0001
0000
1000
,  // measure 74
0010
0000
0010
1000
0000
1000
0001
0000
,  // measure 75
0010
0000
0010
0000
0100
1000
0100
0000
,  // measure 76
1000
0000
0100
1000
0000
0010
0000
1010
,  // measure 77
0000
1000
0000
1001
0000
0001
0000
0011
,  // measure 78
0000
0000
0001
1000
0001
1000
0000
0100
,  // measure 79
0000
0100
0000
1000
0001
1000
0000
0001
,  // measure 80
0100
0000
0001
0010
0100
0010
0000
0100
,  // measure 81
1000
0100
0010
0001
1000
0100
1000
0001
,  // measure 82
0010
0000
0000
0110
0000
0000
2002
0000
,  // measure 83
0000
0000
0000
0000
,  // measure 84
0000
0000
0000
3003
,  // measure 85
1000
0001
0000
0000
0000
0000
0000
0000
0000
0000
0000
0000
0000
0000
0000
0000
;

//---------------dance-single - ----------------
#NOTES:
     dance-single:
     :
     Easy:
     4:
     0.245522,0.290718,0.059854,0.085505,0.000000,201.000000,194.000000,7.000000,10.000000,0.000000,0.000000,0.245522,0.290718,0.059854,0.085505,0.000000,201.000000,194.000000,7.000000,10.000000,0.000000,0.000000:
// measure 0
0000
0000
0000
0000
,  // measure 1
0000
0000
0000
0000
,  // measure 2
0000
0000
0000
0000
,  // measure 3
0000
0000
0000
0000
,  // measure 4
1000
0000
1000
0000
,  // measure 5
0010
0000
0010
0000
,  // measure 6
0100
0000
0100
0000
,  // measure 7
0001
0000
0001
0000
,  // measure 8
1000
0000
1000
0000
,  // measure 9
0001
0000
0001
0000
,  // measure 10
1000
0000
0000
1000
0000
0000
2002
0000
,  // measure 11
0000
0000
0000
3003
,  // measure 12
0001
0100
0001
0000
,  // measure 13
0100
0000
0010
0000
,  // measure 14
1000
0100
1000
0000
,  // measure 15
0100
0000
0010
0000
,  // measure 16
0001
1000
0001
0000
,  // measure 17
0100
0000
0010
0000
,  // measure 18
1000
0000
0000
1000
0000
0000
1000
0000
,  // measure 19
0100
0010
0100
0010
,  // measure 20
0001
0010
0001
0000
,  // measure 21
0010
0000
0100
0000
,  // measure 22
1000
0010
1000
0000
,  // measure 23
0010
0000
0100
0000
,  // measure 24
0001
0000
0000
0000
1000
0000
0000
1000
,  // measure 25
0000
1000
0001
0001
,  // measure 26
0001
0000
0000
0001
0000
0000
2002
0000
,  // measure 27
0000
0000
0000
3003
,  // measure 28
1000
0000
0100
0000
,  // measure 29
1000
0000
0010
0000
,  // measure 30
0100
0000
0001
0000
,  // measure 31
0100
0000
0010
0000
,  // measure 32
1000
0000
0000
1000
0000
0000
2000
0000
,  // measure 33
0000
0000
0000
3000
,  // measure 34
0001
0000
0000
0001
0000
0000
0002
0000
,  // measure 35
0000
0000
0000
0003
,  // measure 36
0010
0100
0010
0000
,  // measure 37
0100
0010
0100
0000
,  // measure 38
0010
0001
0010
0001
,  // measure 39
1000
0001
1000
0000
,  // measure 40
0010
0000
0000
0010
0000
0000
0010
0000
,  // measure 41
0000
1000
0000
1000
,  // measure 42
0100
0000
0000
0100
0000
0000
0100
0000
,  // measure 43
0000
0010
0000
0010
,  // measure 44
0001
0000
0000
0001
0000
0000
0001
0000
,  // measure 45
0000
0000
0000
1000
,  // measure 46
1000
0000
0000
1000
0000
0000
1000
0000
,  // measure 47
0000
0000
0000
0000
,  // measure 48
0010
0000
0000
0100
0000
0000
0110
0000
,  // measure 49
0000
0000
0000
0001
,  // measure 50
0001
0000
0000
1000
0000
0000
1001
0000
,  // measure 51
0000
0000
0000
0001
,  // measure 52
1000
0010
1000
0000
,  // measure 53
0010
0000
0100
0000
,  // measure 54
0001
0010
0001
0000
,  // measure 55
0010
0000
0100
0000
,  // measure 56
1000
0001
1000
0000
,  // measure 57
0010
0000
0100
0000
,  // measure 58
0001
0000
0000
0001
0000
0000
0001
0000
,  // measure 59
0010
0100
0010
0100
,  // measure 60
1000
0100
1000
0000
,  // measure 61
0100
0000
0010
0000
,  // measure 62
0001
0100
0001
0000
,  // measure 63
0100
0000
0010
0000
,  // measure 64
1000
0000
0000
0000
0010
0000
0000
0010
,  // measure 65
0000
0010
0100
0100
,  // measure 66
0001
0000
0000
0001
0000
0000
2002
0000
,  // measure 67
0000
0000
0000
3003
,  // measure 68
1000
0001
1000
0001
,  // measure 69
1000
0000
0010
0000
,  // measure 70
1000
0000
0100
0000
,  // measure 71
1000
0010
1000
0010
,  // measure 72
0000
0100
0000
0100
,  // measure 73
0000
0001
0000
0001
,  // measure 74
1000
0000
0000
1000
0000
0000
1000
0000
,  // measure 75
0001
0001
1000
1000
,  // measure 76
0001
0010
0001
0000
,  // measure 77
1000
0100
1000
0000
,  // measure 78
1000
0000
0001
1000
,  // measure 79
0001
0000
0001
0100
,  // measure 80
0001
0000
1000
0000
,  // measure 81
1000
0010
1000
0010
,  // measure 82
1000
0000
0000
1000
0000
0000
2002
0000
,  // measure 83
0000
0000
0000
0000
,  // measure 84
0000
0000
0000
3003
,  // measure 85
1001
0000
0000
0000
;
