#VERSION:0.83;
#TITLE:Blu-bird;
#SUBTITLE:Hansel und Gretel;
#ARTIST:oriori;
#TITLETRANSLIT:;
#SUBTITLETRANSLIT:;
#ARTISTTRANSLIT:;
#GENRE:GRINDCORE;
#ORIGIN:;
#CREDIT:;
#BANNER:Blu-bird - Hansel und Gretel-bn.png;
#BACKGROUND:Blu-bird - Hansel und Gretel-bg.png;
#PREVIEWVID:;
#JACKET:;
#CDIMAGE:;
#DISCIMAGE:;
#LYRICSPATH:;
#CDTITLE:!rain.png;
#MUSIC:Blu-bird - Hansel und Gretel.ogg;
#OFFSET:-0.000000;
#SAMPLESTART:88.489563;
#SAMPLELENGTH:24.935066;
#SELECTABLE:YES;
#BPMS:0.000=154.000,
131.000=77.000,
163.000=154.000;
#STOPS:;
#DELAYS:;
#WARPS:;
#TIMESIGNATURES:0.000=4=4;
#TICKCOUNTS:0.000=4;
#COMBOS:0.000=1;
#SPEEDS:0.000=1.000=0.000=0;
#SCROLLS:0.000=1.000;
#FAKES:;
#LABELS:0.000=Song Start;
#BGCHANGES:;
#KEYSOUNDS:;
#ATTACKS:
;

//---------------dance-single - ----------------
#NOTEDATA:;
#CHARTNAME:;
#STEPSTYPE:dance-single;
#DESCRIPTION:;
#CHARTSTYLE:;
#DIFFICULTY:Challenge;
#METER:12;
#RADARVALUES:0.802380,0.981662,0.618502,0.426265,0.731336,672.000000,598.000000,74.000000,51.000000,36.000000,0.000000,0.000000,0.000000,0.000000,0.802380,0.981662,0.618502,0.426265,0.731336,672.000000,598.000000,74.000000,51.000000,36.000000,0.000000,0.000000,0.000000,0.000000;
#CREDIT:;
#NOTES:
0000
0000
0000
0000
,
0000
0000
0000
0000
,
0000
0000
0000
0000
,
0000
0000
0000
0000
,
0000
0000
0000
0001
,
0000
0000
1010
0000
1000
0001
0010
0001
,
1000
0010
0110
0100
0001
0100
0010
1000
,
0000
0000
0000
0000
1100
0000
0000
0000
0100
0000
0010
0001
0100
0010
1000
0000
,
0001
0000
0000
0000
0000
0000
0101
0000
0000
0100
0000
0000
0001
0010
0100
1000
0100
0010
0001
0000
0000
1000
0000
0000
,
0010
0000
0000
0000
0100
0000
0001
0000
0010
0100
1000
0000
0100
0010
0100
1000
,
0100
0010
0001
0100
0010
0100
0001
0000
0010
0100
1000
0000
0010
0000
0100
0000
,
1001
0000
0000
0000
1000
0000
0010
0000
0100
0001
0020
0000
0000
0000
0130
1000
,
00M1
0000
0100
0000
0010
0000
1000
0001
0010
0001
1000
0000
0100
0000
0010
0000
,
0011
0000
0000
0000
0001
0000
1000
0000
0010
0100
0010
0000
1000
0001
1000
0001
,
1000
0000
0000
0001
0000
0000
1000
0000
0000
0001
0000
0000
1000
0000
0100
0000
0010
0000
0001
0000
0000
0000
0000
0000
0100
0000
0000
0001
0000
0000
0010
0000
0000
0000
0000
0000
0100
0000
0000
0000
0000
0000
1000
0000
0000
0000
0000
0000
,
0101
0000
0000
0000
0001
0000
0000
0000
1000
0100
2000
0000
0000
0000
3010
0000
,
0100
M000
0010
0000
0100
0000
0010
0000
0100
0010
0100
0000
1001
0000
0001
0000
,
0100
0110
0010
1000
1100
0100
0010
0002
,
1000
0013
0001
1000
0100
1000
1010
0010
,
0100
0101
0001
0010
0110
0100
1000
0001
,
1000
0010
0100
0001
0010
0100
1100
1000
,
0001
0101
0100
0010
0110
0100
0001
2000
,
0100
3010
0010
1000
0010
0100
0101
0001
,
0010
0110
0100
1000
1001
0001
0100
0010
,
0001
0000
0000
0010
0000
0000
1000
0000
0000
0001
0000
0000
0010
0000
0000
0001
0010
0100
1000
0000
0000
0100
0000
0000
,
0010
0001
0010
0000
0100
0000
1000
0010
1000
0000
0001
0000
0100
0010
0100
0000
,
0001
0010
0100
1000
0010
0000
0100
0000
0001
0000
0010
0000
1100
0000
1000
0000
,
0010
0100
0010
0000
1000
0000
0100
0010
0100
0000
0010
0000
0001
0100
0001
0000
,
2000
0000
0100
0100
3100
M010
1001
0001
,
0010
0100
1000
0000
0001
0000
1000
0100
1000
0000
0010
0000
0100
0001
0100
0000
,
0001
0000
0010
0100
0010
0000
0100
0000
1000
0000
0001
0000
0110
0000
1000
0000
,
0100
1000
0100
0000
0010
0000
0001
1000
0010
0000
0100
0000
1000
0100
1000
0000
,
0200
0000
1000
0010
1300
0M00
0001
0000
,
0101
0000
0000
0000
1000
0100
0010
0001
0110
0000
0000
0000
0001
0000
0000
0000
,
1100
0000
0000
0000
0000
0000
0000
0000
0001
0010
0100
0000
1000
0000
0000
0000
1010
0000
0000
0000
0000
0000
0000
0000
0100
0000
0000
0000
0000
0000
0000
0000
,
1001
0000
0000
0000
1000
0100
0010
0001
0100
0010
0000
0100
0001
0000
0000
0000
,
1001
0000
0000
0000
0000
0000
0001
0000
1000
0010
0100
0000
0001
0000
0000
0000
0000
0000
0001
0000
1000
0001
0010
0100
1000
0000
0000
0000
0000
0000
0000
0000
,
2001
3000
0020
0030
2000
3000
0020
0030
M200
0300
00M0
0000
0M01
0000
0010
0000
0101
0000
1000
0000
0000
0000
0001
0000
1000
0000
0100
0000
0001
0000
0100
0000
,
2000
3000
0020
M030
0200
03M0
0002
0013
0200
130M
0010
0M00
1000
0000
0001
0000
1100
0000
0001
0000
0010
0000
0100
0000
1000
0000
0010
0000
1000
0000
0000
0000
,
0201
0300
0020
0030
2M00
30M0
0200
0300
M020
0030
0M00
0000
00M1
0000
1000
0000
1010
0000
0001
0000
0000
0000
0001
0000
0020
0030
0200
0300
20M0
3000
0M20
0030
,
M000
0000
0000
0000
0000
0000
0000
0000
0000
0000
0000
0000
0020
0000
0000
0000
0000
0000
0030
0000
0000
0000
0000
0000
0200
0000
0000
0000
0000
0000
0300
0000
0000
0000
0000
0000
00M2
0000
0000
0000
0000
0000
0003
0000
0000
0000
0000
0000
0020
0000
0000
0000
0000
0000
0130
0000
0000
0000
0000
0000
1000
0000
0000
0000
0000
0000
0000
0000
0000
0000
0000
0000
0001
0000
0000
0000
0000
0000
0000
0000
0000
0000
0000
0000
1000
0000
0000
0000
0000
0000
0000
0000
0000
0000
0000
0000
0010
0000
0000
0000
0000
0000
0000
0000
0000
0000
0000
0000
0100
0000
0000
0000
0000
0000
0000
0000
0000
0000
0000
0000
0001
0000
0000
0000
0000
0000
0000
0000
0000
0000
0000
0000
1000
0000
0000
0000
0010
0000
0000
0000
0100
0000
0000
0000
0001
0000
0000
0000
0000
0000
0000
0000
0000
0000
0000
0000
0000
0000
0000
0000
0000
0000
0000
0000
0000
0000
0000
0000
0010
0000
0000
0000
0000
0000
0000
0000
0000
0000
0000
0000
0000
0000
0000
0000
0000
0000
0000
0000
0000
0000
0000
0000
,
0000
0000
1100
0000
0002
0003
2000
3000
002M
0030
M200
0300
0002
0003
0M11
0000
,
0000
0000
1100
0000
0000
0000
0010
0000
1001
0000
0001
0100
0010
0000
1100
0000
,
0000
0000
0101
0000
0002
0003
0020
0030
020M
1300
02M0
0300
0020
0030
1M01
0000
,
0000
0000
0000
0110
0000
0000
0000
0000
0000
1000
0000
0000
0001
0100
0010
1000
0010
0100
0001
0000
0000
0101
0000
0000
,
0000
0000
1100
0000
2000
3000
0002
0003
M200
0310
020M
0300
0020
0030
1M01
0000
,
0000
0000
0110
0000
0010
0100
0001
0000
0011
0000
0010
0000
0200
0300
2000
3000
,
0M20
0030
M200
0300
00M1
0000
0200
0300
0002
0003
0M10
0000
010M
0000
1100
0000
,
0000
0000
0000
1000
0100
0010
0001
0010
0100
1000
0100
0010
0002
0000
0000
0000
0000
0000
1003
0000
0000
0101
0000
0000
,
0000
0000
1100
0000
1000
0100
1000
0010
1000
0100
1000
0010
0100
0010
0100
0001
,
0010
1100
1000
0010
0101
0010
1000
1100
,
0000
0000
0101
0000
0001
0010
0100
1000
0100
1000
0010
1000
0010
0100
0001
0000
,
0010
0000
0000
1100
0000
0000
0001
0000
0000
0100
0000
0000
1010
0000
0000
1000
0010
0100
0001
0000
0000
0011
0000
0000
,
0000
0000
1010
0000
0010
0100
0010
1000
0001
0010
0100
0010
0001
1000
0010
0000
,
0100
0000
1001
0000
0010
0000
1000
0000
0101
0000
0000
0000
0001
0100
0010
0100
,
0001
1000
0100
0010
0100
1000
0100
0010
0001
0100
0001
0010
0100
1000
0010
0100
,
0001
0000
1100
0000
0010
0000
0001
0000
0110
0000
1000
0100
1000
0000
0101
0000
,
0000
0000
1100
0000
0100
0010
0001
1000
0010
0100
0001
1000
0001
0010
0100
1000
,
0010
0101
0010
0001
1010
0001
0010
1100
,
0000
0000
0101
0000
0001
1000
0010
1000
0100
0010
0100
1000
0100
0010
0001
0000
,
0100
0000
0000
1010
0000
0000
0100
0000
0000
1000
0000
0000
0001
0010
0100
1000
0010
0100
0001
0000
0000
1010
0000
0000
,
0000
0000
0011
0000
0010
0100
1000
0001
0100
0010
0100
0010
1000
0100
0010
0000
,
0001
0000
1010
0000
0001
0000
0010
0000
1100
0000
0010
0000
0001
1000
0001
0010
,
0100
1000
0100
1000
0001
0100
0001
0100
0010
1000
0010
1000
0100
0010
0001
0100
,
0010
0000
0000
0101
0000
0000
1000
0100
0010
0001
0100
0010
1000
0000
0000
1000
0000
0000
1001
0000
0000
0000
0000
0000
,
0000
M00M
0000
0000
;

//---------------dance-single - ----------------
#NOTEDATA:;
#CHARTNAME:;
#STEPSTYPE:dance-single;
#DESCRIPTION:;
#CHARTSTYLE:;
#DIFFICULTY:Beginner;
#METER:1;
#RADARVALUES:0.064477,0.135297,0.041791,0.000000,0.000000,54.000000,49.000000,5.000000,0.000000,0.000000,0.000000,0.000000,0.000000,0.000000,0.064477,0.135297,0.041791,0.000000,0.000000,54.000000,49.000000,5.000000,0.000000,0.000000,0.000000,0.000000,0.000000,0.000000;
#CREDIT:;
#NOTES:
0000
0000
0000
0000
,
0000
0000
0000
0000
,
0000
0000
0000
0000
,
0000
0000
0000
0000
,
0000
0000
0000
0001
,
0000
0000
0000
0000
,
0000
0000
0000
1000
,
0000
0000
0000
0000
,
0000
0000
0000
0010
,
0000
0000
0000
0000
,
0000
0000
0000
0100
,
0000
0000
0000
0000
,
0000
0000
0000
1000
,
0000
0000
0000
0000
,
0000
0000
0000
0010
,
0000
0000
0000
0000
,
0000
0001
0000
1000
,
0000
0000
0000
0000
,
0000
0000
0000
1001
,
0000
0000
0000
0000
,
0000
0000
0000
0001
,
0000
0000
0000
0000
,
0000
0000
0000
1001
,
0000
0000
0000
0000
,
0000
0000
0000
0010
,
0000
0000
0000
0100
,
0000
0000
0000
0010
,
0000
0000
0000
0100
,
0000
0000
0000
0001
,
0000
0000
0000
1000
,
0000
0000
0000
0001
,
0000
0000
0000
1000
,
0000
0000
0000
0001
,
0000
0000
0000
1000
,
0000
0000
0000
0010
,
0000
0000
0000
1000
,
0000
0000
0000
0110
,
0000
0000
0000
1001
,
0000
0000
0000
0001
,
0000
0001
0000
0001
,
0000
0001
0000
1000
,
0000
0000
0000
0000
,
0000
0000
0000
0010
,
0000
0000
0000
0000
,
0000
0000
0000
0100
,
0000
0000
0000
0000
,
0000
0000
0000
0001
,
0000
0000
0000
0000
,
0000
0000
0000
1001
,
0000
0000
0000
0000
,
0000
0000
0000
0001
,
0000
0000
0000
0001
,
0000
0000
0000
0001
,
0000
0000
0000
1000
,
0000
0000
0000
1000
,
0000
0000
0000
1000
,
0000
0000
0000
0010
,
0000
0000
0000
0010
,
0000
0000
0000
0010
,
0000
0000
0000
0100
,
0000
0000
0000
0100
,
0000
0000
0000
0100
,
0000
0000
0000
0001
,
0000
0000
0000
1000
,
0000
0000
0000
0001
;

//---------------dance-single - ----------------
#NOTEDATA:;
#CHARTNAME:;
#STEPSTYPE:dance-single;
#DESCRIPTION:;
#CHARTSTYLE:;
#DIFFICULTY:Easy;
#METER:4;
#RADARVALUES:0.234028,0.324713,0.284176,0.050149,0.000000,196.000000,162.000000,34.000000,6.000000,0.000000,0.000000,0.000000,0.000000,0.000000,0.234028,0.324713,0.284176,0.050149,0.000000,196.000000,162.000000,34.000000,6.000000,0.000000,0.000000,0.000000,0.000000,0.000000;
#CREDIT:;
#NOTES:
0000
0000
0000
0000
,
0000
0000
0000
0000
,
0000
0000
0000
1000
,
0000
0100
0000
0010
,
0000
0001
0000
0100
,
0000
0010
0000
1000
,
0000
0100
0000
0010
,
0000
0001
0000
1000
,
0000
0001
0000
2001
,
0000
0010
0000
0001
,
0000
3100
0000
1002
,
0000
0010
0000
1000
,
0000
0103
0000
0021
,
0000
0100
0000
1000
,
0000
0130
0000
0210
,
0000
1000
0000
0010
,
0300
0000
0000
1100
,
0000
0000
0110
0000
,
0000
0000
0000
0011
,
0000
0000
1001
0000
,
0000
0000
0000
1010
,
0000
0000
0110
0000
,
0000
0000
0000
0101
,
0000
0000
1001
0000
,
0000
1000
0001
1001
,
0000
0000
1100
0000
,
0000
1000
0100
1100
,
0000
0000
0101
0000
,
0000
0001
0010
0011
,
0000
0000
1100
0000
,
0000
0100
0010
0110
,
0000
0000
1001
0000
,
0000
1000
0010
1010
,
1000
0100
0010
0001
,
0100
0010
1000
0001
,
0010
0100
1000
0010
,
0100
0001
1000
0100
,
0010
0001
1000
0000
0000
0000
0010
0000
,
0100
0001
0010
0000
0000
0000
0100
0000
,
1000
0001
0100
0000
0000
0000
0001
0100
,
0010
1000
0010
0000
1000
0000
1001
0000
,
0000
0001
0010
0100
,
0000
1000
1010
0000
,
0000
0100
0001
0010
,
0000
0100
1100
0000
,
0000
1000
0001
0100
,
0000
0010
0110
0100
,
0001
0010
0100
1000
,
2020
0000
3000
1030
,
0000
0100
0010
0001
,
0000
1000
1001
0000
,
0001
0100
0010
0100
,
0001
1000
1100
0000
,
0000
1000
0100
0010
,
0001
0100
0101
0001
,
1000
0100
1000
0010
,
0100
0001
1001
0000
,
0000
1000
0100
0010
,
0001
0100
1001
0000
,
0000
0001
0010
0100
,
1000
0100
1010
0000
,
0000
0100
0001
1000
,
0100
0010
1001
0000
,
1000
0100
0010
0001
,
1000
0100
0010
0101
;

//---------------dance-single - ----------------
#NOTEDATA:;
#CHARTNAME:;
#STEPSTYPE:dance-single;
#DESCRIPTION:;
#CHARTSTYLE:;
#DIFFICULTY:Medium;
#METER:7;
#RADARVALUES:0.390444,0.405892,0.066865,0.275818,0.000000,327.000000,319.000000,8.000000,33.000000,2.000000,0.000000,0.000000,0.000000,0.000000,0.390444,0.405892,0.066865,0.275818,0.000000,327.000000,319.000000,8.000000,33.000000,2.000000,0.000000,0.000000,0.000000,0.000000;
#CREDIT:;
#NOTES:
0000
0000
0000
0000
,
0000
0000
0000
0000
,
0000
0000
0000
0000
,
0000
0000
0000
0000
,
0000
0000
0000
0002
,
0000
0103
0000
0020
,
0000
1030
0000
0002
,
0000
0013
0000
0200
,
0000
0000
1300
0000
0001
1000
0010
0000
,
0100
0000
0001
0000
0010
0100
2000
0000
,
0100
0000
3010
0000
0001
1000
0020
0000
,
1000
0000
0130
0000
0001
1000
0002
0000
,
0010
0000
1003
0000
0010
1000
0200
0000
,
1000
0000
0310
0000
0001
1000
0020
0000
,
1000
0000
0130
0000
0001
0010
0200
0000
,
1000
0000
0301
0000
0100
0010
0002
0000
,
1003
0001
1000
0000
0001
1000
0001
0000
,
0000
0010
0000
0000
1100
0000
0000
1000
,
0000
0000
0001
0100
0001
0010
0001
0000
,
0000
0100
0000
0000
1100
0000
0000
1000
,
0000
0000
0010
0100
0010
1000
0001
0000
,
0000
0100
0000
0000
0110
0000
0000
0010
,
0000
0000
1000
0100
0010
0001
1000
0000
,
0000
0001
0000
0000
0101
0000
0000
0100
,
0000
0000
0010
1000
0001
0010
0100
0000
,
1000
0100
0000
0000
0011
0000
0001
0100
,
0000
0010
1000
0100
1000
0001
0010
0000
,
0100
1000
0000
0000
1100
0000
0100
0010
,
0000
0001
1000
0001
1000
0010
0100
0000
,
0001
0100
0000
0000
0011
0000
0010
0100
,
0000
1000
0010
0100
0001
0010
0100
0000
,
1000
0010
0000
0000
0110
0000
0100
0001
,
0000
0001
0010
0100
0010
0100
20M0
0000
,
3001
0000
0002
0010
0013
0000
2000
0000
,
3100
0000
0200
0010
0310
0001
0020
0000
,
0130
0000
2000
0010
3010
0000
0002
0000
,
0103
0000
2000
0010
3010
0100
0001
0000
,
0100
0001
0010
0000
0100
1000
0100
0000
,
1000
0001
0100
0001
0010
0100
1000
0000
,
0010
0100
0001
0000
0010
0100
1000
0001
,
1000
0010
1000
0000
0001
0010
010M
0000
,
0000
1000
0100
0010
0001
0100
0010
0000
,
0010
1000
0000
1000
0100
0000
0010
0001
,
0000
0001
0100
0010
1000
0001
0010
0000
,
0100
1000
0000
1000
0020
0000
1030
0100
,
0000
0010
0001
0100
0001
0010
0100
1000
,
0000
1000
0010
0100
0001
0000
0001
1000
,
0010
1000
0100
0010
0001
0100
0010
1000
,
0000
0200
0000
0000
0310
0000
0002
0100
,
0000
1000
0000
0013
0100
1000
0100
0020
,
0000
0100
0000
0001
0031
0000
0200
0010
,
0000
0001
0000
0310
0100
0001
1000
0100
,
0010
0001
0010
0100
1000
0000
0001
2000
,
0000
0100
0000
0001
0000
3010
0100
0002
,
0000
0010
0000
1000
1003
0000
0200
0010
,
0000
1000
0000
0310
0001
1000
0010
0100
,
0001
0010
0100
1000
0010
0100
0001
2000
,
0000
0001
0000
0010
0000
3100
0010
0200
,
0000
0010
0000
1000
1300
0000
0001
0200
,
0000
1000
0000
0010
0000
0301
0010
0100
,
0010
0001
1000
0010
0100
0010
0100
0002
,
0000
1000
0000
0100
0000
0013
0100
2000
,
0000
0100
0000
0010
3010
0000
0100
0002
,
0000
0010
0000
0103
0010
1000
0100
0010
,
0001
0010
0100
1000
0100
0001
0100
0000
;

//---------------dance-single - ----------------
#NOTEDATA:;
#CHARTNAME:;
#STEPSTYPE:dance-single;
#DESCRIPTION:;
#CHARTSTYLE:;
#DIFFICULTY:Hard;
#METER:10;
#RADARVALUES:0.632830,0.838843,0.125372,0.016716,0.401190,530.000000,515.000000,15.000000,2.000000,2.000000,0.000000,0.000000,0.000000,0.000000,0.632830,0.838843,0.125372,0.016716,0.401190,530.000000,515.000000,15.000000,2.000000,2.000000,0.000000,0.000000,0.000000,0.000000;
#CREDIT:;
#NOTES:
// measure 0
0000
0000
0000
0000
,  // measure 1
0000
0000
0000
0000
,  // measure 2
0000
0000
0000
0000
,  // measure 3
0000
0000
0000
0000
,  // measure 4
0000
0000
0000
0001
,  // measure 5
0000
0000
1000
0000
0010
0100
0001
0010
,  // measure 6
0100
0000
1000
0010
0100
0010
1000
0000
,  // measure 7
0000
0000
0000
0000
1001
0000
0000
0000
0001
0000
0010
0100
0010
0000
0100
0000
,  // measure 8
1000
0000
0000
0000
0001
0000
0100
0000
0001
1000
0010
1000
0100
0000
0010
0000
,  // measure 9
0001
0000
0000
0000
1000
0000
0010
0000
0100
0001
0100
0000
0010
0000
1000
0000
,  // measure 10
0100
0010
0001
1000
0000
0001
1000
0100
,  // measure 11
0010
0000
0000
0000
0001
0000
0000
0000
1000
0010
1000
0000
0000
0000
0100
0000
,  // measure 12
0010
0001
1000
0010
0001
0010
1000
0100
,  // measure 13
0010
0000
0000
0000
0001
0000
0000
0000
1000
0001
1000
0000
0010
0000
0001
0000
,  // measure 14
0010
0000
1000
0100
1000
0000
0100
0000
0010
0000
0001
0000
0100
0000
0010
0000
,  // measure 15
0100
0000
0000
0000
0001
0000
0010
0000
0100
1000
0100
0000
0000
0000
1000
0000
,  // measure 16
0010
0100
0001
0100
1000
0100
0001
0010
,  // measure 17
0001
0010
0100
0010
0100
1000
0100
1000
,  // measure 18
0100
1000
0100
1000
0100
1000
0010
0100
,  // measure 19
0010
0100
0001
0100
0001
0010
0001
0010
,  // measure 20
0001
0010
0001
0010
0001
0010
0100
0010
,  // measure 21
0100
1000
0100
1000
0001
1000
0001
1000
,  // measure 22
0001
1000
0001
1000
0001
1000
0010
1000
,  // measure 23
0010
0100
0010
0100
0001
0100
0001
0100
,  // measure 24
0001
0100
0010
1000
0100
0010
0001
1000
,  // measure 25
0100
1000
0100
0000
0010
0000
0001
0100
0001
0000
0010
0000
0100
1000
0100
0000
,  // measure 26
1000
0000
0001
0100
0001
0000
1000
0000
0010
0000
0100
0000
0001
0000
1000
0000
,  // measure 27
0001
0100
0001
0000
0010
0000
0100
1000
0100
0000
0010
0000
0001
1000
0001
0000
,  // measure 28
0100
0010
1000
0010
0100
0001
0010
0100
,  // measure 29
0010
0001
1000
0000
0010
0000
0100
0010
1000
0000
0001
0000
0010
0100
1000
0000
,  // measure 30
0001
0000
0100
0010
1000
0000
0010
0000
1000
0000
0100
0000
1000
0000
0100
0000
,  // measure 31
0010
0001
1000
0000
0001
0000
1000
0010
0100
0000
0010
0000
1000
0100
0010
0000
,  // measure 32
0001
0000
0001
0100
0010
0100
10M1
0000
,  // measure 33
1000
0000
0100
0010
0001
1000
0010
0000
0101
0000
0000
0000
0001
0010
0100
0010
,  // measure 34
0001
0100
0000
0001
1000
0100
1000
0001
0100
0010
1000
0000
0001
0010
0001
0100
,  // measure 35
0010
1000
0100
0010
0001
0000
1000
0001
0100
0010
0000
1000
0100
0010
0001
1000
,  // measure 36
0001
1000
0001
0100
0010
0000
1000
0100
0000
0010
0001
1000
0001
0000
0000
0000
,  // measure 37
1000
0010
1000
0100
1000
0000
0001
1000
0001
1000
0000
0001
1000
0010
0100
0001
,  // measure 38
0010
0100
0010
0001
0010
0000
0100
1000
0010
0100
1000
0100
0010
0001
0010
1000
,  // measure 39
0100
0010
0100
0010
0100
0000
0010
0001
1000
0001
0000
0001
1000
0010
0100
0001
,  // measure 40
0010
0100
1000
0010
1000
0100
0010
0100
1000
0001
1000
0001
1M00
0000
0010
0000
,  // measure 41
1000
0100
0000
1000
0001
0100
0010
1000
,  // measure 42
0100
0000
0011
0000
0000
0000
0001
0000
0100
0000
0010
1000
0100
0000
1000
0000
,  // measure 43
0000
0000
0011
0000
0000
0000
0001
0000
1000
0010
0100
0000
0001
0000
0010
0000
,  // measure 44
0100
0000
1000
0000
0000
0000
0010
0000
1000
0100
1000
0100
1000
0000
0001
0000
,  // measure 45
0000
0000
0101
0000
0000
0000
1000
0000
0010
0100
0001
0000
0010
0000
0100
0000
,  // measure 46
0000
0000
1000
0000
0100
1000
0100
0000
0010
0001
0010
0000
0100
0000
1000
0000
,  // measure 47
0100
0010
0100
1000
0001
0100
0010
1000
,  // measure 48
0000
2020
0000
3030
0101
0000
0001
1000
,  // measure 49
0000
0000
0100
0000
0010
0001
0010
0000
0100
1000
0100
0000
0010
0000
0001
0000
,  // measure 50
0000
1001
0000
1000
0010
0000
0100
0001
,  // measure 51
0000
0000
0010
0000
0100
1000
0100
0000
1000
0001
1000
0000
0001
0000
0100
0000
,  // measure 52
0000
0010
1000
0100
1000
0010
0000
0101
,  // measure 53
0000
0000
0001
0010
0001
0000
0010
0100
0010
0000
0100
0000
1000
0000
0001
0000
,  // measure 54
0000
0000
0110
0000
0000
0000
0010
0000
1000
0000
0000
0000
0100
1000
0100
0000
,  // measure 55
0010
0000
0001
0000
0100
0001
0100
0000
0010
0000
1000
0000
0100
0000
1000
0000
,  // measure 56
0100
1000
0100
0000
1001
0000
0001
0100
,  // measure 57
0000
0000
0001
0000
0010
0100
0010
0000
0100
1000
0100
0000
1000
0000
0010
0000
,  // measure 58
0000
0110
0000
0100
0001
0000
0001
0010
,  // measure 59
0000
0000
0100
0000
1000
0010
1000
0000
0010
0100
0010
0000
0100
0000
0001
0000
,  // measure 60
0010
0100
0010
0001
1000
0010
1000
0100
,  // measure 61
0000
0000
0100
0000
0010
0001
0010
0000
0100
1000
0100
0000
1000
0000
0010
0000
,  // measure 62
0000
0000
0101
0000
0000
0000
0001
0000
0010
0000
0100
0000
1000
0100
1000
0000
,  // measure 63
0010
0000
0100
0000
0001
1000
0001
0000
0010
0000
0100
0000
1000
0100
1000
0000
,  // measure 64
0010
0100
0010
1000
0001
0000
1001
0000
;
