#TITLE:Bassamenco;
#SUBTITLE:;
#ARTIST:Taku Inoue;
#TITLETRANSLIT:;
#SUBTITLETRANSLIT:;
#ARTISTTRANSLIT:;
#GENRE:LIQUID FUNK;
#CREDIT:;
#BANNER:Bassamenco-bn.png;
#BACKGROUND:Bassamenco-bg.png;
#LYRICSPATH:;
#CDTITLE:!rain.png;
#MUSIC:Bassamenco.ogg;
#OFFSET:-0.049000;
#SAMPLESTART:84.423996;
#SAMPLELENGTH:15.000000;
#SELECTABLE:YES;
#BPMS:0.000000=128.000000
;
#STOPS:
;
#BGCHANGES:;
#KEYSOUNDS:;
#ATTACKS:;

//---------------dance-single - ----------------
#NOTES:
     dance-single:
     :
     Challenge:
     11:
     0.640201,0.678967,0.217690,0.045039,0.953332,597.000000,568.000000,29.000000,6.000000,0.000000,0.000000,0.640201,0.678967,0.217690,0.045039,0.953332,597.000000,568.000000,29.000000,6.000000,0.000000,0.000000:
0000
0000
0000
0000
,
0000
0000
0000
0000
,
0000
0000
0000
0000
,
0000
0000
0000
0000
,
1000
0000
0000
0001
0000
0000
0010
0000
0100
0000
0000
1000
0000
0000
0010
0000
,
0100
0000
0000
0001
0000
0000
0100
0001
0100
0000
0000
0010
0000
0000
1000
0000
,
0100
0000
0000
0010
0000
0000
0001
0010
0001
0000
0100
0010
0000
0000
1000
0000
,
0100
0000
0000
0010
0000
0000
0001
0100
0001
0000
0000
0010
0000
0000
0100
0000
,
1000
0000
0000
0001
0000
0000
0100
0001
0100
0000
0010
1000
0000
0000
0100
0000
,
0010
0000
0000
0001
0000
0000
0100
0001
0100
0000
0010
0100
0000
0000
0010
0000
,
1000
0000
0000
0001
0000
0000
1000
0100
1000
0000
0100
0010
0000
0000
0001
0000
,
1000
0000
0000
0000
0001
0000
0000
0000
1000
0000
0000
0000
0001
0000
0000
0010
0000
0000
0100
0000
0000
1000
0000
0000
0010
0000
0000
0100
0000
0000
0001
0000
0000
0010
0000
0000
0100
0000
0000
1000
0000
0000
0010
0000
0000
0100
0000
0000
,
0001
0000
0000
0010
0000
0000
0100
1000
0010
0000
0100
0001
0000
0000
1000
0000
,
0100
0000
0000
1000
0000
0001
0100
0001
0100
0000
0010
1000
0000
0000
0100
0000
,
0010
0000
0000
0001
0000
0100
0001
0100
0001
0000
0010
0100
0000
0000
1000
0000
,
0001
0000
0000
0100
0000
0010
1000
0010
1000
0000
0100
0000
0012
0000
0000
0000
,
1003
0000
0000
0010
0000
0000
0100
0001
0100
0000
0010
1000
0000
0000
0100
0000
,
0010
0000
0000
0001
0000
0000
1000
0100
1000
0000
0010
0100
0000
0000
0001
0000
,
0010
0000
0000
0100
0000
0000
1000
0010
1000
0000
0001
0010
0000
0000
0100
0000
,
1000
0000
0000
0000
0100
0000
0000
0000
0010
0000
0000
0000
0001
0000
0000
0000
0010
0000
0000
0000
0100
0000
0000
0000
1000
0000
0000
0010
0000
0000
0100
0000
0000
0001
0000
0000
0100
0000
0000
0010
0000
0000
1000
0000
0000
0000
0000
0000
,
1001
0000
0001
0100
0000
0000
0010
0000
1000
0100
1000
0100
0000
1000
0100
0000
,
1000
0000
0000
0100
0000
0000
0010
0000
0000
0001
0000
0000
0000
0000
0000
0000
0000
0000
0100
0000
0000
0000
0000
0000
0001
0000
0000
0000
0100
0000
0000
0000
0001
0000
0000
0000
0000
0000
0000
0100
0000
0000
0001
0000
0000
0000
0000
0000
,
0100
0000
0000
0010
0000
0000
1000
0000
0100
1000
0100
1000
0000
0100
1000
0000
,
0100
1000
0100
1000
0000
0100
1000
0100
1000
0100
1000
0000
2001
0000
0000
0000
,
3010
0000
0000
0100
0000
0000
0001
0000
0100
0001
0100
0001
0000
0100
0001
0100
,
0001
0000
0000
0000
0000
0000
0000
0000
0000
0100
0000
0000
0000
0000
0000
0000
0000
0000
0010
0000
0000
0000
0000
0000
1000
0000
0000
0000
0100
0000
0000
0000
1000
0000
0000
0000
0000
0000
0000
0100
0000
0000
1000
0000
0000
0000
0000
0000
,
0100
0000
0000
0010
0000
0000
0001
0000
0100
0001
0100
0001
0000
0100
0001
0100
,
0001
0010
0100
1000
0010
0100
0001
0010
0100
1000
0010
0100
0001
0010
0100
0000
,
1000
0000
0000
0001
0000
0000
1000
0000
0010
1000
0010
1000
0000
0010
1000
0000
,
0010
0000
0000
0000
0000
0000
0100
0000
0000
0001
0000
0000
0000
0000
0000
0000
0000
0000
0010
0000
0000
0000
0000
0000
0001
0000
0000
0000
0010
0000
0000
0000
0001
0000
0000
0000
0000
0000
0000
0010
0000
0000
0001
0000
0000
0000
0000
0000
,
0010
0000
0000
0100
0000
0000
1000
0000
0010
1000
0010
1000
0000
0010
1000
0000
,
0010
1000
0010
1000
0000
0010
1000
0010
1000
0010
1000
0000
2100
0000
0000
0000
,
3010
0000
0000
0100
0000
0000
0001
0000
0010
0001
0010
0001
0000
0010
0001
0010
,
0001
0000
0000
0000
0000
0000
0000
0000
0000
0010
0000
0000
0000
0000
0000
0000
0000
0000
0100
0000
0000
0000
0000
0000
1000
0000
0000
0000
0010
0000
0000
0000
1000
0000
0000
0000
0000
0000
0000
0010
0000
0000
1000
0000
0000
0000
0000
0000
,
0010
0000
0000
1000
0100
0000
0010
0000
0001
0000
0010
0000
0100
0000
0010
0000
,
0001
0010
0100
1000
0100
0010
0001
0100
0010
1000
0010
0100
0001
0010
0100
1000
,
0001
0000
0000
1000
0000
0000
0010
0000
0110
0000
0000
0100
0000
0000
0001
0000
,
0011
0000
0000
0010
0000
0000
0100
0000
1100
0000
1000
0010
0000
0010
0100
0000
,
0101
0000
0000
0001
0000
0000
0010
0000
0110
0000
0000
0100
0000
0000
1000
0000
,
1001
0000
0000
0001
0000
0000
0100
0000
0110
0000
0000
0010
0000
0000
1000
0000
,
1100
0000
0000
0100
0000
0000
0010
0000
0011
0000
0000
0001
0000
0000
1000
0000
,
1010
0000
0000
0010
0000
0000
0100
0000
0110
0000
0010
1000
0000
0010
1000
0000
,
0001
0000
0000
1000
0000
0000
0001
0000
0000
1000
0000
0001
0000
1000
0000
0001
,
0000
1000
0000
0001
0000
1000
0000
0002
2000
0000
0000
0000
0000
0000
3000
0000
,
1003
0100
0010
0001
0100
0001
0010
0100
1000
0000
1000
0000
0000
0010
1000
0000
,
0101
0000
0000
0110
0000
0000
0010
0000
1000
0000
0000
0100
0000
0000
0010
0000
,
0011
0000
0000
0000
0000
0000
0000
0000
0000
0001
0000
0000
0000
0000
0000
0000
0000
0000
1000
0000
0000
0000
0000
0000
0001
0000
0000
0000
0100
0000
0000
0000
0001
0000
0000
0000
0000
0000
0000
0010
0000
0000
0001
0000
0000
0000
0000
0000
,
0110
0000
0000
0100
0000
0000
1000
0000
0010
1000
0000
0001
0000
0000
1000
0000
,
0010
1000
0000
0001
0000
1000
0010
1000
0001
1000
0010
1000
0000
0000
0100
0000
,
0110
0000
0000
0010
0000
0000
0001
0000
1000
0001
0000
0100
0000
0001
1000
0001
,
0100
0000
0000
0001
0000
1000
0000
0001
0100
0000
0001
1000
0000
0001
0100
0000
,
0110
0000
0000
0010
0000
0000
1000
0000
0100
1000
0001
1000
0000
0100
1000
0000
,
1000
0000
0000
0000
0100
0000
0000
0000
0010
0000
0000
0000
0100
0000
0000
0000
1000
0000
0000
0000
0100
0000
0000
0000
0010
0000
0000
0100
0000
0000
1000
0000
0000
0100
0000
0000
0010
0000
0000
0100
0000
0000
1000
0000
0000
0100
0000
0000
,
0010
0000
0001
0100
0000
0000
0010
0000
0100
0001
0000
0100
0000
0000
0010
0000
,
0100
0000
0000
0001
0000
0000
0000
0000
0000
0100
0000
0000
0000
0000
0000
0000
0000
0000
0010
0000
0000
0000
0000
0000
0100
0000
0000
0000
0001
0000
0000
0000
0100
0000
0000
0000
0000
0000
0000
0010
0000
0000
1000
0000
0000
0000
0000
0000
,
1100
0000
0000
0000
0000
0000
0000
0000
0000
0100
0000
0000
0000
0000
0000
0000
0000
0000
0010
0000
0000
0000
0000
0000
0001
0000
0000
0000
1000
0000
0000
0000
0001
0000
0000
0000
0000
0000
0000
0010
0000
0000
0001
0000
0000
0000
0000
0000
,
1000
0001
0010
0001
1000
0001
0010
0001
1000
0001
0010
0100
1000
0100
0010
0000
,
0001
0000
1000
0100
0000
0000
1000
0000
0010
1000
0100
1000
0000
0010
1000
0100
,
1000
0000
0000
0010
0000
1000
0000
0100
1000
0000
0010
1000
0000
0100
1000
0000
,
0100
0000
0000
0010
0000
0000
0001
0000
1000
0000
0001
0000
1000
0000
0001
0000
,
1000
0100
1000
0001
0100
0001
1000
0100
1000
0001
0100
0001
1000
0100
1000
0001
,
0100
0000
0000
0101
0000
0000
0001
0000
1000
0000
0000
0100
0000
0000
0010
0000
,
0011
0000
0000
0001
0000
0000
1000
0000
1010
0000
0010
0100
0000
0100
0001
0000
,
0011
0000
0000
0010
0000
0000
0100
0000
1100
0000
0000
1000
0000
0000
0010
0000
,
0110
0000
0000
0100
0000
0000
0001
0000
1000
0000
0001
1000
0000
0001
1000
0000
,
0200
0000
0000
0000
0000
0000
0000
0000
0000
0000
0000
0000
0000
0310
0000
0001
,
0010
0100
1000
0010
0100
0001
0010
0100
1000
0010
0100
0001
0010
0100
1000
0000
,
1001
0000
0000
0000
;

//---------------dance-single - ----------------
#NOTES:
     dance-single:
     :
     Hard:
     8:
     0.491143,0.528086,0.082572,0.067559,0.604277,458.000000,447.000000,11.000000,9.000000,0.000000,0.000000,0.491143,0.528086,0.082572,0.067559,0.604277,458.000000,447.000000,11.000000,9.000000,0.000000,0.000000:
0000
0000
0000
0000
,
0000
0000
0000
0000
,
0000
0000
0000
0000
,
0000
0000
0000
0000
,
1000
0000
0000
0100
0000
0000
0010
0000
0001
0000
0000
0010
0000
0000
0100
0000
,
1000
0000
0000
0010
0000
0000
0100
0000
0001
0000
0000
0100
0000
0000
0010
0000
,
1000
0000
0000
0001
0000
0000
1000
0000
0100
0000
0000
0010
0000
0000
0001
0000
,
0010
0000
0000
0100
0000
0000
1000
0000
0010
0000
0000
1000
0000
0000
0100
0000
,
1001
0000
0000
0001
0000
0000
0100
0000
0010
0000
0000
1000
0000
0000
0001
0000
,
0010
0000
0000
0001
0000
0000
1000
0000
0100
0000
0000
0010
0000
0000
0001
0000
,
0100
0000
0000
0010
0000
0000
1000
0000
0001
0000
0000
0010
0000
0000
0100
0000
,
2000
0000
0000
0000
0020
0030
0020
0030
,
3100
0000
0000
0010
0000
0001
0000
0100
0001
0000
0000
1000
0000
0000
0100
0000
,
0010
0000
0000
0001
0000
1000
0000
0001
1000
0000
0000
0100
0000
0000
0010
0000
,
0001
0000
0000
0100
0000
0010
0000
1000
0010
0000
0000
1000
0000
0000
0100
0000
,
0010
0000
0000
0001
0000
1000
0000
0001
1000
0000
0000
0000
1001
0000
0000
0000
,
0001
0000
0000
0010
0000
0100
0000
1000
0100
0000
0000
1000
0000
0000
0010
0000
,
0100
0000
0000
0001
0000
1000
0000
0010
0100
0000
0000
0001
0000
0000
0010
0000
,
0100
0000
0000
1000
0000
0010
0000
0100
0010
0000
0000
1000
0000
0000
0100
0000
,
0020
0000
0000
0000
0002
0003
0002
0003
,
0130
0000
0000
1000
0000
0000
0001
0000
1000
0001
0000
1000
0001
0000
0100
0000
,
0010
0000
0000
1000
0000
0000
0100
0000
0010
0001
0000
0010
0001
0000
0100
0000
,
0010
0000
0000
1000
0000
0000
0001
0000
0010
0100
0000
0010
0100
0000
1000
0000
,
0010
1000
0000
0010
1000
0000
0001
0000
0100
0010
0000
0100
0010
0000
1000
0000
,
0100
0000
0000
0010
0000
0000
0001
0000
1000
0001
0000
1000
0001
0000
0100
0000
,
0010
0000
0000
1000
0000
0000
0100
0000
0010
0001
0000
0010
0001
0000
1000
0000
,
0010
0000
0000
0100
0000
0000
0001
0000
1000
0100
0000
1000
0100
0000
0010
0000
,
0001
0100
0000
0001
0100
0000
0010
0000
1000
0001
0000
1000
0001
0000
0010
0000
,
0100
0000
0000
1000
0000
0000
0010
0000
0100
0001
0000
0100
0001
0000
0010
0000
,
0100
0000
0000
0010
0000
0000
0001
0000
1000
0010
0000
1000
0010
0000
0100
0000
,
0001
0000
0000
1000
0000
0000
0100
0000
0010
0100
0000
0010
0100
0000
1000
0000
,
0010
0100
0000
0010
0100
0000
0001
0000
0010
0100
0000
0010
0100
0000
1000
0000
,
0001
0000
0000
0100
0001
0000
1000
0000
0100
0010
0000
0100
0010
0000
0001
0000
,
1000
0000
0000
0010
1000
0000
0001
0000
0100
0010
0000
0100
0010
0000
1000
0000
,
0100
0000
0000
1000
0010
0000
0100
0000
0001
1000
0000
0001
1000
0000
0100
0000
,
0010
0001
0000
0010
0001
0000
0010
0000
0001
0010
0000
0001
0010
0000
0001
0000
,
1001
0000
1000
0000
,
0010
0000
0100
0001
,
0010
0000
0100
0000
,
1000
0000
0010
0100
,
0010
0000
1000
0000
,
0001
0000
0010
0100
,
2000
0000
0000
0000
,
0000
0000
0000
0000
,
3010
0000
0100
0000
0010
0000
0100
0000
0010
0000
0100
0000
0010
0100
0000
0010
,
0100
0000
0000
0001
1000
0000
0100
0000
0010
0001
0000
0010
0100
0000
1000
0000
,
0010
0000
0000
0100
0001
0000
0010
0000
0100
1000
0000
0100
0010
0000
0001
0000
,
1000
0000
0000
0010
0100
0000
0001
0000
0010
0000
0000
0100
1000
0000
0001
0000
,
0100
0001
0000
1000
0100
0000
0010
0000
0001
0010
0000
0100
1000
0000
0100
0000
,
0010
0000
0000
0001
0100
0000
0010
0000
1000
0100
0000
0100
0010
0000
0001
0000
,
1000
0000
0000
0010
0100
0000
0001
0000
1000
0001
0000
0100
0010
0000
1000
0000
,
0100
0000
0000
0010
0001
0000
1000
0000
0010
0100
0000
0001
0010
0000
0100
0000
,
1000
0100
0000
1000
0010
0000
0100
0000
0001
1000
0000
0010
1000
0000
0000
0000
,
1100
0000
0000
0100
0010
0000
0001
0000
1000
0001
0000
0001
0010
0000
0100
0000
,
1000
0000
0000
0010
1000
0000
0100
0000
0010
0001
0000
1000
0010
0000
0100
0000
,
0001
0000
0000
0010
0100
0000
0010
0000
0001
1000
0000
0010
1000
0000
0100
0000
,
0010
0001
0000
0010
0100
0000
1000
0000
0010
0100
0000
0001
0100
0000
0000
0000
,
1010
0000
0000
1000
0100
0000
0010
0000
0001
1000
0000
0001
0010
0000
0100
0000
,
1000
0000
0000
0100
0010
0000
0100
0000
1000
0010
0000
1000
0100
0000
0010
0000
,
0001
1000
0001
0010
0100
1000
0100
0010
,
0001
1000
0000
0001
1000
0000
0001
1000
0000
0001
1000
0000
0001
1000
0000
0001
,
1000
0000
0000
1100
0000
0000
0100
0000
0010
0000
0000
0011
0000
0000
0001
0000
,
1000
0000
0000
1010
0000
0000
0010
0000
0100
0000
0001
0100
0000
0001
0100
0000
,
0010
0000
0000
1010
0000
0000
1000
0000
0100
0000
0000
0110
0000
0000
0010
0000
,
0001
0000
0000
1001
0000
0000
1000
0000
0010
0000
0100
0001
0000
0100
0001
0000
,
2000
0000
0000
0000
0000
0000
0020
0030
,
3010
1000
0000
0010
1000
0000
0001
1000
0000
0001
1000
0000
1000
0001
0000
1000
,
0001
0000
0000
0000
;

//---------------dance-single - ----------------
#NOTES:
     dance-single:
     :
     Beginner:
     1:
     0.070776,0.100588,0.067559,0.030026,0.000000,66.000000,57.000000,9.000000,4.000000,0.000000,0.000000,0.070776,0.100588,0.067559,0.030026,0.000000,66.000000,57.000000,9.000000,4.000000,0.000000,0.000000:
0000
0000
0000
0000
,
0000
0000
0000
0000
,
0000
0000
0000
0000
,
0001
0000
0000
0000
,
1000
0000
0000
0000
,
0010
0000
0000
0000
,
0100
0000
0000
0000
,
0001
0000
0000
0000
,
1000
0000
0000
0000
,
0001
0000
0000
0000
,
1000
0000
0000
0000
,
0200
0000
0000
0000
,
0310
0000
0001
0000
,
0000
0000
1000
0000
,
0000
0000
0010
0000
,
0000
0000
0100
0000
,
0001
0000
1000
0000
,
0000
0000
0010
0000
,
0000
0000
0100
0000
,
0000
0000
0001
0000
,
0100
0000
0001
0000
,
0000
0000
0010
0000
,
0000
0000
0100
0000
,
0000
0000
1000
0000
,
0000
0000
0010
0000
,
0000
0000
0100
0000
,
0000
0000
0001
0000
,
0000
0000
1000
0000
,
0000
0000
0001
0000
,
0000
0000
1000
0000
,
0000
0000
0100
0000
,
0000
0000
0010
0000
,
0000
0000
0001
0000
,
0000
0000
0100
0000
,
0000
0000
0010
0000
,
1000
0000
0000
0000
,
0001
0000
0000
0000
,
1000
0000
0000
0000
,
0010
0000
0000
0000
,
1000
0000
0000
0000
,
0100
0000
0000
0000
,
0010
0000
0000
0000
,
0002
0000
0000
0000
,
0000
0000
0000
0000
,
0003
0000
0000
0000
,
1001
0000
0000
0000
,
0000
0000
0000
0000
,
0110
0000
0000
0000
,
0000
0000
0000
0000
,
1001
0000
0000
0000
,
0000
0000
0000
0000
,
0110
0000
0000
0000
,
0000
0000
0000
0000
,
1001
0000
0000
0000
,
0000
0000
0000
0000
,
0110
0000
0000
0000
,
0000
0000
0000
0000
,
1001
0000
0000
0000
,
0000
0000
0000
0000
,
1001
0000
0000
0000
,
0001
0000
0000
0000
,
1000
0000
0000
0000
,
0001
0000
0000
0000
,
0100
0000
0000
0000
,
0001
0000
0000
0000
,
2002
0000
0000
0000
,
0000
0000
0000
0000
,
3003
0000
0000
0000
;

//---------------dance-single - ----------------
#NOTES:
     dance-single:
     :
     Easy:
     4:
     0.225196,0.251469,0.165144,0.045039,0.000000,210.000000,188.000000,22.000000,6.000000,0.000000,0.000000,0.225196,0.251469,0.165144,0.045039,0.000000,210.000000,188.000000,22.000000,6.000000,0.000000,0.000000:
0000
0000
0000
0000
,
0000
0000
0000
0000
,
0000
0000
0000
0000
,
0000
0000
0000
0000
,
1000
0001
1000
0000
,
0001
1000
0001
0000
,
1000
0010
1000
0000
,
0001
0010
0001
1000
,
0001
0000
1000
0100
,
1000
0000
0001
0100
,
0001
0000
1000
0100
,
2000
0000
0010
0000
,
3010
0000
0100
0001
,
0100
0000
0001
1000
,
0001
0000
1000
0100
,
1000
0000
0010
0000
,
1001
0000
0001
0010
,
0100
0000
0100
0010
,
0001
0000
1000
0010
,
0100
0000
0100
0010
,
1000
0000
0001
1000
,
0001
0000
0001
0010
,
0001
0000
0001
0100
,
0001
0100
0001
0100
,
0001
0000
1000
0010
,
1000
0000
1000
0001
,
1000
0000
1000
0100
,
1000
0100
1000
0100
,
1000
0000
0001
1000
,
0001
0000
1000
0010
,
1000
0000
0001
1000
,
0001
0000
0010
0001
,
0010
0000
0100
1000
,
0100
0000
1000
0001
,
1000
0000
0010
1000
,
0020
0000
1000
0000
,
1030
0000
1010
0000
,
1001
0000
0011
0000
,
1001
0000
1100
0000
,
1001
0000
0101
0000
,
0110
0000
1001
0000
,
0110
0000
1001
0000
,
0002
1000
0100
1000
,
0010
1000
0100
1000
,
0013
0000
0000
0000
,
1001
0000
0001
0010
,
0100
1000
0010
0100
,
0001
0000
1000
0100
,
0010
0001
0100
0010
,
1000
0000
0001
1000
,
0010
1000
0001
0010
,
0001
0000
1000
0001
,
0100
0001
1000
0100
,
1000
0000
0001
0010
,
0100
0010
0001
0010
,
0100
0000
1000
0010
,
0100
0010
1000
0010
,
0100
0000
0001
0010
,
0100
1000
0010
0100
,
0001
1000
0001
1000
,
0002
1000
1000
1003
,
1001
0000
1100
0000
,
1001
0000
0101
0000
,
0011
0000
0110
0000
,
1100
0000
1010
0000
,
0220
0000
0030
0000
,
0010
0001
0010
1000
,
0310
0000
0000
0000
;

//---------------dance-single - ----------------
#NOTES:
     dance-single:
     :
     Medium:
     7:
     0.433235,0.427498,0.187664,0.045039,0.123858,404.000000,379.000000,25.000000,6.000000,42.000000,0.000000,0.433235,0.427498,0.187664,0.045039,0.123858,404.000000,379.000000,25.000000,6.000000,42.000000,0.000000:
// measure 0
0000
0000
0000
0000
,  // measure 1
0000
0000
0000
0000
,  // measure 2
M00M
0000
0000
0000
,  // measure 3
0000
0000
0000
0000
,  // measure 4
0001
0000
1000
0100
0010
0000
0001
0000
,  // measure 5
0100
0000
1000
0100
0010
0000
1000
0000
,  // measure 6
0100
0000
0010
0001
1000
0000
0010
0000
,  // measure 7
0100
0000
0001
0010
1000
0000
0020
0000
,  // measure 8
0031
0000
1000
0010
0100
0000
1000
0000
,  // measure 9
0100
0000
0001
0010
0100
0000
0001
0000
,  // measure 10
0100
0000
0010
0001
0100
0000
1000
0000
,  // measure 11
0100
0000
0100
0000
0100
0010
0100
0010
,  // measure 12
0100
0000
0000
0000
0001
0000
0000
1000
0100
0000
0001
0000
0100
0000
0000
0000
,  // measure 13
0010
0000
0000
0000
0001
0000
0000
0100
0001
0000
1000
0000
0010
0000
0000
0000
,  // measure 14
0100
0000
0000
0000
0001
0000
0000
1000
0010
0000
0001
0000
0010
0000
0000
0000
,  // measure 15
1000
0000
0000
0000
0100
0000
0000
0010
0001
0000
0010
0000
0200
0000
0000
0000
,  // measure 16
1300
0000
0000
0000
0001
0000
0000
0100
0010
0000
1000
0000
0100
0000
0000
0000
,  // measure 17
0001
0000
0000
0000
0100
0000
0000
0010
0001
0000
0100
0000
0010
0000
0000
0000
,  // measure 18
0001
0000
0000
0000
0010
0000
0000
1000
0100
0000
1000
0000
0010
0000
0000
0000
,  // measure 19
0100
0000
0100
0000
0100
1000
0100
0001
,  // measure 20
0100
0000
0000
0000
0010
0000
0000
1000
0100
0000
0001
0000
0100
0000
0010
0000
,  // measure 21
0001
0000
0000
0000
0100
0000
0000
0001
0100
0000
0010
0000
0100
0000
1000
0000
,  // measure 22
0100
0000
0000
0000
0001
0000
0000
1000
0100
0000
0010
0000
0001
0000
0100
0000
,  // measure 23
0010
0100
0001
0010
0100
1000
0001
0000
,  // measure 24
1001
0000
0000
0000
0001
0000
0000
0010
0100
0000
1000
0000
0100
0000
0001
0000
,  // measure 25
0100
0000
0000
0000
0010
0000
0000
0001
0100
0000
1000
0000
0100
0000
0001
0000
,  // measure 26
0100
0000
0000
0000
0010
0000
0000
0001
0010
0000
0100
0000
0010
0000
1000
0000
,  // measure 27
0100
0010
0001
0010
0100
1000
0100
0010
,  // measure 28
0001
0000
0000
0000
1000
0000
0000
0010
0100
0000
0001
0000
0100
0000
0010
0000
,  // measure 29
0001
0000
0000
0000
0010
0000
0000
1000
0100
0000
0010
0000
0001
0000
0010
0000
,  // measure 30
0100
0000
0000
0000
1000
0000
0000
0010
0100
0000
1000
0000
0100
0000
0001
0000
,  // measure 31
0010
0100
0001
0100
1000
0010
0100
0000
,  // measure 32
1001
0000
0000
0000
0001
0000
0000
0010
0100
0000
1000
0000
0001
0000
0100
0000
,  // measure 33
0010
0000
0000
0000
1000
0000
0000
0001
1000
0000
0001
0000
0010
0000
1000
0000
,  // measure 34
0010
0100
1000
0010
0100
0001
0010
0100
,  // measure 35
1000
0100
0001
0100
0010
1000
0010
0100
,  // measure 36
1000
0000
1100
0000
,  // measure 37
M110
0000
0M11
10M1
,  // measure 38
101M
0000
M110
0000
,  // measure 39
01M1
0000
0M11
10M1
,  // measure 40
101M
0000
M110
0000
,  // measure 41
1MM1
0000
11MM
MM11
,  // measure 42
M22M
0000
0000
0000
,  // measure 43
0000
0000
0000
0000
,  // measure 44
0330
0000
MMMM
0000
,  // measure 45
10M1
0000
0000
0000
1000
0000
0000
0001
0100
0000
0010
0000
0001
0000
0010
0000
,  // measure 46
1000
0100
0001
0100
0010
0001
0100
0010
,  // measure 47
0100
0000
0000
0001
1000
0000
0010
0000
0100
0000
0001
0000
0010
0000
0100
0000
,  // measure 48
0001
0100
1000
0010
0100
0001
1000
0000
,  // measure 49
110M
0000
0000
0000
0100
0000
0000
0010
0001
0000
0010
0000
1000
0000
0010
0000
,  // measure 50
0100
0001
0100
1000
0010
0100
0001
1000
,  // measure 51
0100
0000
0000
1000
0001
0000
0100
0000
1000
0000
0100
0000
0001
0000
0010
0000
,  // measure 52
1000
0010
0001
0100
0001
0100
0010
0000
,  // measure 53
1M10
0000
0000
0000
1000
0000
0000
0001
0100
0000
0010
0000
0001
0000
0010
0000
,  // measure 54
0100
1000
0100
0010
0001
0010
1000
0100
,  // measure 55
0010
0000
0000
0001
1000
0000
0010
0000
0100
0000
0001
0000
0010
0000
0100
0000
,  // measure 56
1000
0100
0010
0100
0001
0100
0010
0000
,  // measure 57
M011
0000
0000
0000
0001
0000
0000
1000
0010
0000
0100
0000
0001
0000
1000
0000
,  // measure 58
0010
0100
0001
0010
1000
0010
0001
0000
,  // measure 59
1001
M11M
1MM1
M11M
,  // measure 60
10M0
0100
0010
0001
0100
0010
0001
0010
,  // measure 61
0100
0000
0000
0001
0100
0000
0010
0000
1000
0000
0000
0100
0010
0000
1000
0000
,  // measure 62
0010
0000
0000
0001
0100
0000
1000
0000
0100
0000
0001
0000
0010
0000
0100
0000
,  // measure 63
0010
0000
0000
0100
1000
0000
0010
0000
0100
0000
0000
0010
0100
0000
1000
0000
,  // measure 64
0100
0000
0000
0001
0010
0000
1000
0000
0010
0000
0000
0001
1000
0000
0000
1000
,  // measure 65
0002
00M0
0M00
M000
00M0
0M00
M023
0000
,  // measure 66
013M
1000
0100
0010
1000
0010
0001
1000
,  // measure 67
0001
0000
0000
0000
;
