#TITLE:Baelfire;
#SUBTITLE:;
#ARTIST:MDK;
#TITLETRANSLIT:;
#SUBTITLETRANSLIT:;
#ARTISTTRANSLIT:;
#GENRE:;
#CREDIT:;
#BANNER:Baelfire.png;
#BACKGROUND:Baelfire - bg.png;
#LYRICSPATH:;
#CDTITLE:;
#MUSIC:Baelfire.ogg;
#OFFSET:0.000;
#SAMPLESTART:45.000;
#SAMPLELENGTH:14.990;
#SELECTABLE:YES;
#BPMS:0.000=128.000;
#STOPS:;
#BGCHANGES:;
#KEYSOUNDS:;

//---------------dance-single - Rikame----------------
#NOTES:
     dance-single:
     Rikame:
     Challenge:
     10:
     0.857,0.906,0.600,0.258,0.966:
0000
0000
0000
0000
,
0000
0000
0000
0000
,
0000
0000
0000
0000
,
0000
0000
0000
0000
,
0001
0000
1000
0000
0100
0000
0010
0000
0001
1000
0001
0000
0100
0000
0100
0000
0010
0000
1000
0000
0000
0000
0000
0000
,
0001
0010
0100
0001
0100
1000
0010
0001
0020
0230
0300
0000
,
0001
0000
0010
0000
0001
0000
1000
0000
0010
1000
0010
0000
0100
0000
0001
0000
1000
0000
0100
0000
0000
0000
0000
0000
,
1000
0010
0100
1000
0100
0001
0010
1000
0020
0230
0300
0000
,
1000
0000
0001
0000
0100
0000
0001
0000
0010
0001
0010
0000
0100
0000
1000
0000
0010
0000
0100
0000
0000
0000
0000
0000
,
0001
1000
0100
0010
1000
0001
0100
0010
0002
2003
3000
0000
,
0001
0000
0100
0000
0010
0000
1000
0000
0100
1000
0100
0000
0010
0000
0001
0000
0100
0000
0010
0000
0000
0000
0000
0000
,
1110
0111
1011
MMMM
,
0011
0000
1000
0000
0100
0000
1010
0000
0001
0100
0010
0000
1100
0000
0001
0000
0010
0000
0101
0000
0000
0000
0000
0000
,
1010
0100
0010
0101
1000
0001
1100
0010
0100
0022
0000
0033
,
1100
0000
0001
0000
0010
0000
0101
0000
1000
0001
1000
0000
0011
0000
1000
0000
0100
0000
1010
0000
0000
0000
0000
0000
,
0101
1000
0100
1010
0001
0100
0011
1000
0001
2200
0000
3300
,
1004
0000
0000
0103
0010
0000
1000
0000
0400
0000
0000
0310
0001
0000
0001
0100
,
0010
0000
0000
0000
0000
0000
0000
0000
0000
0010
0000
0000
1000
0000
0000
0001
0000
0000
1000
0000
0000
0000
0000
0000
1100
0000
0000
0000
0000
0000
0000
0000
0000
0100
0000
0000
0020
0000
0000
0000
0030
0000
0000
0000
0000
0000
0000
0000
,
4001
0000
0000
3010
0100
0000
0001
0000
0041
0000
0000
0130
1000
0000
1000
0010
,
0100
0000
0000
0000
0000
0000
0000
0000
0000
0100
0000
0000
0001
0000
0000
0000
0000
0000
1000
0000
0000
0000
0000
0000
0011
0000
0000
0000
0000
0000
0000
0000
0000
0000
0000
0000
1100
0000
0000
0000
1000
0000
0000
0000
0001
0000
0000
0000
,
0104
1013
4100
3101
,
0014
1013
4100
3011
,
1000
0001
0100
0001
0100
0010
1000
0001
0010
0100
1000
0001
1000
0001
0100
0010
,
1000
0000
0000
0000
0000
0000
0000
0000
0100
0000
0000
0000
0000
0000
0000
0000
1000
0000
0000
0000
0000
0000
0000
0000
0001
0000
0000
0000
0000
0000
0000
0000
0010
0000
0000
0000
0000
0000
0000
0000
0100
0000
0000
0000
0000
0000
0000
0000
1000
0000
0000
0000
0000
0000
0000
0000
0001
0000
0000
0000
0000
0000
0000
0000
1000
0000
0000
0000
0000
0000
0000
0000
0100
0000
0000
0000
0000
0000
0000
0000
0010
0000
0000
0000
0000
0000
0000
0000
0001
0000
0000
0000
0000
0000
0000
0000
0100
0000
0000
0000
0000
0000
0000
0000
0000
0000
0000
0000
0010
0000
0000
0000
0000
0000
0000
0000
0000
0000
0000
0000
1000
0000
0000
0000
0000
0000
0000
0000
0000
0000
0000
0000
0100
0000
0000
0000
0000
0000
0000
0000
0000
0000
0000
0000
0020
0000
0000
0000
0000
0000
0000
0000
0000
0000
0000
0000
0000
0000
0000
0000
0000
0000
0000
0000
0000
0000
0000
0000
0000
0000
0000
0000
0000
0000
0000
0000
0000
0000
0000
0000
0000
0000
0000
0000
0000
0000
0000
0000
0000
0030
0000
0000
,
1001
0000
1000
0100
M010
0000
001M
0000
1000
0001
0100
0000
0140
0000
0000
0000
,
1030
0000
0000
0000
0104
0000
1003
0000
1100
0000
0000
0000
0100
0000
0100
0010
,
0001
0000
1000
0100
1000
0001
0100
0001
0010
0001
1000
0000
4001
0000
0000
0000
,
3001
0020
0000
0000
0031
1000
0100
0010
0001
0200
0000
0000
0301
1000
0010
0100
,
0001
0000
1000
0010
M100
0000
010M
0000
1000
0001
0010
0000
0001
1000
0100
1000
,
0020
0000
0000
0000
1030
0000
0001
0000
0011
0000
0000
0000
1010
0000
1000
0100
,
0010
0000
0001
1000
0010
1000
0001
0010
0001
0100
0001
0000
4001
0000
0000
0000
,
3100
0010
0001
0000
0100
0010
1000
0001
0100
0000
0010
0000
0100
0001
0010
0001
,
2000
0000
3001
0100
0010
0000
0010
1000
0100
1000
0001
0000
0401
0000
0000
0000
,
0310
0000
1000
0000
1001
0000
0001
0020
0100
0000
0031
0000
1000
0000
0100
0010
,
0002
0000
0013
0100
1000
0000
1000
0001
0000
0001
0100
0000
0410
0000
0000
0000
,
0301
1000
0001
0100
0010
1000
0010
1000
0100
0000
1000
0000
0001
0100
0001
0100
,
0010
1000
0100
1000
0001
0000
0001
0100
0000
0100
0010
0000
1000
0100
0010
0001
,
0200
0000
0310
0000
1010
0000
1000
0020
0100
0000
1030
0000
0001
0000
0010
0100
,
2000
0000
3100
0010
0001
0000
0001
0100
0010
1000
0100
0000
0140
0000
0000
0000
,
0031
0000
0000
0100
0000
0000
0001
0000
0000
1000
0000
0000
0100
0000
0000
1000
0000
0000
0010
0000
0000
1000
0000
0000
0001
0000
1000
0000
0001
0000
1000
0000
0001
0000
1000
0000
0100
0000
0000
0010
0000
0000
0001
0000
0000
0000
0000
0000
,
1001
0000
1000
0000
0010
0000
0100
0000
0001
0010
0100
0000
4001
0000
0000
0000
,
3010
0000
0000
0000
0101
0000
0100
0000
0010
0000
0000
0000
1100
0000
0001
0010
,
0100
0000
0000
0000
1000
0000
0000
0000
0010
0000
0000
0000
0100
0000
0000
0000
0001
0000
1000
0001
1000
0000
0000
0000
2001
0000
0000
0000
0000
0000
0000
0000
,
3010
0000
0100
0000
0001
0010
0001
0100
0001
0000
1000
0000
0100
1000
0010
1000
,
0001
0000
1000
0000
0100
0010
0001
0000
0100
0010
1000
0000
0001
0010
0100
1000
,
0002
0000
0000
0000
0103
0000
0010
0000
2000
0000
0000
0000
3100
0000
0100
0010
,
0002
0000
0000
0000
0103
0000
0000
0000
0010
0000
0100
0000
0001
0000
0000
0000
1000
0000
0001
1000
0001
0000
0000
0000
1004
0000
0000
0000
0000
0000
0000
0000
,
0013
0000
1100
0000
0001
0000
1010
0000
0100
0000
0011
0000
1000
0100
0010
0001
,
0200
0000
0310
0000
1010
0000
0001
0010
0000
0001
1000
0000
1040
0000
0000
0000
,
1030
0001
0100
0000
0010
0000
0010
2000
0001
0000
3100
0000
0010
0000
0001
1000
,
0001
0000
0010
0000
0100
0000
0000
0000
1100
0000
0000
0000
0001
0000
0100
0000
0000
0000
0001
1000
0001
0000
0000
0000
0100
0000
0010
0000
1000
0000
0000
0000
,
0100
0010
0001
0000
0011
0000
0010
0200
1000
0000
0310
0000
0001
0100
0010
1000
,
0100
0010
0001
0000
0101
0000
1000
0100
0000
1000
0001
0000
0010
0100
0010
0001
,
0200
0000
0301
0000
1001
0000
1000
0100
0020
0000
0031
0000
0100
0000
0100
0010
,
2000
0000
0000
0000
3100
0000
0000
0000
1000
0000
0000
0000
0010
0000
0000
0000
0100
0000
0001
1000
0001
0000
0000
0000
1000
0000
0010
0000
0100
0000
0000
0000
,
0001
0000
0000
0010
0000
0000
0001
0000
0000
0100
0000
0000
0010
0000
0000
1000
0000
0000
0100
0000
0000
1000
0000
0000
0010
0000
0100
0000
0001
0000
0010
0000
0100
0000
1000
0000
0001
0000
0000
1000
0000
0000
0001
0000
0000
0000
0000
0000
,
0101
0000
0000
0000
1000
0000
0000
0000
0000
0000
1000
0000
0010
0000
0000
0000
0110
0000
0000
0000
0001
0000
0000
0000
0010
0000
0000
0000
0001
1000
0001
1000
,
0001
0000
0000
0010
0000
0010
0100
0000
1100
0000
1000
0000
0040
0000
0130
0000
,
0004
0000
0000
0000
1003
0000
0000
0000
0000
0000
1000
0000
0100
0000
0000
0000
0110
0000
0000
0000
0001
0000
0000
0000
0100
0000
0000
0000
0001
1000
0001
1000
,
0001
0000
0000
0010
0000
0010
0100
0000
1100
0000
1000
0000
0001
0000
0100
0000
,
0101
0000
0000
0000
1000
0000
0000
0000
0000
0000
1000
0000
0100
0000
0000
0000
0110
0000
0000
0000
0001
0000
0000
0000
0100
0000
0000
0000
0001
1000
0001
1000
,
0001
0000
0000
0100
0000
0100
0010
0000
1010
0000
1000
0000
0400
0000
0310
0000
,
0004
0000
0000
0000
1003
0000
0000
0000
0000
0000
1000
0000
0010
0000
0000
0000
0110
0000
0000
0000
0001
0000
0000
0000
0010
0000
0000
0000
0001
1000
0001
1000
,
0001
0000
0000
0100
0000
0100
0010
0000
1010
0000
0001
0000
0010
0000
0100
0000
,
1001
0000
0000
0000
;

//---------------dance-single - Blank----------------
#NOTES:
     dance-single:
     Blank:
     Beginner:
     1:
     0.115,0.185,0.000,0.000,0.000:
0000
0000
0000
0000
,
0000
0000
0000
0000
,
0000
0000
0000
0000
,
0000
0000
0000
0000
,
0001
0000
0000
0000
,
0100
0000
0000
0000
,
0010
0000
0000
0000
,
1000
0000
0000
0000
,
0100
0000
0000
0000
,
0010
0000
0000
0000
,
0001
0000
0000
0000
,
1000
1000
1000
0000
,
0001
0000
0100
0000
,
0001
0000
0010
0000
,
0100
0000
1000
0000
,
0010
0000
1000
0000
,
0001
0000
0001
0000
,
0001
0000
0001
0000
,
1000
0000
1000
0000
,
1000
0000
1000
0000
,
0001
0000
1000
0000
,
0001
0000
1000
0000
,
0001
1000
0001
1000
,
0001
1000
0001
0000
,
1000
0000
0000
0000
,
0100
0000
0000
0000
,
0010
0000
0000
0000
,
0001
0000
0000
0000
,
0100
0000
0000
0000
,
0010
0000
0010
0000
,
0010
0000
0000
0000
,
1000
0000
0000
0000
,
0001
0000
0001
0000
,
0010
0000
0010
0000
,
0100
0000
0100
0000
,
1000
0000
1000
0000
,
0010
0000
0010
0000
,
0100
0000
0100
0000
,
0100
0000
0000
0000
,
0001
0000
0000
0000
,
1000
0000
0001
0000
,
0100
0000
0100
0000
,
0010
0000
1000
0000
,
0001
0000
0001
0000
,
0010
0000
0100
0000
,
1000
0000
1000
0000
,
0001
0000
0100
0000
,
0010
0000
0010
0000
,
1000
0000
0000
0000
,
0100
0000
0000
0000
,
1000
0000
0000
0000
,
0001
0000
0000
0000
,
0100
0000
0000
0000
,
0001
0000
0001
0000
,
0001
0000
0000
0000
,
1000
0000
0000
0000
,
0001
0000
0000
0000
,
0100
0000
0010
0000
,
1000
0000
0000
0000
,
0100
0000
0010
0000
,
0001
0000
0000
0000
,
1000
0000
0010
0000
,
0100
0000
0000
0000
,
0001
0000
0010
0000
;

//---------------dance-single - Rikame----------------
#NOTES:
     dance-single:
     Rikame:
     Hard:
     9:
     0.716,0.745,0.333,0.433,0.583:
0000
0000
0000
0000
,
0000
0000
0000
0000
,
0000
0000
0000
0000
,
0000
0000
0000
0000
,
0001
0000
0100
0000
0010
0000
1000
0000
0100
1000
0100
0000
0010
0000
0001
0000
1000
0000
0010
0000
0000
0000
0000
0000
,
0100
0001
0010
0001
1000
0010
1000
0100
2000
3002
0003
0000
,
0100
0000
0010
0000
1000
0000
0001
0000
0010
0001
0010
0000
0100
0000
1000
0000
0001
0000
0100
0000
0000
0000
0000
0000
,
0001
0010
0001
1000
0100
1000
0001
0100
0020
2030
3000
0000
,
0001
0000
0010
0000
0100
0000
1000
0000
0010
1000
0010
0000
0100
0000
0001
0000
1000
0000
0100
0000
0000
0000
0000
0000
,
0010
0001
0100
0001
1000
0100
1000
0010
2000
3002
0003
0000
,
0010
0000
0100
0000
1000
0000
0001
0000
0100
0001
0100
0000
0010
0000
1000
0000
0001
0000
0010
0000
0000
0000
0000
0000
,
0101
1010
1100
0001
,
1010
1000
0001
0011
0010
0100
1100
1000
0001
0101
0000
0000
,
1100
1000
0010
0110
0100
0001
1001
1000
0010
1010
0000
0000
,
0101
0001
0010
0110
0100
1000
1010
0100
0001
1001
0000
0000
,
1100
0100
0010
0011
0001
1000
1010
0010
0100
0101
0000
0000
,
1000
0000
0000
1000
0100
0000
0010
0000
0001
0000
0000
0001
1000
0000
0010
0000
,
0100
0000
0000
0100
0001
0000
1000
0000
0100
0000
0000
0100
0020
0000
0030
0000
,
0001
0000
0000
0001
1000
0000
0010
0000
0100
0000
0000
0100
0001
0000
1000
0000
,
0001
0000
0000
0000
0000
0000
0000
0000
0000
0001
0000
0000
0010
0000
0000
0000
0000
0000
0100
0000
0000
0000
0000
0000
1001
0000
0000
0000
0000
0000
0000
0000
0000
0000
0000
0000
1000
0000
0000
0000
0100
0000
0000
0000
1000
0000
0000
0000
,
1001
0101
0011
1100
,
0101
0011
1001
1010
,
0001
1000
0001
0100
0001
0010
0100
1000
,
0001
0010
0001
0100
0010
1000
0100
1000
0001
0100
0001
0100
0020
0000
0000
0000
,
1030
0000
0100
1000
0100
0000
0010
0000
0001
1000
0001
0000
0200
0000
0000
0000
,
0310
0000
1010
1000
0001
0000
0101
0100
,
0010
0000
1000
0010
1000
0000
0001
0010
0000
0010
0100
0000
2000
0000
0000
0000
,
3010
0000
0000
0100
0000
0100
0001
0000
1000
0000
0000
0100
0000
0100
0010
0000
,
1001
0000
0001
0100
0001
0000
1000
0000
0010
1000
0010
0000
0100
0001
1000
0001
,
0020
0000
0130
1000
0002
0000
0103
0010
,
1000
0000
0100
1000
0100
0000
0010
0001
0000
0001
0100
0000
0020
0000
0000
0000
,
1030
0000
0200
0000
1300
0000
0002
0000
0103
0000
0020
0000
1030
0100
0010
0001
,
1000
0000
0010
0000
0100
0000
0010
0000
1000
0001
1000
0000
0200
0000
0000
0000
,
1300
0000
0001
0000
0010
0000
0001
0200
0000
0000
0310
0000
1000
0000
0100
0000
,
1000
0001
1000
0000
0010
0000
0100
0001
0000
0001
1000
0000
0200
0000
0000
0000
,
1300
0010
1000
0000
0001
0000
0010
0002
0000
0000
1003
0000
0100
0010
0001
0000
,
1000
0000
0100
1000
0100
0000
0010
0000
0001
0100
0001
0000
0100
0010
1000
0100
,
0010
0000
0001
0000
0001
0000
0100
0010
1000
0000
0100
0000
0100
0000
1000
0001
,
1000
0000
0001
0010
0001
0000
0100
0010
0000
0010
1000
0000
0002
0000
0000
0000
,
1003
0200
1300
0020
0130
0002
0013
0100
,
1001
0000
2000
0000
3001
0000
0200
0000
0310
1000
0010
0000
0400
0000
0000
0000
,
0302
0000
1003
0010
0200
0000
0301
0020
,
0031
0000
2000
0000
3010
0000
0200
0000
0301
1000
0001
0000
0020
0000
0000
0000
,
0031
0000
2000
0000
3100
0000
2000
0000
3010
0000
0200
0000
0301
0000
0001
0010
,
0100
0000
2000
0000
3010
0000
0200
0000
0301
1000
0001
0000
0010
0100
0010
0001
,
2000
0000
3010
0100
0002
0000
0013
0100
,
1000
0000
0020
0000
0130
0000
0002
0000
0013
0100
0010
0000
0001
0000
0000
0000
,
0100
0000
0020
0000
0130
0000
0002
0000
0013
0000
0200
0000
1300
0001
0100
0010
,
1000
0001
0001
0100
0010
1000
0004
0000
,
0013
0100
0100
1000
0010
0001
0010
0100
,
0001
1000
1000
0100
0010
0010
0004
4003
,
3010
0100
0100
0001
0010
1000
0010
0100
,
1000
0001
0001
0100
0010
1000
0100
0010
,
0002
0000
0103
0010
2000
0000
3001
0010
,
0100
0000
2000
0000
3010
0000
0200
0000
0301
1000
0001
0000
0020
0000
0000
0000
,
0031
2000
3100
0020
0031
2000
3010
0100
,
0001
0000
1000
0100
0000
0100
1000
0000
1010
0000
0010
0000
0100
0000
0001
0000
,
0010
0000
0000
0010
0000
0000
0100
0000
1001
0000
0000
0000
1000
0000
0001
0000
,
0100
0000
0010
1000
0000
1000
0010
0000
0110
0000
0100
0000
0001
0000
1000
0000
,
0100
0000
0000
0100
0000
0100
0010
0000
0011
0000
0000
0000
1000
0000
0001
0000
,
1000
0000
0100
0010
0000
0010
0100
0000
1100
0000
1000
0000
0001
0000
0100
0000
,
0010
0000
0000
0010
0000
0000
1000
0000
1001
0000
0000
0000
0001
0000
0100
0000
,
0010
0000
1000
0100
0000
0100
1000
0000
1001
0000
0001
0000
0100
0000
0010
0000
,
1000
0000
0000
1000
0000
1000
0100
0000
0110
0000
0000
0000
0001
0000
1000
0000
;

//---------------dance-single - Novice----------------
#NOTES:
     dance-single:
     Novice:
     Easy:
     3:
     0.115,0.185,0.000,0.000,0.000:
0000
0000
0000
0000
,
0000
0000
0000
0000
,
0000
0000
0000
0000
,
0000
0000
0000
0000
,
0001
0000
0000
0000
,
0100
0000
0000
0000
,
0010
0000
0000
0000
,
1000
0000
0000
0000
,
0100
0000
0000
0000
,
0010
0000
0000
0000
,
0001
0000
0000
0000
,
1000
1000
1000
0000
,
0001
0000
0100
0000
,
0001
0000
0010
0000
,
0100
0000
1000
0000
,
0010
0000
1000
0000
,
0001
0000
0001
0000
,
0001
0000
0001
0000
,
1000
0000
1000
0000
,
1000
0000
1000
0000
,
0001
0000
1000
0000
,
0001
0000
1000
0000
,
0001
1000
0001
1000
,
0001
1000
0001
0000
,
1000
0000
0000
0000
,
0100
0000
0000
0000
,
0010
0000
0000
0000
,
0001
0000
0000
0000
,
0100
0000
0000
0000
,
0010
0000
0010
0000
,
0010
0000
0000
0000
,
1000
0000
0000
0000
,
0001
0000
0001
0000
,
0010
0000
0010
0000
,
0100
0000
0100
0000
,
1000
0000
1000
0000
,
0010
0000
0010
0000
,
0100
0000
0100
0000
,
0100
0000
0000
0000
,
0001
0000
0000
0000
,
1000
0000
0001
0000
,
0100
0000
0100
0000
,
0010
0000
1000
0000
,
0001
0000
0001
0000
,
0010
0000
0100
0000
,
1000
0000
1000
0000
,
0001
0000
0100
0000
,
0010
0000
0010
0000
,
1000
0000
0000
0000
,
0100
0000
0000
0000
,
1000
0000
0000
0000
,
0001
0000
0000
0000
,
0100
0000
0000
0000
,
0001
0000
0001
0000
,
0001
0000
0000
0000
,
1000
0000
0000
0000
,
0001
0000
0000
0000
,
0100
0000
0010
0000
,
1000
0000
0000
0000
,
0100
0000
0010
0000
,
0001
0000
0000
0000
,
1000
0000
0010
0000
,
0100
0000
0000
0000
,
0001
0000
0010
0000
;

//---------------dance-single - Rikame----------------
#NOTES:
     dance-single:
     Rikame:
     Medium:
     6:
     0.512,0.452,0.283,0.192,0.137:
0000
0000
0000
0000
,
0000
0000
0000
0000
,
0000
0000
0000
0000
,
0000
0000
0000
0000
,
0001
0000
1000
0010
0000
0010
0100
0000
0100
0001
0000
0000
,
0010
0000
0010
0001
0000
0001
0100
0000
0100
0010
0000
0000
,
1000
0000
1000
0001
0000
0001
0010
0000
0010
0100
0000
0000
,
1000
0000
1000
0001
0000
0001
0100
0000
0100
0010
0000
0000
,
1000
0000
0100
1000
0000
1000
0001
0000
0001
0100
0000
0000
,
0010
0000
0010
1000
0000
1000
0100
0000
0100
0010
0000
0000
,
0001
0000
0001
0010
0000
0010
0100
0000
0100
1000
0000
0000
,
1010
0101
0011
1000
,
0101
0011
0101
1010
,
0011
0101
0011
0110
,
1100
0101
1100
1001
,
0011
1010
0011
0110
,
2001
0000
3010
0100
0002
0000
0013
0100
,
1000
0000
1000
0010
0100
0000
0011
0000
,
2000
0000
3001
0010
0200
0000
1300
0010
,
0100
0000
0100
0001
1001
0000
1000
0001
,
1001
0110
1001
0110
,
1010
0101
0011
1100
,
0001
0100
0010
1000
0001
1000
0100
0010
,
0001
0001
0100
0100
0010
1000
0200
0000
,
1300
0001
0010
0010
0001
0100
0020
0000
,
1030
0000
0001
0100
0010
0000
0010
1000
,
0100
1000
0001
0100
0010
1000
0002
0000
,
1003
0000
1000
0100
0010
0000
0010
0001
,
1000
0010
0100
0100
0001
0010
0100
1000
,
0002
0000
0103
0010
2000
0000
3001
0010
,
0100
1000
0010
0100
0001
1000
0002
0000
,
1003
1010
0000
0011
0001
1000
0100
0010
,
0001
0000
0100
0000
0100
0000
0000
0010
0000
0000
1000
0000
0002
0000
0000
0000
,
1003
0000
0010
0000
0010
0000
0000
0100
0000
0000
0001
0000
1000
0000
0001
0000
,
0010
0000
0100
0000
0100
0000
0000
1000
0000
0000
0001
0000
0200
0000
0000
0000
,
0310
0000
1000
0000
1000
0000
0000
0100
0000
0000
0010
0000
0001
0000
0100
0000
,
0010
0000
1000
0000
1000
0000
0000
0001
0000
0000
0010
0000
0100
0000
1000
0000
,
0002
0000
0103
0010
2000
0000
3100
0010
,
0001
0000
0100
0000
0100
0000
0000
0010
0000
0000
1000
0000
0200
0000
0000
0000
,
1300
0001
0100
0010
1000
0100
0010
0100
,
1000
0001
0000
0100
0010
0100
1000
0000
,
0101
0000
1000
0100
1100
0000
0001
0010
,
0100
1000
0000
0010
0100
0010
0001
0000
,
0010
1000
0000
0001
0000
0010
0000
0001
,
1000
0100
0010
0001
0100
0010
0100
0001
,
2000
0000
3100
0010
0002
0000
0103
0010
,
1000
0001
0000
0010
0001
0100
0020
0000
,
1030
0100
1000
0010
0100
0001
0010
0100
,
1000
0000
0001
0000
0001
0000
0000
0100
0000
0000
0010
0000
1000
0000
0001
0000
,
1000
0000
0100
0000
0100
0000
0000
0010
0000
0000
0001
0000
0100
0000
0010
0000
,
1000
0000
0001
0000
0001
0000
0000
0010
0000
0000
0100
0000
0010
0000
0001
0000
,
0100
0000
0010
0000
0010
0000
0000
1000
0000
0000
0100
0000
1000
0000
0001
0000
,
0100
0000
0010
0000
0010
0000
0000
1000
0000
0000
0100
0000
1000
0000
0001
0000
,
0020
0000
0032
1003
0200
0000
1300
0010
,
0100
0000
0001
0000
0001
0000
0000
1000
0000
0000
0100
0000
1000
0000
0001
0000
,
0100
0100
0010
0010
1000
0001
0010
0100
,
1000
0010
0000
0100
0010
0000
1000
0001
,
0010
0100
0000
0100
1000
0000
0001
0000
,
0100
0010
0000
0010
1000
0000
0200
0000
,
1300
0001
0000
0001
0010
0000
0001
0100
,
0010
1000
0000
0001
1000
0000
0100
1000
,
0001
0010
0000
0001
0100
0000
0010
0000
,
1000
0100
0000
1000
0001
0000
0200
0000
,
0310
1000
0000
0100
0010
0000
0100
1000
;
