#TITLE:Backyard Animals;
#SUBTITLE:;
#ARTIST:Max Elto;
#TITLETRANSLIT:;
#SUBTITLETRANSLIT:;
#ARTISTTRANSLIT:;
#GENRE:Deep House;
#CREDIT:;
#BANNER:ba-bn.png;
#BACKGROUND:ba-bg.png;
#LYRICSPATH:;
#CDTITLE:cdtitle.png;
#MUSIC:backyard animals.mp3;
#OFFSET:0.000000;
#SAMPLESTART:76.984001;
#SAMPLELENGTH:16.000000;
#SELECTABLE:YES;
#BPMS:0.000000=124.000000
;
#STOPS:28.000000=1.500000
;
#BGCHANGES:;
#KEYSOUNDS:;
#ATTACKS:;

//---------------dance-single - ----------------
#NOTES:
     dance-single:
     :
     Easy:
     3:
     0.242712,0.356786,0.108735,0.122327,0.000000,250.000000,234.000000,16.000000,18.000000,0.000000,0.000000,0.242712,0.356786,0.108735,0.122327,0.000000,250.000000,234.000000,16.000000,18.000000,0.000000,0.000000:
// measure 0
0000
0000
0000
0000
,  // measure 1
0000
0000
0000
0000
,  // measure 2
0000
0000
0000
0000
,  // measure 3
0000
0000
0000
0000
,  // measure 4
1001
0000
0010
0000
,  // measure 5
1000
0000
0010
0000
,  // measure 6
0100
0000
1000
0000
,  // measure 7
0000
1000
0001
0100
,  // measure 8
0010
1000
0001
0100
,  // measure 9
0010
0001
1000
0100
,  // measure 10
0001
0010
1000
0001
,  // measure 11
0010
0001
0100
0010
,  // measure 12
1000
0001
0100
0010
,  // measure 13
1000
0001
0100
0010
,  // measure 14
0100
0000
1000
0000
,  // measure 15
1000
0002
0000
0000
,  // measure 16
0000
0000
0203
0000
0000
0300
0010
0002
,  // measure 17
0000
0003
2000
0000
0000
0000
0000
0000
,  // measure 18
0000
0000
3200
0000
0000
0300
0020
0000
,  // measure 19
0000
0030
0002
0000
0000
0000
0000
0000
,  // measure 20
0000
0000
2003
0000
0000
3000
0200
0000
,  // measure 21
0000
0300
0022
0000
0000
0030
0020
0000
,  // measure 22
0000
0033
1001
0000
0000
0000
0000
0000
,  // measure 23
0000
1000
0000
0001
,  // measure 24
0000
0100
0000
1000
,  // measure 25
0000
0100
0000
0010
,  // measure 26
0000
1000
0000
0100
,  // measure 27
0000
0010
0000
0100
,  // measure 28
0000
0001
0000
1000
,  // measure 29
0000
0100
0000
0001
,  // measure 30
0000
0000
0100
0000
,  // measure 31
0100
0001
0010
0000
0001
0000
0100
0000
,  // measure 32
0010
0001
0010
1000
,  // measure 33
0100
0001
0010
0001
,  // measure 34
0010
0100
0001
1000
,  // measure 35
0100
1000
0010
0000
0001
0000
0000
0000
,  // measure 36
1000
0000
0010
0000
,  // measure 37
0001
0000
0010
0000
,  // measure 38
0100
0000
0001
0000
,  // measure 39
0010
1000
0100
0000
0000
0000
0000
0000
,  // measure 40
0100
0001
0100
0000
1000
0001
0100
0000
,  // measure 41
0010
0001
0100
0000
0010
0000
0100
0000
,  // measure 42
0000
0001
1000
0100
,  // measure 43
0100
0001
1010
0000
0100
0000
0001
0000
,  // measure 44
0010
0001
0100
0010
,  // measure 45
0001
1010
0100
0011
,  // measure 46
0100
1010
0100
0011
,  // measure 47
0100
0001
0010
0000
0100
0000
0010
0000
,  // measure 48
0001
1000
0010
0100
,  // measure 49
0001
0010
0001
0100
,  // measure 50
1000
0001
0010
0100
,  // measure 51
0001
0000
2000
0000
0000
3000
0002
0000
,  // measure 52
0000
0003
0200
0000
0000
0300
0020
0000
,  // measure 53
0000
0030
2000
0000
0000
3000
0200
0000
,  // measure 54
0000
0300
0001
0000
0001
0000
0001
0000
,  // measure 55
1000
0010
1100
0000
1000
0000
0100
0000
,  // measure 56
0001
0010
0100
0001
,  // measure 57
0010
0001
1000
0010
,  // measure 58
0100
0001
0010
1000
,  // measure 59
0001
0100
0010
0100
,  // measure 60
0001
1000
0010
0100
,  // measure 61
0001
1000
0100
0001
,  // measure 62
0010
0100
1000
0001
,  // measure 63
0010
0100
0001
0010
,  // measure 64
0001
1000
0010
0100
,  // measure 65
0001
0100
0010
1000
,  // measure 66
0100
0001
0010
0100
,  // measure 67
0001
0010
0100
0001
,  // measure 68
1000
0010
0100
0001
,  // measure 69
0010
1000
0001
0100
,  // measure 70
0010
1000
0001
0100
,  // measure 71
0010
1001
0100
1010
,  // measure 72
0001
1010
0001
0110
,  // measure 73
0010
1001
0001
1010
,  // measure 74
0100
0000
0000
0000
0010
0000
0100
0100
,  // measure 75
0110
0000
0000
0000
;

//---------------dance-single - ----------------
#NOTES:
     dance-single:
     :
     Beginner:
     1:
     0.133006,0.254847,0.081551,0.265041,0.000000,137.000000,125.000000,12.000000,39.000000,0.000000,0.000000,0.133006,0.254847,0.081551,0.265041,0.000000,137.000000,125.000000,12.000000,39.000000,0.000000,0.000000:
0000
0000
0000
0000
,
0000
0000
0000
0000
,
0000
0000
0000
0000
,
0000
0000
0000
0000
,
1001
0000
0000
0000
,
1010
0000
0000
0000
,
0011
0000
0000
0000
,
0000
1000
0000
0100
,
0000
1000
0000
0100
,
0000
0001
0000
0100
,
0000
0010
0000
0001
,
0000
0001
0000
0010
,
0000
0001
0000
0010
,
0000
0001
0000
0010
,
0000
0000
1000
0000
,
1000
0002
0000
0000
,
0000
0000
0000
0000
,
0000
0003
2000
0000
0000
0000
0000
0000
,
0000
0000
0000
0000
,
0000
3000
0002
0000
0000
0000
0000
0000
,
0000
0000
0000
0000
,
0000
0003
0200
0000
0000
0000
0000
0000
,
0000
0300
1001
0000
0000
0000
0000
0000
,
0000
1000
0000
0001
,
0000
0100
0000
1000
,
0000
0100
0000
0100
,
0000
1000
0000
0100
,
0000
0010
0000
0010
,
0000
0001
0000
1000
,
0000
0100
0000
0001
,
0000
0000
0100
0000
,
0000
0010
0000
0100
,
0000
0001
0000
1000
,
0000
0001
0000
0001
,
0000
0100
0000
1000
,
0000
0010
0000
0000
,
1000
0000
0010
0000
,
0001
0000
0010
0000
,
0100
0000
0001
0000
,
1000
0200
0000
0000
,
0000
0000
0000
0000
0000
0300
0020
0000
,
0000
0030
2000
0000
0000
0000
0000
0000
,
0000
3000
0002
0000
0000
0000
0000
0000
,
0000
0003
2000
0000
0000
3000
0200
0000
,
0000
0000
0000
0000
0000
0300
0020
0030
,
0002
0003
0200
0000
0000
0300
0020
0000
,
0000
0030
2000
0000
0000
0000
0000
0000
,
3000
0010
0000
0010
,
0000
1000
0000
0100
,
0000
0010
0000
0100
,
0000
0001
0000
0100
,
0000
0000
2000
0000
0000
3000
0002
0000
,
0000
0003
0200
0000
0000
0300
0020
0000
,
0000
0030
2000
0000
0000
3000
0200
0000
,
0000
0300
0001
0000
0001
0000
0001
0000
,
0000
0000
2000
0000
0000
3000
0020
0000
,
0000
0030
0020
0000
0000
0030
0002
0000
,
0000
0003
2000
0000
0000
3000
0020
0000
,
0000
0030
0200
0000
0000
0000
0000
0300
,
2000
3000
0020
0000
0000
0030
0200
0000
,
0000
0300
0020
0000
0000
0030
0002
0000
,
0000
0003
0200
0000
0000
0300
0002
0000
,
0000
0003
0200
0300
2000
3000
0002
0003
,
0020
0030
0100
0000
0000
0000
0010
0000
,
0000
1000
0000
0100
,
0000
0100
0000
1000
,
0000
0001
0000
0100
,
0000
0010
0000
0001
,
0000
0010
0000
0001
,
0000
1000
0000
0100
,
0000
1000
0000
0100
,
0000
1001
0000
1010
,
0000
1010
0000
0110
,
0000
1001
0000
1010
,
0000
0000
1010
0000
,
0110
0000
0000
0000
;

//---------------dance-single - ----------------
#NOTES:
     dance-single:
     :
     Medium:
     4:
     0.294166,0.356786,0.203878,0.122327,0.000000,303.000000,273.000000,30.000000,18.000000,0.000000,0.000000,0.294166,0.356786,0.203878,0.122327,0.000000,303.000000,273.000000,30.000000,18.000000,0.000000,0.000000:
0000
0000
0000
0000
,
0000
0000
0000
0000
,
0000
0000
0000
0000
,
0000
0000
0000
0000
,
1001
0001
0010
0001
,
1000
0100
1000
0010
,
0100
0010
1000
0001
,
0000
1000
0001
0100
,
0010
1000
0001
0100
,
0010
0001
1000
0100
,
0001
0010
1000
0001
,
0010
0001
0100
0010
,
1000
0001
0100
0010
,
1000
0001
0100
0010
,
0100
0000
1000
0000
,
1000
0002
0000
0010
,
1000
0000
0203
0000
0000
0300
0010
0002
,
0000
0003
2000
0000
0000
0000
0001
0000
,
0100
0000
3200
0000
0000
0300
0020
0000
,
0000
0030
0002
0000
0000
0000
0100
0000
,
0010
0000
2003
0000
0000
3000
0200
0000
,
0000
0300
0022
0000
0000
0030
0020
0000
,
0000
0033
1001
0000
0000
0000
0100
0000
,
0000
1000
1000
0001
,
0001
0100
0010
1000
,
0001
0100
0010
0100
,
0001
1000
0001
0100
,
0001
0010
1100
0010
,
0110
0001
1010
1000
,
0101
0100
1010
0001
,
1010
0000
0100
0000
,
0100
0001
0011
0000
0001
0000
0100
0000
,
0010
0001
0010
1000
,
0100
0001
0010
0001
,
0010
0100
0001
1000
,
0100
1000
0011
0000
0001
0000
0000
0000
,
1000
0000
0010
0000
,
0001
0000
0010
0000
,
0100
0000
0001
0000
,
0010
1000
0100
0000
0000
0000
0000
0000
,
0100
0001
0100
0000
1000
0001
0100
0000
,
0010
0001
0100
0000
0010
0000
0100
0000
,
0000
0001
1000
0100
,
0100
0001
1010
0000
0100
0000
0001
0000
,
0010
1000
0001
0000
0100
1000
0010
0000
,
0001
0100
1010
0000
0100
0000
0011
0000
,
0100
1010
0100
0011
,
0100
0001
0010
0000
0100
0000
0010
0000
,
0001
1000
0010
0100
,
0001
0010
0001
0100
,
1000
0001
0010
0100
,
0001
0000
2100
0000
0000
3000
0102
0000
,
0000
0003
0210
0000
0000
0300
0102
0000
,
0000
0003
2001
0000
0000
3000
0210
0000
,
0000
0300
0001
0000
1000
0000
0001
0000
,
1000
0010
1100
0000
1000
0001
0100
0010
,
0001
1000
0010
0000
0100
0000
0001
0000
,
0010
0000
0001
0000
1000
0100
0010
0001
,
0100
1000
0001
0000
0010
0000
1000
0000
,
0001
0000
0100
0000
0010
1000
0100
0010
,
0001
0100
1000
0000
0010
0000
0100
0000
,
0001
1000
0100
0001
,
0010
0100
1000
0001
,
0010
0100
0001
0010
,
0001
1000
0010
0100
,
0001
0100
0010
1000
,
0100
0001
0010
0100
,
0001
0010
0100
0001
,
1000
0010
0100
0001
,
0010
1000
0001
0100
,
0010
1000
0001
0100
,
0010
1001
0100
1010
,
0001
1010
0001
0110
,
0010
1001
0001
1010
,
0100
0000
0000
0000
0010
0000
0100
0100
,
0110
0000
0000
0000
;

//---------------dance-single - ----------------
#NOTES:
     dance-single:
     :
     Hard:
     6:
     0.373776,0.458725,0.271837,0.203878,0.003398,385.000000,345.000000,40.000000,30.000000,0.000000,0.000000,0.373776,0.458725,0.271837,0.203878,0.003398,385.000000,345.000000,40.000000,30.000000,0.000000,0.000000:
0000
0000
0000
0000
,
0000
0000
0000
0000
,
0000
0000
0000
0000
,
0000
0000
0000
0000
,
1001
0001
0010
0001
,
1010
0100
1000
0010
,
0101
0010
1000
0001
,
0000
0000
1010
0100
0001
1000
0100
0001
,
0020
0000
1030
0100
0001
1000
0000
0200
,
0010
0300
0001
0100
0000
1000
0100
0000
,
0001
0000
0010
0001
1000
0200
0001
0300
,
0010
0000
0011
1000
0100
0001
0010
0100
,
2000
0000
3000
0010
0100
1000
0000
0200
,
1000
0300
0001
1000
0000
0001
0010
0000
,
0100
0000
1000
0010
1000
0200
0000
0300
,
1000
0002
0000
1000
,
0010
0000
0203
0000
0000
0300
0010
0002
,
0000
0003
2000
0000
0000
0000
0001
0000
,
0100
0000
3200
0000
0000
0300
0020
0000
,
0000
0030
0002
0000
0000
0000
0100
0000
,
0010
0100
2003
0000
0000
3000
0200
0000
,
0000
0300
0022
0000
0000
0030
0020
0000
,
0000
0033
1001
0000
0000
0000
0100
0000
,
0000
0000
1000
0001
1000
0000
0001
1000
,
0001
0000
0100
0010
0010
0000
1000
0100
,
0001
0000
0100
1000
0010
0000
0100
0010
,
0001
0000
1000
0100
0001
0000
0100
1000
,
0001
0000
0010
0001
1100
0000
0010
0001
,
0110
0000
0001
0100
1010
0000
1000
0010
,
0101
0000
0100
0001
1010
0000
0001
0100
,
1010
0000
0100
0010
0100
1000
0100
0010
,
0100
0001
0010
1000
0001
0100
0100
0010
,
0020
0000
0031
1000
0010
0100
0000
0002
,
0100
0003
0001
1000
0000
0100
0001
0000
,
0010
0000
0100
1000
0000
0002
1000
0003
,
0100
1000
0010
0100
0001
0100
0010
0001
,
2000
0000
3000
0100
0010
0001
0000
0020
,
0001
0030
0000
0100
0000
0010
0001
0000
,
0100
0000
1000
0010
0001
0020
0000
0030
,
0010
1000
0100
0000
0000
0000
0000
0000
,
0100
0001
0100
0000
1000
0001
0100
0000
,
0010
0001
0100
0000
0010
0000
0100
0000
,
0000
0001
1000
0100
,
0100
0001
1010
0000
0100
0000
0101
0000
,
0010
1000
1001
0000
0100
1000
0011
0000
,
0001
0100
1010
0000
0100
0000
0011
0000
,
0100
1010
0100
0011
,
0100
0000
0001
0000
0010
0010
0000
0000
0101
0000
0000
0000
0010
0000
1000
0000
,
0001
0000
1000
0000
0010
0000
0100
1000
,
0001
0000
0010
0000
0001
0000
0100
0001
,
1000
0000
0001
0000
0010
0000
0100
0010
,
0001
0000
2100
0000
0000
3000
0102
0000
,
0000
0003
0210
0000
0000
0300
0120
0000
,
0000
0030
2001
0000
0000
3000
0210
0000
,
0000
0300
1001
0000
0100
0000
0011
0000
,
1000
0010
1100
0000
1000
0001
0100
0010
,
0001
1000
0010
0000
0100
0000
0001
0100
,
0010
0000
0001
0000
1000
0100
0010
0001
,
0100
1000
0001
0000
0010
0000
1000
0000
,
0001
0000
0100
0000
0010
1000
0100
0010
,
0001
0100
1000
0000
0010
0000
0100
0000
,
0001
1000
0100
0001
,
0010
0101
1000
0011
,
0010
0000
0100
1000
0001
0000
0010
0000
,
0001
0000
1000
0001
0010
0000
0100
0000
,
0001
0000
0100
1000
0010
0000
1000
0000
,
0100
0000
0001
0100
0010
0000
0100
0000
,
0001
0000
0010
1000
0100
0000
0001
0000
,
1000
0000
0010
1000
0100
0000
0001
0000
,
0010
0000
1000
0010
0001
0000
0100
0000
,
0010
0000
1000
0010
0001
0000
0100
0000
,
0010
0000
1001
0000
0100
0000
1010
0100
,
0001
0000
1010
0000
0001
0000
0110
1000
,
0010
0000
1001
0000
0001
0000
1010
0001
,
0100
0000
0000
0000
0010
0000
0100
0100
,
0110
0000
0000
0000
;

//---------------dance-single - ----------------
#NOTES:
     dance-single:
     :
     Challenge:
     8:
     0.410668,0.484210,0.292225,0.203878,0.003398,423.000000,380.000000,43.000000,30.000000,0.000000,0.000000,0.410668,0.484210,0.292225,0.203878,0.003398,423.000000,380.000000,43.000000,30.000000,0.000000,0.000000:
0000
0000
0000
0000
,
0000
0000
0000
0000
,
0000
0000
0000
0000
,
0000
0000
0000
0000
,
1001
0000
0001
0000
0010
0000
0001
0010
,
1000
0010
0100
0000
1000
0000
0010
0000
,
0101
0100
0010
0100
1000
1000
0001
0010
,
1001
0000
1010
0100
0001
1000
0100
0001
,
0020
0000
1030
0100
0001
1000
0100
0200
,
0000
0300
0001
0100
0000
1000
0100
0000
,
0001
0000
0010
0001
1000
0200
0000
0300
,
0010
0000
1001
1000
0100
0001
0010
0100
,
2000
0000
3001
0010
0100
1000
0010
0200
,
0000
0300
0001
1000
0100
0001
0010
0000
,
0100
0000
1000
0010
1000
0200
0000
0300
,
1000
0000
0002
0000
0000
1000
0000
0100
,
0000
0100
0203
0000
0000
0300
0010
0002
,
0000
0003
2000
0000
0000
0100
0000
0010
,
0000
0100
3200
0000
0000
0300
0020
0000
,
0000
0030
0002
0000
0000
1000
0000
1000
,
0010
0103
2000
0000
0000
3000
0200
0000
,
0000
0300
0022
0000
0000
0030
0020
0000
,
0000
0033
1001
0000
0000
0000
0100
0000
,
0000
0000
1000
0001
1000
0000
0001
1000
,
0001
0000
0100
0010
0010
0000
1000
0100
,
0001
0000
0100
1000
0010
0000
0100
0010
,
0001
0000
1000
0100
0001
0000
0100
1000
,
0001
0000
0010
0001
1100
0000
0010
0001
,
0110
0000
0001
0100
1010
0000
1000
0010
,
0101
0000
0100
0001
1010
0000
0001
0100
,
1010
0000
0100
0010
0100
1000
0100
0010
,
0100
0001
0010
1000
0001
0100
0100
0010
,
0020
0000
0031
1000
0010
0100
1000
0002
,
0100
0003
0001
1000
0010
0100
0001
0000
,
0010
0000
0100
1000
0001
0002
1000
0003
,
0100
1000
0010
0100
0001
0100
0010
0001
,
2000
0000
3000
0100
0010
0001
0000
0020
,
0001
0030
0000
0100
0010
0010
0001
0000
,
0100
0000
1000
0010
0001
0020
0000
0030
,
0010
1000
0100
0000
0010
0000
0100
0000
,
0100
0001
0100
0000
1000
0001
0100
0000
,
0010
0001
0100
0000
0010
0000
0100
0000
,
0010
0001
1000
0100
,
0100
0001
1010
0000
0100
0000
0101
0000
,
0010
1000
1001
0000
0100
1000
0011
0000
,
0001
0100
1010
0000
0100
0000
0011
0000
,
0100
1010
0100
0011
,
0100
0000
0001
0000
0010
1000
0000
0000
0101
0000
1000
0000
0010
0000
1000
0000
,
0001
0000
1000
0001
0010
0100
0100
1000
,
0001
0000
0010
0100
0001
1000
0100
0001
,
1000
0000
0001
0100
0010
0010
0100
0010
,
0001
0000
2100
0000
0000
3000
0102
0000
,
0000
0003
0210
0000
0000
0300
0120
0000
,
0000
0030
2001
0000
0000
3000
0210
0000
,
0000
0300
1001
0000
0101
0000
0011
0000
,
1000
0010
1100
0000
1000
0001
0100
0010
,
0001
1000
0010
0000
0100
0000
0001
0100
,
0000
0000
0101
0000
1000
0100
0010
0001
,
0100
1000
0001
0000
0010
0000
1000
0000
,
0001
0000
1100
0000
0010
1000
0100
0010
,
0001
0100
1000
0000
0010
0000
0100
1000
,
0001
0000
1000
0001
0100
0000
0001
1000
,
0010
0101
0010
1010
,
0100
0000
0100
1000
0001
0000
0010
0100
,
0001
0000
1000
0001
0010
0000
0100
0010
,
0001
0000
0100
1000
0010
0000
1000
0001
,
0100
0000
0001
0100
0010
0000
0100
0010
,
0001
0000
0010
1000
0100
0000
0001
0010
,
1000
0000
0010
1000
0100
0000
0001
0100
,
0010
0000
1000
0010
0001
0000
0100
0001
,
0010
0000
1000
0010
0001
0000
0100
1000
,
0010
0000
1001
0000
0100
0000
1010
0100
,
0001
0000
1010
0000
0001
0000
0110
1000
,
0010
0000
1001
0000
0001
0000
1010
0001
,
0100
0000
0000
0000
0010
0000
0100
0100
,
0110
0000
0000
0000
;
