#TITLE:(It's) For Your Eyes;
#SUBTITLE:;
#ARTIST:Norma Sheffield;
#TITLETRANSLIT:;
#SUBTITLETRANSLIT:;
#ARTISTTRANSLIT:;
#CREDIT:;
#BANNER:;
#BACKGROUND:;
#LYRICSPATH:;
#CDTITLE:;
#MUSIC:(It's) For Your Eyes.ogg;
#OFFSET:-0.460;
#SAMPLESTART:69.740;
#SAMPLELENGTH:12.000;
#SELECTABLE:YES;
#BPMS:0.000=133.680;
#STOPS:;
#BGCHANGES:;

//---------------dance-single - ----------------
#NOTES:
     dance-single:
     :
     Hard:
     9:
     0.682,0.768,0.187,0.010,0.599: // measure 1
0000
0000
0000
0000
,  // measure 2
0000
0000
0000
0000
,  // measure 3
0000
0000
0000
0000
,  // measure 4
0000
0000
0000
0000
,  // measure 5
1000
0000
0000
1000
0000
0000
0100
0000
0010
0000
0000
0010
0000
0000
0000
0000
,  // measure 6
0010
0000
0001
0000
0100
0000
1000
0000
0100
0000
0000
0100
0000
0000
0100
0000
,  // measure 7
0001
0000
0000
0001
0000
0000
0010
0000
0100
0000
0000
0100
0000
0000
0000
0000
,  // measure 8
0100
1000
0010
0000
0100
0000
0001
0000
0100
0000
0000
0100
0000
0000
0010
0000
,  // measure 9
1000
0000
0000
1000
0000
0000
0100
0000
0010
0000
0000
0010
0000
0000
0000
0000
,  // measure 10
0001
0000
0100
0000
0001
0000
0010
0000
0100
0000
1000
0100
0000
1000
0100
0010
,  // measure 11
0001
0000
0001
0000
0000
0000
0010
0000
0100
0000
0000
0100
0000
0000
1000
0010
,  // measure 12
1000
0000
0100
0010
0000
0010
0001
0000
0100
0000
0001
0100
0000
1000
0100
0000
,  // measure 13
0110
0000
0010
0000
1000
0000
0100
0000
0010
0001
0000
1000
0001
0000
0001
0000
,  // measure 14
0100
0000
0001
0010
0000
0010
0000
0100
1000
0000
0000
0000
0001
0000
0010
0000
,  // measure 15
0001
0000
0001
0000
1000
0000
1000
0000
0100
0000
0010
0000
0100
0010
0100
0010
,  // measure 16
0001
0000
0100
0000
0010
0000
1000
0000
0100
0000
0010
0001
0000
0001
0100
0000
,  // measure 17
0010
0000
1000
0000
0100
0000
0001
0000
0100
0000
1000
0010
0000
0010
0100
0000
,  // measure 18
0001
0010
0001
0010
0100
1000
0100
1000
0010
0100
0010
0100
0001
0010
0001
0010
,  // measure 19
0100
0000
1000
0100
1000
0000
0100
1000
0000
1000
0100
0000
0010
0000
0001
0010
,  // measure 20
0001
0000
0100
0000
0010
0000
1000
0000
0100
0000
0010
0001
0000
0001
0100
0000
,  // measure 21
0010
0000
1000
0000
0100
0000
0010
0000
0001
0000
0100
0010
0000
0010
1000
0000
,  // measure 22
0010
0100
0010
0100
0001
0100
0001
0100
0010
0100
0010
0100
0001
0100
0001
0100
,  // measure 23
0001
0010
0100
0000
0010
0000
0001
0010
0000
0010
0100
0000
1000
0100
1000
0000
,  // measure 24
1000
0000
0010
0000
0100
0000
0001
0000
0010
0000
0100
0010
0000
0100
0010
0000
,  // measure 25
0001
0000
0100
0000
0010
0000
1000
0000
0100
0000
0010
0001
0000
0010
0001
0000
,  // measure 26
0100
0000
0010
0000
1000
0000
0100
0000
0010
0000
0001
0100
0000
0001
0100
0000
,  // measure 27
0010
0000
1000
0000
0100
0000
0001
0000
0100
0000
1000
0100
1000
0100
1000
0000
,  // measure 28
0100
0000
0010
0000
0001
0000
0100
0000
0010
0000
1000
0001
0000
0001
0100
0000
,  // measure 29
0010
0000
1000
0000
0100
0000
0001
0000
0100
0000
1000
0010
0000
0010
1000
0000
,  // measure 30
0001
0000
0100
0000
0010
0000
1000
0000
0001
0000
1000
0001
0000
0001
0100
0000
,  // measure 31
0010
1000
0100
0001
0100
1000
1010
0000
,  // measure 32
1000
0010
0100
0001
0000
0001
0010
0011
,  // measure 33
0010
0000
0100
0000
1000
0000
0010
0000
0100
0000
0001
0010
0000
0100
1000
0000
,  // measure 34
0010
0100
0001
0010
1000
0010
0001
0011
,  // measure 35
0000
0000
1001
0000
0000
0000
1100
0000
0000
1000
0001
1000
0001
0000
1000
0000
,  // measure 36
1000
0010
0100
0001
0000
0001
0010
0110
,  // measure 37
0100
1000
0010
0100
0001
0010
0001
1001
,  // measure 38
0000
0000
0001
1000
0100
0010
0001
0101
,  // measure 39
0000
0000
1100
0000
0000
0000
1001
0000
1000
0000
0001
1000
0000
0010
1000
0000
,  // measure 40
0010
1000
0100
1100
0000
1000
0010
0100
,  // measure 41
0001
0010
0100
0110
0000
0010
0001
0100
,  // measure 42
1000
0100
0001
0101
0000
0001
0010
0100
,  // measure 43
1000
0100
1000
0100
1000
0100
1000
0100
0010
0001
0010
0001
0010
0001
0010
0001
,  // measure 44
0010
0100
1000
1100
0000
1000
0010
0100
,  // measure 45
0001
0010
0001
0011
0000
0001
0100
1000
,  // measure 46
0100
0001
0010
0110
0000
0000
0100
0000
,  // measure 47
1100
0000
1000
0100
1000
0001
1000
0100
1000
0001
1000
0100
1000
0001
1000
0100
,  // measure 48
2000
0010
0001
3100
,  // measure 49
1100
0000
1000
0000
0010
0000
0100
0000
0001
0000
0010
0100
0000
0100
1000
0000
,  // measure 50
0010
0000
0100
0000
0001
0000
0010
0000
0001
0000
0100
0010
0000
0010
1000
0000
,  // measure 51
0100
0010
0001
1000
0100
0010
0001
1000
0100
0010
0001
1000
0100
0010
0001
1000
,  // measure 52
0100
0000
0010
0001
0000
1000
0100
0000
0010
0001
0000
1000
0100
0000
0010
0001
,  // measure 53
0010
0000
0100
0000
1000
0000
0010
0000
0100
0000
0010
1000
0000
1000
0100
0000
,  // measure 54
0010
0000
0001
0000
0100
0000
0001
0000
0010
0000
0100
1000
0000
1000
0001
0000
,  // measure 55
0100
0010
1000
0001
0100
0010
1000
0001
0100
0010
1000
0001
0100
0000
0010
0000
,  // measure 56
1000
0100
1000
0000
0010
0000
0100
0001
0000
0001
0010
0000
0100
0000
1000
0000
;

//---------------dance-double - ----------------
#NOTES:
     dance-double:
     :
     Hard:
     9:
     0.658,0.768,0.029,0.128,0.580:
00000000
00000000
00000000
00000000
,
00000000
00000000
00000000
00000000
,
00000000
00000000
00000000
00000000
,
00000000
00000000
00000000
00000000
,
10000000
00000000
00000000
01000000
00000000
00000000
00010000
00000000
00001000
00000000
00000000
00001000
00000000
00000000
00000000
00000000
,
00000100
00000000
00000001
00000000
00000100
00000000
00001000
00000000
00010000
00000000
00000000
00001000
00000000
00000000
00010000
00000000
,
10000000
00000000
00000000
01000000
00000000
00000000
00010000
00000000
00001000
00000000
00000000
00001000
00000000
00000000
00000000
00000000
,
00010000
00001000
00010000
00000000
00000100
00000000
00010000
00000000
00001000
00000000
00000000
00000010
00000000
00000000
00000100
00000000
,
00000100
00000010
00001000
00000100
00000000
00000000
00000100
00000000
00010000
00000000
00000000
00001000
00000000
00000000
00000000
00000000
,
00010000
00000000
00010000
00000000
00100000
00000000
10000000
00000000
00100000
00000000
10000000
00100000
00000000
10000000
00100000
01000000
,
00010000
00100000
00010000
00100000
00000000
00000000
00100000
00000000
00001000
00000000
00000000
00010000
00000000
00000000
00000100
00000000
,
00010000
00000000
00000100
00001000
00000000
00001000
00000100
00000000
00001000
00000000
00000000
00000001
00000000
00000000
00000100
00000001
,
00000010
00000100
00001000
00000100
00000010
00000100
00001000
00010000
,
00100000
00000000
00010000
00100000
00000000
00001000
00000000
00010000
00001000
00000000
00000000
00000000
00011000
00000000
00000000
00000000
,
00010000
00000000
00010000
00000000
00001000
00000000
00001000
00000000
00010000
00000000
00001000
00000000
00010000
00001000
00010000
00001000
,
00010000
00000000
00000100
00000000
00001000
00000000
00000010
00000000
00000100
00000000
00000001
00000010
00000000
00000100
00001000
00000000
,
00000100
00000000
00010000
00000000
00100000
00000000
10000000
00000000
01000000
00000000
10000000
00100000
00000000
01000000
00010000
00000000
,
00100000
00001000
00010000
00000100
00010000
00001000
00100000
00001000
00010000
00000100
00010000
00001000
00100000
00001000
00010000
00000100
,
00001000
00000000
00000010
00000100
00000000
00000100
00000001
00000000
00000001
00000010
00000000
00000100
00001000
00000000
00000100
00001000
,
00000100
00000000
00010000
00000000
00100000
00000000
10000000
00000000
01000000
00000000
00100000
00001000
00000000
00001000
00010000
00000000
,
00000100
00000000
00001000
00000000
00000010
00000000
00000100
00000000
00000001
00000000
00000010
00001000
00000000
00001000
00010000
00000000
,
00100000
00010000
00001000
00000100
00001000
00010000
00100000
00010000
00001000
00000100
00001000
00010000
00100000
00010000
00001000
00000100
,
00001000
00010000
00001000
00000000
00010000
00000000
00001000
00010000
00000000
00001000
00000000
00010000
00001000
00000000
00010000
00000000
,
00100000
10000000
01000000
00010000
00001000
00000100
00000001
00000000
,
00000010
00000001
00000100
00001000
00010000
01000000
10000000
00000000
,
00100000
00000000
01000000
00000000
00001000
00000000
00010000
00000000
00000100
00000000
00001000
00000100
00000000
00000010
00000001
00000100
,
00000020
00002030
00023000
00230000
,
10300000
00100000
00010000
00001000
00000010
00000001
00000010
00000000
,
00000001
00000010
00001000
00010000
00100000
10000000
00100000
00000000
,
01000000
00000000
00100000
00000000
00001000
00000000
00010000
00000000
00000100
00000000
00001000
00000010
00000000
00000100
00000000
00000001
,
00000020
00000230
00020300
00230000
,
10300000
01000000
00100000
00001000
00000000
00001000
00010000
00000100
,
00001000
00000000
00000010
00000000
00000100
00000000
00000001
00000000
00000010
00000000
00000100
00001000
00000000
00000001
00001000
00000000
,
00000010
00000100
00000001
00000011
00000000
00001010
00000000
00002000
,
00000000
00023000
00000000
00230000
00000000
20300000
00000000
30000000
,
01000000
00010000
00001000
00000100
00000000
00000001
00000010
00000100
,
00010000
00000000
00001000
00000000
00100000
00000000
10000000
00000000
00100000
00000000
00010000
01000000
00000000
01000000
00100000
00000000
,
01000000
00000000
00010000
00000000
00100000
00000000
10000000
00000000
00100000
00000000
00001000
00010000
00000000
00010000
00000010
00000000
,
00000100
00000001
00000010
00000100
00001000
00000100
00000001
00000100
,
00001000
00010000
00100000
10000000
00000000
10000000
00100000
00010000
,
00001000
00000100
00000001
00000100
00000000
00000100
00001000
00010000
,
00100000
10000000
01000000
00100000
00000000
00100000
00001000
00010000
,
00000100
00001000
00000100
00000001
00000100
00001000
00000100
00000001
00000100
00001000
00010000
01000000
10000000
01000000
00010000
01000000
,
10000000
01000000
00010000
00001000
00000000
00001000
00000100
00001000
,
00000010
00000100
00000001
00000010
00000000
00000010
00001000
00010000
,
00100000
10000000
00100000
00010000
00000000
00100000
10000000
00100000
,
00010000
00100000
10000000
00100000
00010000
00100000
10000000
00100000
00010000
00001000
00000010
00000001
00000010
00001000
00000010
00000001
,
00000020
00001000
00000001
00001030
,
00000001
00000000
00000100
00000000
00000010
00000000
00001000
00000000
00000100
00000000
00010000
00001000
00000000
00001000
00100000
00000000
,
00010000
00000000
01000000
00000000
00100000
00000000
10000000
00000000
01000000
00000000
00100000
00001000
00000000
00001000
00010000
00000000
,
00000100
00001000
00000010
00000100
00000001
00001000
00000010
00000100
00000001
00001000
00000010
00000100
00000001
00001000
00000010
00000100
,
00000001
00000000
00000010
00000100
00001000
00000000
00000100
00010000
00000000
00010000
00001000
00000000
00100000
00000000
00010000
01000000
,
00100000
00000000
10000000
00000000
01000000
00000000
00100000
00000000
00001000
00000000
00010000
00000100
00000000
00001000
00000100
00000000
,
00000010
00000000
00000001
00000000
00000100
00000000
00000010
00000000
00001000
00000000
00000100
00010000
00000000
00001000
00010000
00000000
,
00100000
10000000
01000000
00100000
00010000
10000000
01000000
00100000
00010000
10000000
01000000
00100000
00010000
10000000
01000000
00100000
,
00010000
10000000
01000000
00000000
10000000
00000000
01000000
00010000
00000000
00001000
00000000
00000100
00001000
00000000
00010000
00000000
;

//---------------dance-single - ----------------
#NOTES:
     dance-single:
     :
     Medium:
     6:
     0.451,0.494,0.226,0.147,0.054:
0000
0000
0000
0000
,
0000
0000
0000
0000
,
0000
0000
0000
0000
,
0000
0000
0000
0000
,
1000
0000
0000
1000
0000
0000
1000
0000
0100
0000
0000
0100
0000
0000
0000
0000
,
0010
0000
0001
0000
0100
0000
0001
0000
0010
0000
0000
0010
0000
0000
0010
0000
,
0001
0000
0000
0001
0000
0000
0001
0000
0100
0000
0000
0100
0000
0000
0000
0000
,
0001
0000
0100
0000
0010
0000
0100
0000
0001
0000
0000
0001
0000
0000
0001
0000
,
1000
0000
0000
1000
0000
0000
1000
0000
0010
0000
0000
0010
0000
0000
0000
0000
,
0010
0000
1000
0000
0010
0000
1000
0000
0010
0000
0000
0100
0000
0000
0001
0000
,
0010
0000
0010
0000
0000
0000
0100
0000
0010
0000
0000
0010
0000
0000
0001
0000
,
0100
0000
0000
0100
0000
0000
0010
0000
1000
0000
0000
0000
0100
0000
0000
0000
,
0210
0301
0201
0310
,
0120
0031
0012
1003
,
1100
0000
0101
0000
1100
0000
1000
0001
,
0100
0000
0001
0000
0010
0100
1000
0100
,
0010
0001
0000
0001
0000
0000
0001
0100
,
0010
0100
0001
0100
0010
0100
0001
0100
,
0000
0010
0000
1000
0000
0100
1000
0000
,
0010
0000
0100
0000
0001
0010
0100
1000
,
0100
0010
0000
0001
0000
0100
0001
0010
,
0001
0100
0001
0010
0001
0100
0001
0010
,
0000
0011
0000
1100
0000
0101
0000
0000
,
1001
0000
1000
0100
0000
0010
0001
0000
,
0011
0000
0001
0100
0000
0010
1000
0000
,
1010
1000
0001
0000
0001
0010
0100
0000
,
2000
3020
0230
0301
,
0011
0000
0001
0010
0000
0100
1000
0000
,
1010
0000
1000
0010
0000
0100
0001
0000
,
0101
0001
1000
0000
1000
0010
0100
0000
,
0002
0023
0230
1300
,
1000
0010
0100
0001
0000
0001
0010
0200
,
0000
0000
1000
0000
0010
0000
0001
0001
,
0301
0100
1000
0100
0000
0010
0000
0001
,
0000
0100
0000
0110
0000
1001
0000
0000
,
0001
0001
0010
0100
0000
1000
0000
0020
,
0000
0000
0001
0000
0130
0100
1000
0100
,
0000
0000
0100
0001
0000
0010
0000
0100
,
0000
0000
0000
0000
0000
0010
0100
1000
,
0001
0000
0001
0100
0000
0100
0010
1000
,
0100
0000
0100
0010
0000
0010
0001
0100
,
0010
1000
0000
1100
0000
1000
0010
0100
,
0001
0000
0001
0010
0000
0010
0100
1000
,
0100
0010
0000
0011
0000
0001
0100
0010
,
0100
0001
0000
0101
0000
0001
0100
1000
,
0100
0000
0100
0001
0000
0001
0010
0000
,
0200
0000
0000
2300
0000
0000
3020
0000
,
0130
0000
0000
0000
,
1001
0000
1000
0000
0001
0100
0010
1000
,
0100
0010
0000
0001
0000
0100
1000
0100
,
0001
0010
1000
0010
0001
0010
1000
0010
,
0001
0001
0000
0100
0000
0010
1000
0010
,
0110
0000
0001
0000
0010
0100
1000
0010
,
0100
0001
0000
0010
0000
0100
1000
0100
,
0010
0001
0010
1000
0010
0001
0010
1000
,
0010
0001
0001
0100
1000
1000
0100
0001
;

//---------------dance-single - ----------------
#NOTES:
     dance-single:
     :
     Easy:
     4:
     0.288,0.357,0.069,0.167,0.000:
0000
0000
0000
0000
,
0000
0000
0000
0000
,
0000
0000
0000
0000
,
0000
0000
0000
0000
,
1000
0001
0100
0000
,
0100
0010
1000
1000
,
0100
0100
0010
0000
,
0010
0001
0010
0010
,
0100
0100
1000
1000
,
0010
1000
0010
1000
,
0100
0000
0100
0100
,
0010
0001
0010
1000
,
0010
0010
0001
0001
,
0100
0010
1000
0100
,
0010
0010
0001
0001
,
0101
0000
0001
1000
,
0100
0000
0100
1000
,
0010
0100
0001
0010
,
0100
1000
0010
0100
,
0101
0000
0001
0010
,
0100
0000
0100
1000
,
0010
0100
0001
0010
,
0100
1000
0010
1000
,
0100
0000
0000
0010
0000
0000
0001
0000
,
0100
0000
0000
0010
0000
0000
1000
0000
,
1000
0000
0000
1000
,
0200
2300
3020
0032
,
0103
0000
0000
0001
0000
0000
0010
0000
,
1000
0000
0000
0100
0000
0000
0010
0000
,
0001
1000
1000
0100
,
0002
0023
2030
3200
,
0310
0010
0000
0001
,
0100
0010
0000
1000
,
0100
0001
0100
1000
,
0110
0110
1001
1001
,
1000
0000
0100
1000
0000
0010
0000
0100
,
0000
0000
0000
0000
0000
0001
0000
0010
,
0000
0000
0000
0100
0000
1000
0000
0010
,
0010
0010
1000
0010
,
0100
0000
0000
0200
0000
0000
0301
0000
,
0010
0000
0000
0020
0000
0000
0130
0000
,
2000
0000
0000
3010
0000
0000
0010
0000
,
0200
0000
0000
0301
0000
0000
0001
0000
,
0020
0000
0000
0130
0000
0000
1000
0000
,
0020
0000
0000
0130
0000
0000
0001
0000
,
0020
0000
0000
1030
0000
0000
1000
0000
,
0020
0000
0000
0032
0000
0000
0103
0000
,
0110
0000
0000
0000
,
0010
1000
0010
1000
,
0100
1000
0100
1000
,
0100
0001
0100
1000
,
0010
0001
0010
1000
,
0001
0010
0001
0010
,
0001
0100
0001
0100
,
0001
0100
1000
0100
,
0001
0000
0010
0000
1000
0000
0010
0001
;

//---------------dance-single - Copied from----------------
#NOTES:
     dance-single:
     Copied from:
     Beginner:
     1:
     0.090,0.164,0.010,0.000,0.000:
0000
0000
0000
0000
,
0000
0000
0000
0000
,
0000
0000
0000
0000
,
0000
0000
0000
0000
,
1000
0000
0000
0000
,
1000
0000
0000
0000
,
0001
0000
0000
0000
,
0001
0000
0000
0000
,
0100
0000
0000
0000
,
0100
0000
0000
0000
,
0100
0000
0000
0000
,
0100
0000
0000
0000
,
1001
0000
0000
0000
,
1000
0000
0000
0000
,
0001
0000
0000
0000
,
0100
0000
0100
0100
,
0000
0000
0000
0000
,
0000
0000
0000
0000
,
0000
0000
0000
0000
,
0010
0000
0010
0010
,
0000
0000
0000
0000
,
0000
0000
0000
0000
,
0000
0000
0000
0000
,
0010
0000
0000
1000
,
1000
0000
0000
0001
,
0001
0000
0000
0000
,
0100
0000
0100
0000
,
0001
0000
0000
0100
,
0100
0000
0000
0010
,
0010
0000
0000
0000
,
1000
0000
1000
0000
,
0001
0001
0000
0000
,
0000
0000
0000
0000
,
1000
1000
0000
0000
,
0000
0000
0000
0000
,
0100
0100
0000
0000
,
0000
0000
0000
0000
,
0000
0000
0000
0000
,
0000
0000
0000
0000
,
1000
0000
0000
0001
,
0001
0000
0000
0100
,
0100
0000
0000
0000
,
0010
0000
0000
0010
0000
0000
0010
0000
,
0010
0000
0000
1000
,
1000
0000
0000
0001
,
0001
0000
0000
0100
,
0100
0000
0000
0010
0000
0000
0010
0000
,
0010
0000
0000
0000
,
1000
0000
0000
0000
,
0000
0000
0000
0000
,
0001
0000
0000
0000
,
0000
0000
0000
0100
,
0100
0000
0000
0000
,
0000
0000
0000
0000
,
0010
0000
0000
0000
,
0010
0000
0010
0010
;

//---------------dance-double - Copied from----------------
#NOTES:
     dance-double:
     Copied from:
     Easy:
     4:
     0.306,0.384,0.088,0.285,0.005:
00000000
00000000
00000000
00000000
,
00000000
00000000
00000000
00000000
,
00000000
00000000
00000000
00000000
,
00000000
00000000
00000000
00000000
,
10000000
01000000
00010000
00000000
,
00000001
00000100
00001000
00000100
,
00000001
00000010
00001000
00000000
,
00010000
01000000
10000000
01000000
,
00010000
00001000
00000100
00001000
,
00010000
00000000
00000000
00000000
01000000
00000000
00000000
00000000
01000000
00000000
00000000
01000000
00000000
00000000
00010000
00000000
,
00001000
00000000
00001000
00010000
,
00010000
00001000
00001000
00010000
,
00011000
00010000
00000100
00001000
,
00000010
00000000
00000000
00000100
00000000
00000000
00000002
00000000
,
00002000
00000000
00000000
00003003
,
00000001
00000100
00001000
00000100
,
00000001
00000100
00001000
00010000
,
01000000
10000000
00100000
00010000
,
00001000
00000100
00000001
00000010
,
00000001
00000100
00001000
00010000
,
00001000
00001000
00000100
00001000
,
00010000
00100000
00010000
00001000
,
01000000
00010000
10000000
00100000
,
02000000
00000000
00000000
03020000
00000000
00000000
00130000
00000000
,
00200000
00000000
00000000
00302000
00000000
00000000
00013000
00000000
,
00010000
00001000
00000100
00001000
,
00020000
00032000
00003020
00000032
,
00000203
00000000
00000000
00000320
00000000
00000000
00001030
00000000
,
00000200
00000000
00000000
00020300
00000000
00000000
00031000
00000000
,
00100000
00010000
01000000
01100000
,
00200000
20300000
32000000
03020000
,
00031000
00000000
00001000
00000000
00000000
00000000
00010000
00010000
,
00000000
00000100
00010000
00001000
,
00000010
00000000
00000010
00000000
00000000
00000010
00000000
00000002
,
00000000
00000203
00000000
00002300
00000000
00023000
00000000
00030000
,
00100000
00000000
00100000
00200000
00000000
20300000
00000000
32000000
,
00000000
03000000
00000000
00000000
00000000
01000000
00000000
01010000
,
00000000
00000000
00000000
01000000
00000000
00010000
00000000
00002000
,
00000000
00000000
00000000
00000000
00000000
00003000
00010000
00000000
,
00001000
00000000
00000000
00000100
00000000
00000000
00000001
00000000
,
00000010
00000000
00000000
00001000
00000000
00000000
00010000
00000000
,
00100000
00000000
00000000
10000000
00000000
00000000
01000000
00000000
,
00010000
00000000
00000000
00001000
00000000
00000000
00000100
00000000
,
00000101
00000000
00000000
00001001
00000000
00000000
00001000
00000000
,
00001100
00000000
00000000
00011000
00000000
00000000
00100000
00000000
,
00110000
00000000
00000000
10010000
00000000
00000000
10000000
00000000
,
02000000
00000000
00000000
03020000
00000000
00000000
00002000
00000000
,
00000000
00000000
00000000
00000000
00000000
00000000
00000000
00033000
,
00010000
00000100
00001000
00000100
,
00010000
00001000
00100000
00001000
,
00010000
00000100
00000010
00000001
,
00000100
00001000
00010000
01000000
,
10000000
00100000
10000000
00010000
,
10000000
01000000
00100000
00001000
,
00000100
00000001
00000010
00001000
,
00010000
00000000
00100000
00000000
10000000
00000000
00010000
00001000
;

//---------------dance-double - Copied from----------------
#NOTES:
     dance-double:
     Copied from:
     Medium:
     7:
     0.476,0.467,0.255,0.039,0.059:
00000000
00000000
00000000
00000000
,
00000000
00000000
00000000
00000000
,
00000000
00000000
00000000
00000000
,
00000000
00000000
00000000
00000000
,
10000000
00000000
00000000
10000000
00000000
00000000
00100000
00000000
01000000
00000000
00000000
01000000
00000000
00000000
00000000
00000000
,
00010000
00000000
00100000
00000000
00001000
00000000
00010000
00000000
00000100
00000000
00000000
00000100
00000000
00000000
00000010
00000000
,
00000001
00000000
00000000
00000001
00000000
00000000
00000100
00000000
00001000
00000000
00000000
00001000
00000000
00000000
00000000
00000000
,
00010000
00000000
00001000
00000000
00100000
00000000
00010000
00000000
01000000
00000000
00000000
01000000
00000000
00000000
00100000
00000000
,
10000000
00000000
00000000
01000000
00000000
00000000
00010000
00000000
00001000
00000000
00000000
00010000
00000000
00000000
00000000
00000000
,
00001000
00000000
00001000
00000000
00010000
00000000
00010000
00000000
00000100
00000000
00000000
00001000
00000000
00000000
00000010
00000000
,
00000100
00000000
00000100
00000000
00000000
00000000
00000001
00000000
00000010
00000000
00000000
00000010
00000000
00000000
00001000
00000000
,
00010000
00000000
00000000
00010000
00000000
00000000
00001000
00000000
00100000
00000000
00000000
00100000
00000000
00000000
00010000
00000000
,
01000000
10000000
01000000
00000000
01000000
00010000
00100000
00000000
,
00101000
00000000
00000000
00011000
00000000
00000000
00001100
00000000
,
00000100
00001000
00010000
00001000
00000100
00001000
00010000
00100000
,
01000000
00000000
10000000
00000000
00100000
01000000
00010000
00100000
,
00000000
00001000
00000000
00010000
00000000
00000000
00000100
00001000
,
00000010
00000001
00000010
00001000
00000010
00000001
00000010
00001000
,
00010000
01000000
10000000
01000000
00010000
01000000
10000000
01000000
,
00010000
00000000
00001000
00000000
00000100
00000010
00000100
00010000
,
00000000
00001000
00000000
00011000
00000000
00000000
00100000
00010000
,
01000000
00100000
10000000
01000000
00100000
01000000
10000000
01000000
,
00010000
00001000
00000100
00000001
00000010
00000001
00000100
00000010
,
00001000
00000000
00001000
00000100
00000000
00000010
00000001
00000000
,
00000100
00000000
00001000
00010000
00000000
00010000
00100000
00000000
,
00100000
10000000
01000000
00010000
00001000
00000100
00001000
00000000
,
00010000
00001000
00000010
00000000
00000001
00000100
00001000
00000000
,
00001100
00000000
00000100
00000001
00000000
00000001
00000010
00000000
,
00001000
00000000
00010000
00100000
00000000
01000000
10000000
00000000
,
01000000
00010000
00100000
01000000
10000000
01000000
00100000
00000000
,
00001000
00000100
00000001
00000000
00010000
01000000
10000000
00000000
,
00100000
01000000
00010000
00100000
00000000
00100000
00001000
00011000
,
00000000
00000000
00001100
00000000
00011000
00000000
00100000
00100000
,
00100000
00010000
01000000
00100000
00000000
10100000
00000000
00110000
,
00000000
00011000
00000000
00001010
00000000
00000011
00000000
00000000
,
00000001
00000100
00000010
00001000
00000000
00001100
00000000
00011000
,
00000000
00000000
00110000
00000000
00010000
00000100
00000100
00000100
,
00000000
00000000
00000100
00001100
00000000
00011000
00000000
00110000
,
00010000
10000000
00010000
00100000
00010000
00001000
00010000
00100000
,
00010000
00000000
00010000
01000000
00000000
01000000
00100000
10000000
,
01000000
00000000
01000000
00010000
00000000
00010000
00001000
00000100
,
00000001
00000010
00000000
00000010
00000000
00000010
00000001
00000100
,
00001000
00000000
00001000
00010000
00000000
00010000
00001000
00010000
,
00000010
00001000
00000000
00001010
00000000
00001000
00000001
00000010
,
00000100
00010000
00000000
00011000
00000000
00001000
00100000
00010000
,
01000000
00000000
01000000
00100000
00000000
00100000
10000000
00000000
,
02000000
00000000
00000000
03020000
00000000
00000000
00032000
00003000
,
00012000
01000000
00010000
00100000
,
00013000
00001000
00010000
00000000
00000100
00001000
00000010
00000100
,
00000000
00000101
00000000
00001100
00000000
00000000
00001000
00000001
,
00000010
00001000
00000010
00000001
00000010
00001000
00000010
00000001
,
00000100
00001000
00010000
01000000
10000000
01000000
00010000
01000000
,
10000000
00100000
10000000
00000000
01000000
00100000
00001000
00010000
,
00000000
00011000
00000000
00110000
00000000
00010000
01000000
00100000
,
10000000
01000000
00100000
01000000
10000000
01000000
00010000
00001000
,
00000100
00000001
00000010
00000001
00000100
00001000
00010000
00001000
;
