#TITLE:Viridian City;
#SUBTITLE:;
#ARTIST:Jason Paige;
#TITLETRANSLIT:;
#SUBTITLETRANSLIT:;
#ARTISTTRANSLIT:;
#CREDIT:;
#BANNER:;
#BACKGROUND:;
#LYRICSPATH:;
#CDTITLE:;
#MUSIC:viridiancity.mp3;
#OFFSET:-0.060;
#SAMPLESTART:17.480;
#SAMPLELENGTH:14.240;
#SELECTABLE:YES;
#BPMS:0.000=137.000;
#STOPS:;
#BGCHANGES:;

//---------------dance-single - ----------------
#NOTES:
     dance-single:
     :
     Medium:
     5:
     0.333,0.341,0.049,0.157,0.000:
0000
0000
0000
0000
,
0000
0000
0000
0000
,
2000
0000
0000
0000
0000
0000
3001
0100
,
0001
0000
1000
0010
1000
0000
0001
0000
,
0200
0010
0000
0310
,
2000
0000
0001
0000
0000
0000
3001
0100
,
0010
0000
2000
0000
0000
0000
3001
0100
,
0001
0000
1000
0010
1000
0000
0000
0000
,
0001
0000
0100
0000
,
0000
0010
0000
0000
0010
0000
0000
0000
,
1000
0000
0001
0100
0001
0000
0010
0000
,
0100
1000
0100
1000
0000
0100
0000
0000
,
0000
0010
0001
0100
,
0010
1000
0100
0000
,
0010
0000
0001
0100
0001
0000
1000
0000
,
0010
0100
0010
0100
0000
0001
0000
0000
,
0000
1000
0001
0100
,
0010
1000
0100
0010
,
0001
0000
0100
0000
0010
0000
1000
0010
,
0000
0000
0000
0100
0001
0010
0000
0100
,
0000
0000
1000
0001
0000
0100
0000
0020
,
0000
1030
0001
0100
,
0010
0000
1000
0000
0100
0000
0010
0100
,
0000
0000
0000
1000
0001
0100
0000
0020
,
0000
1030
0001
0100
,
0010
1000
0100
0010
,
1001
0000
0001
0000
0100
0000
0001
0020
,
0000
0000
0030
0100
1000
0100
0000
0020
,
0000
0000
0031
0000
0100
0000
0010
1000
,
0000
0010
0000
0000
0100
0000
0001
0000
,
0011
0000
0001
0000
1000
0000
0001
0100
,
0000
0000
0000
0010
1000
0010
0000
0100
,
0000
0001
0010
0010
,
0100
1000
1000
0010
,
1001
0000
0001
0000
0100
0010
0000
1000
,
0000
0001
0000
0000
0000
0000
1000
0002
,
0000
0003
0100
0020
0000
0000
1030
0002
,
0000
0000
0003
0100
0010
0000
1000
0010
,
0000
0100
0000
0001
0010
0000
0100
1000
,
0000
0000
0001
0000
0100
0010
0000
2000
,
0000
0000
0000
3000
,
0000
0001
0000
0000
0001
0000
0000
0001
,
0000
0000
0001
0000
0000
0000
0010
0100
,
0010
0000
0200
0000
0000
0000
1300
0001
,
1000
0000
0020
0000
0000
0000
0130
0001
,
0100
0000
0020
0000
0000
0000
1030
0001
,
1000
0000
0020
0000
0000
0000
0130
0001
,
0100
0010
0000
1000
,
0001
0000
0010
0001
0010
0000
0001
0000
,
0100
0000
0000
0000
,
1001
0000
0001
0100
0001
0000
0010
0000
,
0100
1000
0100
1000
0000
0100
0000
0000
,
0000
0010
0001
0100
,
0010
1000
0010
0010
,
0100
0000
0001
0010
0001
0000
1000
0001
,
1000
0001
1000
0001
0000
1000
0000
0000
,
0010
0100
0001
0010
,
0010
0100
0010
0100
,
1001
0000
0000
0000
;

//---------------dance-single - ----------------
#NOTES:
     dance-single:
     :
     Hard:
     7:
     0.478,0.426,0.137,0.313,0.064:
0000
0000
0000
0000
,
0000
0000
0000
0000
,
2000
0000
0010
0000
0000
0000
3010
0100
,
0001
0000
0010
0100
1000
0000
0001
0010
,
0010
0200
0000
0302
,
0000
0000
0203
0000
0000
0000
0310
0010
,
0200
0000
0001
0000
0000
0000
0301
0100
,
0001
0000
1000
0010
1000
0000
0001
0010
,
0010
0100
0010
0100
,
0000
0000
1001
0000
0000
0110
0000
0000
1001
0000
0000
0000
2000
0000
3000
0000
,
1001
0000
0001
0100
0010
0000
1000
0100
,
0010
0001
0010
0001
0000
0001
0000
0000
,
0000
1000
0100
1000
0100
0010
0001
0010
,
0001
0100
0010
1000
0010
0000
0100
0000
,
0001
0010
1000
0010
0001
0000
0100
0010
,
1000
0010
0200
0001
0000
0301
0000
0000
,
0100
0000
0010
0000
0000
1000
0000
0000
0001
0000
0000
0010
0000
0000
0100
0000
,
0000
0000
1000
0000
0100
0000
0001
0000
0100
0000
0000
0000
1000
0000
0001
0100
,
0010
0000
2000
0000
3002
0000
0103
0010
,
1000
0000
0001
0100
0010
0100
0000
0020
,
0000
0000
2030
0001
0000
0001
0000
3001
,
0100
0000
0010
0000
0100
0000
0000
0000
0001
0000
1000
0000
0001
0000
0100
0010
,
0100
0000
0020
0000
2030
0000
3001
0100
,
0010
0000
1000
0100
0010
0001
0100
0010
,
1000
0000
0001
0010
0001
0000
1000
0100
,
1000
0000
0010
0010
0100
0000
0001
0010
,
0011
0000
2000
0000
3002
0000
0103
0010
,
1000
0000
0001
0100
0010
1000
0000
0200
,
0000
0000
0310
0000
0001
0000
1000
0010
,
0100
0000
0000
0010
0000
0000
1000
0000
0000
0000
0000
0000
0001
0000
0100
0000
,
0001
0000
2000
0000
3020
0000
0130
0001
,
0100
0000
0000
0000
0010
0000
1000
0000
0001
0000
0100
0000
0000
0000
0010
1000
,
0010
0000
0001
0010
0001
0010
0001
0000
,
1000
0100
1000
0100
1000
0000
0010
0100
,
0110
0000
0001
0000
0001
1000
0000
0010
,
0000
0100
0001
0000
0100
0000
0001
0200
,
0000
0000
0310
2000
0000
0000
3001
2000
,
0000
0000
3001
1000
0002
0000
1003
0010
,
0010
0000
0100
0001
0020
0000
0130
1000
,
0001
0000
0100
0000
0010
2000
0000
0002
,
0000
0000
0000
3003
,
0000
1100
1100
0000
0011
0011
0000
1000
,
0002
0000
0100
0000
0000
0000
0103
0010
,
0020
0000
1000
0000
0000
0000
0130
0010
,
0020
0000
1000
0000
0000
0000
0130
0001
,
0002
0000
0100
0000
0000
1000
0000
0010
,
0013
0100
1000
0001
0100
0000
0010
1000
,
1000
0000
0001
0000
0100
0010
1000
0001
,
0001
0000
1000
0100
0200
0000
0000
0000
,
0300
0000
1001
0000
0000
0110
0000
0000
0011
0000
0000
0000
0000
0000
0000
0000
,
0000
1000
0001
0100
0010
0000
1000
0100
,
1000
0000
0001
0000
0100
0000
0010
0000
0000
0000
1000
0000
0000
0000
0001
0100
,
0001
0000
1000
0000
0000
0010
0000
0000
0100
0000
0000
0001
0000
0000
0100
0000
,
0000
0000
0010
0000
0000
1000
0000
0000
0100
0000
0000
0010
0000
0000
0001
0000
,
0100
0010
0001
0010
0100
0000
0001
0100
,
1000
0100
0001
0200
0000
0320
0000
0000
,
1030
0100
0001
0100
1000
0001
0100
0000
,
0010
1000
0010
0000
0100
0001
0100
0000
,
0110
0000
0000
0000
;

//---------------dance-single - ----------------
#NOTES:
     dance-single:
     :
     Easy:
     3:
     0.220,0.254,0.039,0.176,0.000: // measure 1
0000
0000
0000
0000
,  // measure 2
0000
0000
0000
0000
,  // measure 3
2000
0000
0000
0000
,  // measure 4
3002
0000
0000
0000
,  // measure 5
0203
0000
0000
0000
,  // measure 6
0320
0000
0000
0000
,  // measure 7
2030
0000
0000
0000
,  // measure 8
3002
0000
0000
0000
,  // measure 9
0023
0000
0230
0000
,  // measure 10
1300
0000
0000
0000
,  // measure 11
0001
0100
0010
1000
,  // measure 12
0100
0000
0010
0000
,  // measure 13
0001
0100
0010
0010
,  // measure 14
1000
0001
0010
0000
,  // measure 15
0100
1000
0001
0100
,  // measure 16
0010
0000
0010
0000
,  // measure 17
1000
0000
0001
0000
,  // measure 18
0100
0000
0010
0000
,  // measure 19
1000
0001
0100
0000
,  // measure 20
0010
1000
0001
0000
,  // measure 21
0100
0010
1000
0000
,  // measure 22
0001
0010
0100
0100
,  // measure 23
1000
0001
0100
0010
,  // measure 24
1000
0000
0001
0000
,  // measure 25
0200
0300
0010
0000
,  // measure 26
2000
3000
0001
1000
,  // measure 27
1001
0000
1000
0001
,  // measure 28
0100
0000
0010
1000
,  // measure 29
0001
0000
0100
0100
,  // measure 30
0010
0000
1000
0001
,  // measure 31
1001
0000
1000
0010
,  // measure 32
0010
0000
0100
0100
,  // measure 33
0100
0000
0001
0001
,  // measure 34
0001
0000
1000
0000
,  // measure 35
1001
0000
1000
0000
,  // measure 36
0010
0000
0100
0000
,  // measure 37
0001
0000
0010
0000
,  // measure 38
0100
0000
1000
0000
,  // measure 39
0010
0000
0100
0000
,  // measure 40
0001
0000
0010
0000
,  // measure 41
0200
0000
0000
0300
,  // measure 42
0000
1000
0000
0001
,  // measure 43
0000
0200
0000
0320
,  // measure 44
0000
2030
0000
3002
,  // measure 45
0000
0023
0000
0230
,  // measure 46
0000
2300
0000
3001
,  // measure 47
0100
0010
0000
0010
,  // measure 48
1000
0001
0000
0100
,  // measure 49
0010
0000
0010
0000
,  // measure 50
0010
0000
0000
0000
,  // measure 51
1001
1000
0001
0100
,  // measure 52
0010
0000
1000
0000
,  // measure 53
0001
0000
0100
0000
,  // measure 54
0010
0000
1000
0000
,  // measure 55
0001
0000
0100
0010
,  // measure 56
1000
0000
0001
0010
,  // measure 57
0001
0100
0100
0010
,  // measure 58
1000
0001
0100
0010
;
