#TITLE:Tokyo;
#SUBTITLE:;
#ARTIST:SMiLE.dk;
#TITLETRANSLIT:;
#SUBTITLETRANSLIT:;
#ARTISTTRANSLIT:;
#GENRE:;
#CREDIT:Lisek;
#BANNER:[Passport] - Tokyo.png;
#BACKGROUND:[Passport] - Tokyo-bg.png;
#LYRICSPATH:;
#CDTITLE:cdtitle.png;
#MUSIC:[Passport] - Tokyo.ogg;
#OFFSET:-3.566190;
#SAMPLESTART:79.383629;
#SAMPLELENGTH:17.000006;
#SELECTABLE:YES;
#BPMS:0.000000=136.000000
,212.000000=68.000000
;
#STOPS:
;
#BGCHANGES:;
#KEYSOUNDS:;
#ATTACKS:;

//---------------dance-single - Lisek----------------
#NOTES:
     dance-single:
     Lisek:
     Hard:
     7:
     0.446424,0.442037,0.084713,0.009413,0.023531,332.000000,323.000000,9.000000,1.000000,0.000000,0.000000,0.446424,0.442037,0.084713,0.009413,0.023531,332.000000,323.000000,9.000000,1.000000,0.000000,0.000000:
// measure 0
1000
0100
0001
0100
1000
0010
0100
0001
,  // measure 1
0000
0001
0000
0001
0010
0100
1000
0000
,  // measure 2
0001
0010
1000
0010
0001
0100
0010
1000
,  // measure 3
0000
1000
0000
1000
0100
0010
0001
1000
,  // measure 4
0010
0000
0100
0000
0001
0000
1000
0100
,  // measure 5
0000
0010
0001
1000
0100
0000
1000
0000
,  // measure 6
0001
0100
0010
0100
0001
1000
0100
0010
,  // measure 7
0001
0000
0100
0010
0000
1000
0001
0000
,  // measure 8
1000
0000
0010
0000
0100
0000
0001
0100
,  // measure 9
0000
0010
0100
0001
1000
0100
0010
0000
,  // measure 10
0001
1000
0100
1000
0010
0100
0010
1000
,  // measure 11
0001
0100
0010
1000
,  // measure 12
0001
1000
0010
0100
0001
0010
0100
1000
,  // measure 13
0000
0001
0100
1000
0100
0000
0010
0000
,  // measure 14
0110
0000
1001
0000
0001
0010
0100
1000
,  // measure 15
0000
0010
0000
0100
0001
0010
0001
1000
,  // measure 16
0000
0000
0000
0010
0100
0000
0000
0001
,  // measure 17
1000
0100
1000
0001
0100
0000
0010
0000
,  // measure 18
0110
0000
1001
0000
1000
0100
0010
0001
,  // measure 19
0000
0100
0000
0010
1000
0001
0010
0001
,  // measure 20
0000
0000
0000
0100
0010
0000
0000
1000
,  // measure 21
0100
1000
0010
0100
0001
0000
0100
0000
,  // measure 22
0010
1000
0000
0010
0100
0001
0100
0010
,  // measure 23
1000
0000
0000
0100
0010
0000
0000
0010
0001
0000
0000
0000
1001
0000
0000
0000
,  // measure 24
0001
0100
1000
0100
0001
0010
1000
0010
,  // measure 25
0000
0010
0000
0010
0001
0010
0001
0000
,  // measure 26
1000
0010
0001
0010
1000
0100
0001
0100
,  // measure 27
0000
0100
0000
0100
1000
0100
1000
0001
,  // measure 28
0100
0000
0010
0000
1000
0000
0001
0010
,  // measure 29
0000
0100
1000
0010
0100
0010
1000
0000
,  // measure 30
0001
0010
0001
0100
0010
1000
0010
0100
,  // measure 31
0001
1000
0100
0010
0000
0100
0000
1000
,  // measure 32
0001
0000
0100
0000
0010
0000
0100
0001
,  // measure 33
0000
1000
0010
0100
0010
1000
0001
0000
,  // measure 34
1000
0100
0010
0100
1000
0001
0100
0010
,  // measure 35
0000
0100
0001
1000
0010
0000
0100
0000
,  // measure 36
0001
1000
0001
0100
0010
1000
0010
0100
,  // measure 37
0000
0001
0000
0010
0001
0000
1000
0000
,  // measure 38
0010
0000
0100
0000
0001
1000
0001
0100
,  // measure 39
0010
0000
0000
0000
1000
0100
1000
0010
,  // measure 40
0100
0000
0001
0000
0010
0100
1000
0001
,  // measure 41
1000
0001
0100
0010
,  // measure 42
0000
0100
0100
0010
0100
0000
0010
0000
,  // measure 43
0110
0000
1001
0000
0001
0010
0100
1000
,  // measure 44
0000
0010
0000
0100
0001
1000
0010
1000
,  // measure 45
0000
0000
0000
0001
1000
0000
0000
0010
,  // measure 46
0100
0001
0010
0100
1000
0000
0001
0000
,  // measure 47
0110
0000
1001
0000
1000
0010
0100
0001
,  // measure 48
0000
0100
0000
0010
1000
0001
0010
0001
,  // measure 49
0000
0000
0000
1000
0001
0000
0000
0100
,  // measure 50
0010
0100
0001
1000
0100
0000
1000
0000
,  // measure 51
0001
0100
0000
0010
1000
0001
0100
0001
,  // measure 52
0000
1000
0000
0100
0000
0010
0000
0001
,  // measure 53
1000
0010
0100
0001
1000
0100
0010
0001
,  // measure 54
1000
0000
0000
0001
0010
0100
1000
0010
0200
0000
0000
0000
0000
0000
0000
0000
,  // measure 55
0000
0300
0000
0000
;

//---------------dance-single - Lisek----------------
#NOTES:
     dance-single:
     Lisek:
     Medium:
     4:
     0.256828,0.286024,0.094126,0.047063,0.000000,191.000000,181.000000,10.000000,5.000000,0.000000,0.000000,0.256828,0.286024,0.094126,0.047063,0.000000,191.000000,181.000000,10.000000,5.000000,0.000000,0.000000:
1000
0100
0010
0001
,
1000
0000
0001
0000
,
1000
0010
0100
0001
,
1000
0000
0010
1000
,
0001
0100
0010
0100
,
0001
0010
0100
1000
,
0001
0100
0010
1000
,
0010
0100
0010
0000
,
1000
0001
1000
0100
,
1000
0010
0100
0001
,
1000
0100
0010
0001
,
1000
0000
0001
0000
,
1000
0010
0100
0001
,
2002
0000
0000
3003
,
1001
1001
0001
1000
,
0010
0100
0001
1000
,
0001
0000
0100
0000
,
0001
0010
0100
1000
,
1001
1001
1000
0001
,
1000
0100
0010
0001
,
1000
0000
0010
0000
,
0100
0001
1000
0010
,
0100
0001
0100
0010
,
1000
0000
0000
0000
,
0001
0010
0001
0010
,
1000
0000
0010
0001
,
1000
0010
1000
0010
,
0001
0000
0010
1000
,
0001
0100
0010
1000
,
0100
0010
0001
1000
,
0001
0100
0010
0100
,
0001
1000
0010
0000
,
1000
0010
0100
0010
,
1000
0100
0010
0001
,
1000
0001
0100
0010
,
1000
0000
0001
0000
,
1000
0100
0010
0001
,
1000
0000
0001
0000
,
0100
0000
0010
0100
,
0010
0000
1000
0000
,
0001
0000
1000
0001
,
1000
0000
0001
0000
,
2002
0000
0000
3003
,
1001
1001
0001
0100
,
0010
1000
0100
0010
,
0001
0000
0100
0000
,
0001
1000
0001
1000
,
1001
1001
1000
0010
,
0100
0001
1000
0001
,
1000
0000
0010
0000
,
1000
0001
0100
0010
,
1000
0010
0100
0010
,
1000
0000
0001
0000
,
1000
0100
0010
0001
,
1000
0010
0200
0000
,
0000
0300
0000
0000
;

//---------------dance-single - Lisek----------------
#NOTES:
     dance-single:
     Lisek:
     Easy:
     2:
     0.133121,0.179545,0.037650,0.000000,0.000000,99.000000,95.000000,4.000000,0.000000,0.000000,0.000000,0.133121,0.179545,0.037650,0.000000,0.000000,99.000000,95.000000,4.000000,0.000000,0.000000,0.000000:
1000
0000
0000
0000
,
0001
0000
0000
0000
,
0100
0000
0000
0000
,
0010
0000
0000
0000
,
1000
0000
0100
0000
,
1000
0000
0010
0000
,
0100
0000
0010
0000
,
1000
0000
0100
0000
,
1000
0000
0001
0000
,
1000
0000
0001
0000
,
0100
0000
0001
0000
,
1000
0000
0000
0000
,
0001
0000
1000
0000
,
0001
0000
0000
0000
,
1001
0000
1000
0000
,
0001
0000
0100
0000
,
0010
0000
0000
0000
,
1000
0000
0001
0000
,
1001
0000
0001
0000
,
1000
0000
0010
0000
,
0100
0000
0000
0000
,
0001
0000
1000
0000
,
0001
0000
0100
0000
,
0001
0000
0000
0000
,
1000
0000
0100
0000
,
0010
0000
0001
0000
,
0001
0000
0010
0000
,
0100
0000
1000
0000
,
0001
0000
1000
0000
,
0010
0000
0100
0000
,
0010
0000
1000
0000
,
0001
0000
1000
0000
,
0001
0000
0010
0000
,
0100
0000
1000
0000
,
0001
0000
0100
0000
,
0001
0000
0000
0000
,
1000
0000
0010
0000
,
0100
0000
0000
0000
,
0001
0000
1000
0000
,
0001
0000
0000
0000
,
0100
0000
0010
0000
,
0100
0000
0000
0000
,
0000
0000
0000
0000
,
1001
0000
0001
0000
,
1000
0000
0010
0000
,
0100
0000
0000
0000
,
0001
0000
1000
0000
,
1001
0000
1000
0000
,
0001
0000
0100
0000
,
0010
0000
0000
0000
,
1000
0000
0001
0000
,
0100
0000
0010
0000
,
0100
0000
0000
0000
,
0001
0010
0100
1000
,
0010
0100
0010
0000
;

//---------------dance-single - Lisek----------------
#NOTES:
     dance-single:
     Lisek:
     Beginner:
     1:
     0.052441,0.104009,0.037650,0.009413,0.000000,39.000000,35.000000,4.000000,1.000000,0.000000,0.000000,0.052441,0.104009,0.037650,0.009413,0.000000,39.000000,35.000000,4.000000,1.000000,0.000000,0.000000:
1000
0000
0000
0000
,
0000
0000
0000
0000
,
0001
0000
0000
0000
,
0000
0000
0000
0000
,
1000
0000
0000
0000
,
0010
0000
0000
0000
,
0100
0000
0000
0000
,
0001
0000
0000
0000
,
1000
0000
0000
0000
,
0010
0000
0000
0000
,
0100
0000
0000
0000
,
0000
0000
0000
0000
,
0001
0000
0000
0000
,
0000
0000
0000
0000
,
1001
0000
0000
0000
,
0000
0000
0000
0000
,
0000
0000
0000
0000
,
0000
0000
0000
0000
,
1001
0000
0000
0000
,
0000
0000
0000
0000
,
0000
0000
0000
0000
,
0000
0000
0000
0000
,
0001
0000
1000
0000
,
0001
0000
0000
0000
,
1000
0000
0000
0000
,
0000
0000
0000
0000
,
0001
0000
0000
0000
,
0000
0000
0000
0000
,
1000
0000
0000
0000
,
0010
0000
0000
0000
,
0100
0000
0000
0000
,
0001
0000
0000
0000
,
1000
0000
0000
0000
,
0010
0000
0000
0000
,
0100
0000
0000
0000
,
0000
0000
0000
0000
,
0001
0000
0000
0000
,
0000
0000
0000
0000
,
1000
0000
0000
0000
,
0001
0000
0000
0000
,
1000
0000
0000
0000
,
0001
0000
0000
0000
,
0000
0000
0000
0000
,
1001
0000
0000
0000
,
0000
0000
0000
0000
,
0000
0000
0000
0000
,
0000
0000
0000
0000
,
1001
0000
0000
0000
,
0000
0000
0000
0000
,
0000
0000
0000
0000
,
0000
0000
0000
0000
,
1000
0000
0001
0000
,
1000
0000
0000
0000
,
0020
0000
0000
0000
,
0000
0000
0000
0000
,
0000
0030
0000
0000
;
