#VERSION:0.83;
#TITLE:Siberia;
#SUBTITLE:;
#ARTIST:LIGHTS;
#TITLETRANSLIT:;
#SUBTITLETRANSLIT:;
#ARTISTTRANSLIT:;
#GENRE:BASS BOOSTED SYNTHPOP;
#ORIGIN:;
#CREDIT:;
#BANNER:[Passport] - siberia.png;
#BACKGROUND:[Passport] - siberia-bg.png;
#PREVIEWVID:;
#JACKET:[Passport] - siberia-jacket.png;
#CDIMAGE:;
#DISCIMAGE:;
#LYRICSPATH:;
#CDTITLE:;
#MUSIC:[Passport] - siberia.ogg;
#OFFSET:1.245000;
#SAMPLESTART:45.744999;
#SAMPLELENGTH:15.000000;
#SELECTABLE:YES;
#DISPLAYBPM:148.000000;
#BPMS:0.000=148.000;
#STOPS:;
#DELAYS:;
#WARPS:;
#TIMESIGNATURES:0.000=4=4;
#TICKCOUNTS:0.000=4;
#COMBOS:0.000=1;
#SPEEDS:0.000=1.000=0.000=0;
#SCROLLS:0.000=1.000;
#FAKES:;
#LABELS:0.000=Song Start;
#BGCHANGES:;
#KEYSOUNDS:;
#ATTACKS:
;

//---------------dance-single - ----------------
#NOTEDATA:;
#CHARTNAME:;
#STEPSTYPE:dance-single;
#DESCRIPTION:;
#CHARTSTYLE:;
#DIFFICULTY:Hard;
#METER:7;
#RADARVALUES:0.452088,0.471055,0.318280,0.118218,0.000000,348.000000,313.000000,35.000000,13.000000,0.000000,0.000000,0.000000,0.000000,0.000000,0.452088,0.471055,0.318280,0.118218,0.000000,348.000000,313.000000,35.000000,13.000000,0.000000,0.000000,0.000000,0.000000,0.000000;
#CREDIT:ohaiimian;
#DISPLAYBPM:148.000000;
#NOTES:
// measure 0
0000
0000
0000
0000
,  // measure 1
0000
0000
0000
0000
,  // measure 2
0000
0000
0000
0000
,  // measure 3
0000
0000
0000
0000
,  // measure 4
0000
0000
0000
0000
,  // measure 5
0000
0000
0000
0000
,  // measure 6
0001
0010
0100
2000
0000
0010
0000
3010
,  // measure 7
0100
0001
0010
0100
,  // measure 8
1000
0100
0010
0002
0000
0010
0000
0013
,  // measure 9
0100
1000
0001
0100
,  // measure 10
0010
1000
0010
0200
0000
0001
0000
0301
,  // measure 11
0010
0100
1000
0001
,  // measure 12
0100
0010
1000
0002
0000
0010
0000
0013
,  // measure 13
0001
1000
0101
1010
,  // measure 14
0100
0000
0001
0010
0000
0100
1000
0000
,  // measure 15
0010
0100
1100
0011
,  // measure 16
0100
0000
1000
0010
0000
0100
0001
1000
,  // measure 17
0100
0010
0011
1100
,  // measure 18
0020
0000
2030
0000
3002
0000
0013
0100
,  // measure 19
1000
0000
0100
0010
0100
0000
0010
0001
,  // measure 20
0100
0000
0010
1000
0100
0010
0001
1000
,  // measure 21
0010
0010
1100
0101
,  // measure 22
0001
0000
0010
0100
0000
1000
0001
0000
,  // measure 23
0100
0010
1010
0101
,  // measure 24
0010
0001
0010
0001
0000
0100
0010
0100
,  // measure 25
0010
1000
0011
1010
,  // measure 26
0002
0000
0203
0000
0310
1000
0000
1000
,  // measure 27
0100
0000
0010
0100
0010
0000
0010
0001
,  // measure 28
0010
0100
1000
0010
0000
0100
1001
0000
,  // measure 29
0110
0000
0101
0000
1100
0000
0001
0010
,  // measure 30
0100
0000
1000
0010
0000
0100
0001
0000
,  // measure 31
0110
0000
1010
0000
0011
0000
1000
0100
,  // measure 32
0010
0000
0001
0010
0000
0100
1000
0000
,  // measure 33
0110
0000
0011
0000
1010
0000
0001
0100
,  // measure 34
0010
0000
1000
0100
0000
0010
0001
0000
,  // measure 35
0110
0000
0101
0000
1100
0000
1000
0010
,  // measure 36
0100
0000
0001
0100
0000
0010
1000
0000
,  // measure 37
1000
0100
0001
0100
1000
0000
0010
0100
,  // measure 38
0001
0000
0010
0100
1000
0000
1000
0100
,  // measure 39
0010
0001
0010
1000
0010
0001
0100
0000
,  // measure 40
0010
0000
1000
0000
0100
0010
0100
0000
,  // measure 41
0001
0100
1000
0100
0001
0000
0010
0100
,  // measure 42
1000
0000
0010
0100
0001
0000
0001
0010
,  // measure 43
0100
1000
0100
0001
0100
1000
0010
0000
,  // measure 44
1010
0000
0101
0000
1000
0001
0010
0100
,  // measure 45
1000
0000
0001
0000
0100
0100
0100
0000
,  // measure 46
0010
0100
0001
0000
0100
0010
1000
0000
,  // measure 47
0100
0000
0010
0000
0001
0001
0001
0000
,  // measure 48
0010
0000
0100
0000
1000
0010
0100
0000
,  // measure 49
0001
1000
0100
0010
,  // measure 50
0001
0100
0001
2000
0000
0001
0000
3001
,  // measure 51
0010
0100
1000
0001
,  // measure 52
1000
0100
1000
0002
0000
0100
0000
0103
,  // measure 53
0010
0000
1000
0000
0100
0010
0001
0000
,  // measure 54
0010
0100
1000
0002
0000
0100
0000
0103
,  // measure 55
0010
0000
1000
0000
0001
0010
0100
0000
,  // measure 56
0010
0001
0100
0020
0000
1000
0000
1030
,  // measure 57
0100
0010
0100
0010
0100
0000
1010
0000
,  // measure 58
0010
0101
0100
1100
,  // measure 59
0010
0100
0010
0100
0010
0000
0101
0000
,  // measure 60
0010
0000
1100
0000
0001
0010
0001
0000
,  // measure 61
1000
0100
0010
0100
1000
0000
0001
0000
,  // measure 62
0100
1010
0100
0011
,  // measure 63
0100
1000
0100
0000
0010
0000
0001
0000
,  // measure 64
0100
0000
1010
0000
0001
0100
0010
0000
;

//---------------dance-single - ----------------
#NOTEDATA:;
#CHARTNAME:;
#STEPSTYPE:dance-single;
#DESCRIPTION:;
#CHARTSTYLE:;
#DIFFICULTY:Medium;
#METER:5;
#RADARVALUES:0.379338,0.441614,0.300093,0.181874,0.000000,292.000000,259.000000,33.000000,20.000000,0.000000,0.000000,0.000000,0.000000,0.000000,0.379338,0.441614,0.300093,0.181874,0.000000,292.000000,259.000000,33.000000,20.000000,0.000000,0.000000,0.000000,0.000000,0.000000;
#CREDIT:ohaiimian;
#DISPLAYBPM:148.000000;
#NOTES:
0000
0000
0000
0000
,
0000
0000
0000
0000
,
0000
0000
0000
0000
,
0000
0000
0000
0000
,
0000
0000
0000
0000
,
0000
0000
0000
0000
,
0001
0100
0002
0000
0000
1000
0003
2000
,
0000
0000
0000
0000
,
3100
1000
0200
0000
0000
0010
0300
0020
,
0000
0000
0000
0000
,
0031
0010
0002
0000
0000
0010
0003
0020
,
0000
0000
0000
0000
,
0130
0010
0200
0000
0000
1000
0300
2000
,
0000
0000
3000
0000
,
0001
0000
0100
0000
0001
0000
0100
0010
,
0100
0010
1000
0100
,
0010
0001
0010
0000
0100
1000
0100
0000
,
0010
0001
0100
0010
,
2000
3200
0320
0032
,
0103
0010
1000
0100
,
0110
1001
0110
0001
,
1000
0000
0100
0000
1000
0000
0010
0100
,
0010
0100
0001
0010
,
0100
1000
0010
0100
,
0001
0100
0001
0000
1000
0100
1000
0000
,
0010
0100
0001
1000
,
0200
0320
0032
2003
,
3010
0100
0001
0000
1000
0010
0100
0000
,
0001
0010
0100
0000
1000
0100
0010
0000
,
1001
0000
0110
0000
1001
0000
0001
0100
,
0010
0000
0100
0001
0010
0000
0100
0000
,
1001
0000
0110
0000
1001
0000
1000
0010
,
0100
0000
0100
0010
1000
0000
0100
0000
,
0110
0000
1001
0000
0110
0000
1000
0100
,
0010
0000
0100
0010
0001
0000
0100
0000
,
0110
0000
1001
0000
0110
0000
0001
0010
,
0100
0000
0010
0100
1000
0000
0010
0000
,
0101
0000
0011
0000
0101
0000
0010
1000
,
0100
0000
0010
0001
0100
0000
0010
0000
,
1100
0000
1010
0000
1100
0000
1000
0010
,
0100
0000
0010
0100
0001
0000
0010
0000
,
0011
0000
1100
0000
0011
0000
0001
0010
,
0100
0000
0010
0100
1000
0000
0010
0000
,
1010
0000
0101
0000
1010
0000
1000
0100
,
0010
0000
0100
0010
0001
0000
0100
0000
,
0010
0000
0010
0000
1000
0100
1000
0000
,
0010
0000
0010
0000
0100
0001
0100
0000
,
0010
0000
0010
0000
0010
1000
0010
0000
,
0100
0000
0100
0000
0001
0100
0001
0000
,
0010
0100
1000
0001
,
0100
0010
0200
0000
0000
0010
0000
0310
,
1000
0100
0010
0001
,
0010
0100
0020
0000
0000
0100
0000
0130
,
1000
0010
0100
0001
,
1000
0100
2000
0000
0000
0001
0000
3001
,
0100
0010
1000
0100
,
0010
0001
0020
0000
0000
0100
0000
0130
,
1000
0010
0100
0001
,
0010
0110
0100
0110
,
1000
0001
0100
0010
,
0100
0110
1000
0001
,
0010
0100
1000
0001
,
1000
1001
0001
1001
,
0010
0100
1000
0001
,
0100
0000
1010
0000
0001
0010
0001
0000
;

//---------------dance-single - ----------------
#NOTEDATA:;
#CHARTNAME:;
#STEPSTYPE:dance-single;
#DESCRIPTION:;
#CHARTSTYLE:;
#DIFFICULTY:Easy;
#METER:3;
#RADARVALUES:0.249428,0.264968,0.000000,0.218249,0.000000,192.000000,192.000000,0.000000,24.000000,0.000000,0.000000,0.000000,0.000000,0.000000,0.249428,0.264968,0.000000,0.218249,0.000000,192.000000,192.000000,0.000000,24.000000,0.000000,0.000000,0.000000,0.000000,0.000000;
#CREDIT:ohaiimian;
#DISPLAYBPM:148.000000;
#NOTES:
0000
0000
0000
0000
,
0000
0000
0000
0000
,
0000
0000
0000
0000
,
0000
0000
0000
0000
,
0000
0000
0000
0000
,
0000
0000
0000
0000
,
1000
2000
0000
3001
,
1000
0000
0100
0000
,
0010
0020
0000
0031
,
0100
0000
0010
0000
,
0100
0200
0000
0301
,
0000
0010
0000
0100
,
1000
2000
0000
3001
,
0100
0100
0010
0010
,
2000
3000
0002
0003
,
1000
1000
0001
0001
,
0020
0030
0200
0300
,
1000
0100
1000
0001
,
0100
0100
0010
0010
,
1000
0100
0010
0001
,
0010
0100
0100
0100
,
0010
0010
0001
0001
,
2000
3000
0020
0030
,
0100
0100
0010
0010
,
2000
3000
0002
0003
,
0001
0010
0001
1000
,
0010
0010
0100
0100
,
0001
0010
0010
0100
,
0100
1000
1000
0001
,
0100
0010
0100
0000
,
0001
1000
0001
0000
,
1000
0100
1000
0000
,
0001
0100
0001
0000
,
1000
0100
0100
0000
,
0100
0010
0010
0000
,
0001
0010
0100
1000
,
0100
0010
0001
0100
,
0010
0010
1000
0000
,
0100
0100
0010
0000
,
0001
0001
0001
0000
,
1000
1000
1000
0000
,
0010
1000
0010
1000
,
0001
0100
0001
0100
,
0010
0010
0100
0100
,
0001
0010
0100
1000
,
0002
0003
2000
3000
,
0010
0010
0100
0100
,
0002
0003
2000
3000
,
0010
0010
0100
0100
,
0010
1000
0100
0010
,
0002
0000
0000
1003
,
1000
0100
0010
0001
,
2000
0000
0000
0001
,
3001
0100
0010
1000
,
0002
0000
0000
1003
,
0001
0100
0010
1000
,
0200
0000
0000
0010
,
0310
0001
1000
0010
,
2000
3000
0002
0003
,
0100
0010
1000
0100
,
0020
0030
0200
0300
,
0010
0001
1000
0010
,
0100
0100
0010
0010
,
1000
0100
0010
0001
,
1000
1000
0001
0001
;
