#TITLE:Psychedelic Tokyo Underground;
#SUBTITLE:;
#ARTIST:lapix;
#TITLETRANSLIT:;
#SUBTITLETRANSLIT:;
#ARTISTTRANSLIT:;
#GENRE:;
#CREDIT:;
#BANNER:[Passport] - Psychedelic Tokyo Underground.png;
#BACKGROUND:[Passport] - Psychedelic Tokyo Underground-bg.png;
#LYRICSPATH:;
#CDTITLE:cdtitle.png;
#MUSIC:[Passport] - Psychedelic Tokyo Underground.ogg;
#OFFSET:0.002000;
#SAMPLESTART:71.834763;
#SAMPLELENGTH:13.061218;
#SELECTABLE:YES;
#BPMS:0.000000=147.000000
;
#STOPS:96.000000=1.633000
;
#BGCHANGES:;
#KEYSOUNDS:;
#ATTACKS:;

//---------------dance-single - ----------------
#NOTES:
     dance-single:
     :
     Challenge:
     10:
     0.754136,0.900117,0.295691,0.191329,0.982737,607.000000,573.000000,34.000000,22.000000,0.000000,0.000000,0.754136,0.900117,0.295691,0.191329,0.982737,607.000000,573.000000,34.000000,22.000000,0.000000,0.000000:
// measure 0
0000
0000
0000
0000
,  // measure 1
0000
0000
0000
0000
,  // measure 2
0000
0000
0000
0000
,  // measure 3
0000
0000
0000
0000
,  // measure 4
0001
0001
0100
0100
,  // measure 5
0010
0010
1000
1000
,  // measure 6
0100
0010
0100
1000
,  // measure 7
1002
0000
0000
0000
0103
0010
0100
0010
2000
0000
0000
0000
3001
0000
0000
0000
,  // measure 8
1001
0000
0000
0000
1100
0000
0000
0000
0011
0000
0001
1000
0000
0000
0001
0000
,  // measure 9
0101
0000
0000
0000
1000
0000
0010
0001
0000
0010
0000
1000
0000
0001
0010
0100
,  // measure 10
1000
0000
0000
0000
0101
0000
0000
0000
1010
0000
1000
0001
0000
0000
1000
0000
,  // measure 11
0100
0000
0001
0000
0100
0000
1000
0002
0000
0000
0103
0000
0101
0000
0000
0000
,  // measure 12
0001
1000
0001
1000
0100
0000
0000
0000
0011
0000
0001
1000
0000
0000
0001
0000
,  // measure 13
0100
0000
1000
0000
0100
0000
0001
2000
0000
0000
3100
0000
1100
0000
0000
0000
,  // measure 14
1000
0001
1000
0001
0010
0000
0000
0000
1100
0000
1000
0001
0000
0000
1000
0000
,  // measure 15
0010
0000
0001
0000
0010
0000
1000
0200
0000
0000
0301
0000
0100
0000
1000
0000
,  // measure 16
1100
0000
0000
0000
0011
0000
0000
0000
1001
0000
0001
0100
0000
0000
1000
0000
,  // measure 17
0100
0000
0001
0000
0010
0000
1000
0020
0000
0001
0000
0031
0000
0010
0001
1000
,  // measure 18
0010
0000
0000
0000
0101
0000
0000
0000
1001
0000
1000
0100
0000
0000
0001
0000
,  // measure 19
0100
0000
1000
0000
0010
0000
0001
0020
0000
0000
1030
0000
1010
0000
0000
0000
,  // measure 20
1000
0000
0000
1000
0001
0000
1000
0001
0000
1000
0000
0000
0001
0000
1000
0001
,  // measure 21
0010
0100
0000
0010
0100
0000
0010
0100
0000
0010
0100
0000
0010
0100
0010
0100
,  // measure 22
1000
0001
1000
0001
0100
0010
0100
0010
1000
0100
0010
0001
0100
0010
1000
0100
,  // measure 23
0040
0004
0000
0000
0000
0000
0030
0003
1000
0000
0001
0100
0010
1000
0001
0000
,  // measure 24
2002
0000
3003
0000
1000
1000
0100
0000
,  // measure 25
0011
0000
1002
0000
0000
0000
0203
0000
0000
1000
0000
0000
,  // measure 26
0002
0000
0000
0000
0303
0000
0000
0000
0001
1000
0100
0010
0001
0000
0100
0000
,  // measure 27
0101
0000
0000
0000
1010
0000
0000
0000
1002
0000
0000
0000
0000
0000
0000
0013
0000
0000
0100
0000
0000
1000
0000
0000
,  // measure 28
0001
0000
0000
0001
0000
0000
0001
0000
0100
0010
0100
0010
0000
0010
0000
1000
,  // measure 29
0100
0000
0011
0000
1100
0000
2001
0000
0000
0000
0000
0000
,  // measure 30
0001
0000
0000
0000
0001
0000
0000
0000
3001
0000
0000
1000
0000
0000
0001
0000
,  // measure 31
1000
0000
0100
0000
0010
0001
1000
0001
1000
0010
0100
0001
1000
0100
0000
0010
,  // measure 32
0001
1000
0001
0100
0000
0100
0000
0010
1000
0001
0010
0200
0000
0000
1300
0000
,  // measure 33
0001
0100
0001
1000
0100
1000
0001
0100
0001
0100
0001
1000
0010
1000
0001
1000
,  // measure 34
0100
0010
0001
0010
0100
1000
0000
0100
1000
0010
0100
0001
0010
0000
0000
0010
,  // measure 35
0001
0000
0100
0000
0010
1000
0001
1000
0001
0010
0100
1000
0001
0100
0000
0010
,  // measure 36
1000
0001
1000
0100
0000
0100
0000
0010
0001
1000
0010
0200
0000
0000
0301
0000
,  // measure 37
1000
0100
1000
0001
0100
0001
1000
0100
1000
0100
1000
0001
0010
0001
1000
0001
,  // measure 38
0100
0010
1000
0001
0000
1000
0100
1000
0100
0010
0001
0100
0010
0000
0010
0000
,  // measure 39
1000
0000
1000
0000
0100
0000
0010
0002
0000
0000
0103
0000
1000
0000
0100
0000
,  // measure 40
0001
0000
0001
0000
0010
0000
0100
1000
0000
1000
0010
0000
0001
0000
0010
0000
,  // measure 41
1000
0000
1000
0000
0100
0000
0010
0001
0000
0010
0001
0000
0100
0000
0002
2000
,  // measure 42
0000
0000
0000
3003
,  // measure 43
1000
0000
0001
0000
0100
1000
0000
0100
0000
0001
0010
0000
0100
1000
0100
0010
,  // measure 44
0001
0000
1000
0000
0100
0001
0000
0100
0000
1000
0010
0000
0100
0001
1000
0001
,  // measure 45
0010
0000
1000
0000
0010
0001
0000
0100
0000
1000
0100
0000
0001
0010
0100
1000
,  // measure 46
0010
0000
0001
0000
0010
1000
0000
0100
0000
0001
0100
0000
1000
0010
0100
0001
,  // measure 47
1000
0000
0100
0000
0001
0100
0000
1000
0000
0010
0100
0000
0001
0010
0100
1000
,  // measure 48
0001
0000
0100
0000
1000
0100
0000
0001
0000
0010
0100
0000
1000
0010
0100
0001
,  // measure 49
0010
0000
1000
0000
0010
0001
0000
0100
0000
1000
0100
0000
0001
0010
0100
1000
,  // measure 50
0010
0000
0001
0000
0010
1000
0000
0100
0000
0010
0001
1000
0000
1001
0000
1000
,  // measure 51
0010
0000
0100
0000
1000
0100
0000
0010
0000
1000
0100
0000
0010
0001
0010
0100
,  // measure 52
1000
0000
0010
0000
0001
0010
0000
0100
0000
0010
1000
0000
0100
0010
0001
1000
,  // measure 53
0010
0000
0100
0000
1000
0100
0000
0001
0000
0010
1000
0000
0010
0001
1000
0010
,  // measure 54
0100
0000
0010
0000
0001
0010
0000
1000
0000
0100
0001
0000
0100
1000
0010
0100
,  // measure 55
0001
0000
1000
0000
0100
0001
0000
1000
0000
0010
0001
0000
1000
0010
0100
0001
,  // measure 56
1000
0000
0001
0000
0100
1000
0000
0001
0000
0010
1000
0000
0001
0010
0100
1000
,  // measure 57
0001
0100
0001
0100
0010
1000
0010
1000
0001
0010
0100
1000
0010
0100
0001
0010
,  // measure 58
0400
4000
0000
0000
0000
0000
0300
3000
0001
0000
0100
0000
1000
0000
0100
0000
,  // measure 59
0110
0000
0000
0000
1001
0000
0000
0000
1001
0000
1000
0100
0000
0000
0010
0000
,  // measure 60
0100
0000
0000
0000
1001
0000
0001
0100
0000
0010
0000
0100
0000
0010
1000
0100
,  // measure 61
0010
0000
0000
0000
0110
0000
0000
0000
1001
0000
1000
0001
0000
0000
1000
0000
,  // measure 62
0100
0000
0001
0000
1000
0000
0010
0002
0000
0000
1003
0000
1001
0000
0000
0000
,  // measure 63
0001
0000
0000
0001
0100
0000
0001
0100
0000
0001
0000
0000
0100
0000
0001
0100
,  // measure 64
0010
1000
0000
0010
1000
0000
0010
1000
0000
0010
1000
0000
0010
1000
0010
0100
,  // measure 65
0001
1000
0001
1000
0100
0010
0100
0010
0001
0100
0010
1000
0100
0010
0001
0100
,  // measure 66
0040
4000
0000
0000
0000
0000
0030
3000
0001
0000
0010
0000
1000
0000
0200
0000
,  // measure 67
0002
0000
0000
0000
,  // measure 68
0000
0000
0000
0000
,  // measure 69
0303
0000
0000
0000
;

//---------------dance-single - ----------------
#NOTES:
     dance-single:
     :
     Hard:
     9:
     0.590139,0.630082,0.139149,0.234813,0.487020,475.000000,459.000000,16.000000,27.000000,0.000000,0.000000,0.590139,0.630082,0.139149,0.234813,0.487020,475.000000,459.000000,16.000000,27.000000,0.000000,0.000000:
// measure 0
0000
0000
0000
0000
,  // measure 1
0000
0000
0000
0000
,  // measure 2
0000
0000
0000
0000
,  // measure 3
0000
0000
0000
0000
,  // measure 4
1000
1000
0100
0100
,  // measure 5
0010
0010
0001
0001
,  // measure 6
0100
0010
0100
0001
,  // measure 7
2001
0000
0000
0000
3100
0010
0100
0010
0200
0000
0000
0000
0310
0000
0000
0000
,  // measure 8
1001
0000
0000
0000
0001
0000
0000
0000
0001
0000
0001
0100
0000
0000
0010
0000
,  // measure 9
2000
0000
3000
0000
0001
0000
0001
0010
0000
0100
0000
1000
0000
0010
0100
0000
,  // measure 10
0001
0000
0000
0000
1000
0000
0000
0000
1000
0000
1000
0100
0000
0000
0010
0000
,  // measure 11
0001
0000
0100
0000
1000
0000
0100
0002
0000
0000
1000
0000
1003
0000
0000
0000
,  // measure 12
0001
1000
0001
1000
0001
0000
0000
0000
0001
0000
0001
0010
0000
0000
0100
0000
,  // measure 13
1000
0000
0010
0000
0001
0000
0010
2000
0000
0000
0001
0000
3001
0000
0000
0000
,  // measure 14
1000
0001
1000
0001
1000
0000
0000
0000
1000
0000
1000
0010
0000
0000
0100
0000
,  // measure 15
0001
0000
0010
0000
1000
0000
0010
0002
0000
0000
0000
0000
0103
0000
0000
0000
,  // measure 16
1001
0000
0000
0001
1000
0000
0000
0000
1000
0000
0100
0010
0000
0000
0100
0000
,  // measure 17
1000
0000
0010
0000
0001
0000
0010
2000
0000
0010
0000
3010
0000
1000
0001
0000
,  // measure 18
1000
0000
0000
0000
0001
0000
0000
0000
0001
0000
0010
0100
0000
0000
0010
0000
,  // measure 19
0001
0000
0100
0000
1000
0000
0100
0002
0000
0000
1000
0000
1003
0000
0000
0000
,  // measure 20
0001
0000
0000
0100
0000
0000
0010
0000
0000
1000
0000
0000
0100
0000
0001
0000
,  // measure 21
0100
0000
0000
1000
0000
0000
0010
0000
0000
0001
0000
0000
0010
0000
1000
0000
,  // measure 22
0100
0001
1000
0010
0001
0100
1000
0001
,  // measure 23
0040
4000
0000
0000
0000
0000
0030
3000
0001
0000
1000
0000
0100
0000
0010
0000
,  // measure 24
2002
0000
3003
0000
0001
0001
0100
0000
,  // measure 25
1010
0000
2001
0000
0000
0000
3200
0000
0000
0001
0000
0000
,  // measure 26
2000
0000
0000
0000
3300
0000
0000
0000
1000
0001
1000
0000
0001
0000
0000
0000
,  // measure 27
1010
0000
0000
0000
0110
0000
0000
0000
0102
0000
0000
0000
0000
0000
0000
0013
0000
0000
0100
0000
0000
0010
0000
0000
,  // measure 28
0001
0000
0000
0001
0000
0000
0001
0000
1000
0010
1000
0010
0000
1000
0000
0000
,  // measure 29
0110
0000
1001
0000
0110
0000
2001
0000
0000
0000
0000
0000
,  // measure 30
0001
0000
0000
0000
0001
0000
0000
0000
3001
0000
0000
1000
0000
0000
0001
0000
,  // measure 31
1000
0000
0100
0000
0001
0000
0100
0000
1000
0000
0010
0000
0100
0001
0000
0001
,  // measure 32
0010
0000
0100
1000
0000
0010
0000
0100
0001
0000
1000
0200
0000
0000
0000
0000
,  // measure 33
1300
0000
0001
0100
0000
0001
0100
0000
1000
0000
0100
0000
0001
0000
0010
0000
,  // measure 34
0100
0000
1000
0010
0000
1000
0001
0000
0010
0100
0010
0100
0020
0000
0000
0000
,  // measure 35
0031
0000
0100
0000
1000
0000
0100
0000
0001
0000
0010
0000
0100
1000
0000
1000
,  // measure 36
0010
0000
0100
0001
0000
0010
0000
0100
1000
0000
0001
0200
0000
0000
0000
0000
,  // measure 37
0301
0000
1000
0100
0000
1000
0100
0000
0001
0000
0100
0000
1000
0000
0010
0000
,  // measure 38
0100
0000
0001
0010
0000
0001
1000
0000
0010
0100
0010
0100
0010
0000
1000
0000
,  // measure 39
0001
0000
0001
0000
1000
0000
0001
0020
0000
0000
0130
0000
0010
0000
0001
0000
,  // measure 40
1000
0000
1000
0000
0001
0000
1000
0020
0000
0000
0031
0000
0010
0000
1000
0000
,  // measure 41
0100
0000
0100
0000
0010
0000
0100
2000
0000
0000
3001
0000
0100
0000
0000
0220
,  // measure 42
0000
0000
0000
0330
,  // measure 43
0001
0000
0100
0000
1000
0000
0100
0001
0000
0100
0001
0000
0010
0000
0100
0000
,  // measure 44
1000
0000
0100
0000
0001
0000
0100
1000
0000
0100
1000
0000
0010
0000
0100
0000
,  // measure 45
0001
0000
0010
0000
1000
0000
0010
0001
0000
0010
0001
0000
0100
0000
0001
0000
,  // measure 46
1000
0000
0010
0000
0001
0000
0010
1000
0000
0010
1000
0000
0100
0000
0010
0000
,  // measure 47
0100
0000
0001
0000
0100
0000
1000
0001
0000
1000
0001
0000
1000
0000
0010
0000
,  // measure 48
0100
0000
1000
0000
0100
0000
0001
1000
0000
0001
1000
0000
0100
0000
1000
0000
,  // measure 49
0010
0000
0001
0000
0010
0000
1000
0100
0000
1000
0100
0000
0010
0000
0001
0000
,  // measure 50
0010
0000
1000
0000
0010
0000
0001
0100
0000
0001
1000
0001
0000
1002
0000
0000
,  // measure 51
1003
0000
0100
0000
0001
0000
0100
0010
0000
0001
0100
0000
0010
0000
1000
0000
,  // measure 52
0001
0000
0010
0000
1000
0000
0010
0100
0000
1000
0010
0000
0100
0000
0001
0000
,  // measure 53
0010
0000
1000
0000
0010
0000
0001
0100
0000
0010
1000
0000
0100
0000
1000
0000
,  // measure 54
0010
0000
0001
0000
0010
0000
1000
0100
0000
0010
0001
0000
0100
0000
0010
0000
,  // measure 55
1000
0000
0001
0000
0100
0000
1000
0100
0000
0001
0010
0000
1000
0000
0010
0000
,  // measure 56
0001
0000
1000
0000
0100
0000
0001
0100
0000
1000
0010
0000
0001
0000
0010
0000
,  // measure 57
1000
0100
0001
1000
0010
0001
0100
0010
,  // measure 58
4000
0004
0000
0000
0000
0000
3000
0003
1000
0000
0001
0000
0100
0000
0010
0000
,  // measure 59
1001
0000
0000
0000
1000
0000
0000
0000
1000
0000
1000
0100
0000
0000
0010
0000
,  // measure 60
0001
0000
0000
0000
1000
0000
1000
0010
0000
0100
0000
0001
0000
0010
0100
0000
,  // measure 61
1000
0000
0000
0000
0001
0000
0000
0000
0001
0000
0001
0100
0000
0000
0010
0000
,  // measure 62
1000
0000
0100
0000
0001
0000
0100
2000
0000
0000
0001
0000
3001
0000
0000
0000
,  // measure 63
1000
0000
0000
0010
0000
0000
0100
0000
0000
0001
0000
0000
0010
0000
1000
0000
,  // measure 64
0010
0000
0000
0001
0000
0000
0100
0000
0000
1000
0000
0000
0100
0000
0001
0000
,  // measure 65
0010
1000
0001
0100
1000
0010
0001
1000
,  // measure 66
0400
0004
0000
0000
0000
0000
0300
0003
1000
0000
0100
0000
0010
0000
0002
0000
,  // measure 67
2000
0000
0000
0000
,  // measure 68
0000
0000
0000
0000
,  // measure 69
3003
0000
0000
0000
;

//---------------dance-single - ----------------
#NOTES:
     dance-single:
     :
     Medium:
     7:
     0.454718,0.510067,0.104361,0.234813,0.108710,366.000000,354.000000,12.000000,27.000000,0.000000,0.000000,0.454718,0.510067,0.104361,0.234813,0.108710,366.000000,354.000000,12.000000,27.000000,0.000000,0.000000:
// measure 0
0000
0000
0000
0000
,  // measure 1
0000
0000
0000
0000
,  // measure 2
0000
0000
0000
0000
,  // measure 3
0000
0000
0000
0000
,  // measure 4
0001
0001
0100
0100
,  // measure 5
0010
0010
1000
1000
,  // measure 6
0100
0010
0100
1000
,  // measure 7
1002
0000
0103
0010
0200
0000
0310
0000
,  // measure 8
1001
0000
0000
0000
1000
0000
0000
0000
1000
0000
0000
0100
0000
0000
1000
0000
,  // measure 9
0002
0003
1000
0000
1000
0001
0100
0001
,  // measure 10
1000
0000
0000
0000
0001
0000
0000
0000
0001
0000
0000
0100
0000
0000
0001
0000
,  // measure 11
1000
0000
0001
0000
1000
0000
0000
0200
0000
0000
0000
0000
1300
0000
0000
0000
,  // measure 12
0001
0000
0100
0000
0010
0000
0000
0000
1000
0000
0000
0100
0000
0000
1000
0000
,  // measure 13
0001
0000
1000
0000
0001
0000
0000
0200
0000
0000
0000
0000
0301
0000
0000
0000
,  // measure 14
1000
0000
0100
0000
0010
0000
0000
0000
0001
0000
0000
0100
0000
0000
0001
0000
,  // measure 15
1000
0000
0001
0000
1000
0000
0000
0200
0000
0000
0000
0000
0310
0000
0000
0000
,  // measure 16
1001
0000
0000
0000
1000
0000
0000
0000
0010
0000
0000
0100
0000
0000
0010
0000
,  // measure 17
1000
0001
0010
0000
0010
0001
0100
0001
,  // measure 18
1000
0000
0000
0000
0001
0000
0000
0000
0010
0000
0000
0100
0000
0000
0010
0000
,  // measure 19
0001
0000
1000
0000
0010
0000
0000
0200
0000
0000
0000
0000
0301
0000
0000
0000
,  // measure 20
1000
0100
0001
0100
,  // measure 21
1000
0010
0001
0010
,  // measure 22
1000
0100
0010
0001
1000
0100
0010
0001
,  // measure 23
2000
0000
3002
0000
1003
0010
0100
0002
,  // measure 24
2000
0000
3003
0000
0001
0100
0010
0000
,  // measure 25
1000
0000
2001
0000
0000
0000
0100
0000
0000
0001
0000
0000
,  // measure 26
0020
0000
3030
0000
1000
0100
0010
0000
,  // measure 27
0001
0000
1000
0000
1002
0000
0000
0000
0000
0103
0000
0000
,  // measure 28
0010
0000
0010
0000
1000
0001
1000
0000
,  // measure 29
0100
0000
0010
0000
0100
0000
2001
0000
0000
0000
0000
0000
,  // measure 30
0001
0000
0000
0000
0001
0000
0000
0000
3001
0000
0000
1000
0000
0000
0001
0000
,  // measure 31
1000
0100
0010
0000
0010
0100
1000
0000
,  // measure 32
0001
0000
0100
0000
0010
1000
0100
0000
,  // measure 33
1000
0001
1000
0001
1000
0001
0010
0001
,  // measure 34
0100
0010
1000
0000
1000
0100
0010
0000
,  // measure 35
0001
0100
0010
0000
0010
0100
0001
0000
,  // measure 36
1000
0000
0100
0000
0010
0001
0100
0000
,  // measure 37
0001
1000
0001
1000
0001
1000
0010
1000
,  // measure 38
0100
0010
0001
0000
0001
0100
0010
1000
,  // measure 39
0001
0000
0000
0000
0100
0000
0000
0010
0000
0000
0100
0000
0001
0000
0000
0000
,  // measure 40
1000
0000
0000
0000
0100
0000
0000
0010
0000
0000
0100
0000
1000
0000
0000
0000
,  // measure 41
0001
0000
0000
0000
0100
0000
0000
0010
0000
0000
1000
0000
0001
0000
0000
2002
,  // measure 42
0000
0000
0000
3003
,  // measure 43
1000
0001
1000
0001
0010
0001
1000
0001
,  // measure 44
0100
0010
0100
0010
1000
0010
0100
0001
,  // measure 45
1000
0001
0010
0001
1000
0010
1000
0001
,  // measure 46
0100
0001
1000
0100
1000
0100
0010
0001
,  // measure 47
1000
0100
1000
0100
0010
0100
1000
0001
,  // measure 48
0100
0001
0100
0001
1000
0001
0100
0001
,  // measure 49
1000
0010
1000
0001
0010
0001
1000
0010
,  // measure 50
0100
0000
0001
0000
1000
0000
0100
0000
0010
0000
0000
0100
0000
0020
0000
0000
,  // measure 51
0031
0100
0010
0000
1001
0000
1001
0000
,  // measure 52
1000
0100
0001
0000
0001
0100
1000
0000
,  // measure 53
1001
0000
1001
0000
1000
0010
0100
0000
,  // measure 54
0001
0100
1000
0100
1000
0100
0001
0000
,  // measure 55
1000
0100
0010
0000
0001
0100
0010
0000
,  // measure 56
0100
0001
0010
0000
0100
1000
0010
0000
,  // measure 57
1000
0100
0010
0001
2000
0000
3002
0000
,  // measure 58
0203
0000
0320
0000
1030
0001
1000
0000
,  // measure 59
1001
0000
0000
0000
0001
0000
0000
0000
0001
0000
0000
0100
0000
0000
0001
0000
,  // measure 60
1000
0000
0001
0000
0001
1000
0100
1000
,  // measure 61
0001
0000
0000
0000
1000
0000
0000
0000
0100
0000
0000
0010
0000
0000
0100
0000
,  // measure 62
1000
0000
0001
0000
0100
0000
0000
0020
0000
0000
0000
0000
1030
0000
0000
0000
,  // measure 63
0001
0100
1000
0100
,  // measure 64
0001
0010
1000
0010
,  // measure 65
0001
0100
0010
1000
0001
0100
0010
1000
,  // measure 66
0002
0000
2003
0000
3001
0010
0100
2000
,  // measure 67
0002
0000
0000
0000
,  // measure 68
0000
0000
0000
0000
,  // measure 69
3003
0000
0000
0000
;

//---------------dance-single - ----------------
#NOTES:
     dance-single:
     :
     Easy:
     5:
     0.365265,0.390051,0.113058,0.234813,0.000000,294.000000,281.000000,13.000000,27.000000,0.000000,0.000000,0.365265,0.390051,0.113058,0.234813,0.000000,294.000000,281.000000,13.000000,27.000000,0.000000,0.000000:
// measure 0
0000
0000
0000
0000
,  // measure 1
0000
0000
0000
0000
,  // measure 2
0000
0000
0000
0000
,  // measure 3
0000
0000
0000
0000
,  // measure 4
1000
1000
0100
0100
,  // measure 5
0010
0010
0001
0001
,  // measure 6
0100
0010
0100
0001
,  // measure 7
2000
3000
0002
0003
,  // measure 8
1001
0000
0001
0000
0001
0100
0001
0000
,  // measure 9
1000
0000
0001
0000
0010
0000
0001
1000
,  // measure 10
0001
0000
1000
0000
1000
0100
1000
0000
,  // measure 11
0001
0100
0010
0000
2000
0000
3001
0000
,  // measure 12
1000
0000
0001
0000
0001
0100
0001
0000
,  // measure 13
1000
0100
0010
0000
0002
0000
1003
0000
,  // measure 14
0001
0000
1000
0000
1000
0100
1000
0000
,  // measure 15
0001
0100
0010
0000
2000
0000
3000
0000
,  // measure 16
1001
0000
0001
0000
0001
1000
0100
0000
,  // measure 17
1000
0001
0100
0000
0020
0000
1030
0000
,  // measure 18
0001
0000
1000
0000
1000
0001
0100
0000
,  // measure 19
0001
1000
0100
0000
0020
0000
0130
0000
,  // measure 20
1000
1000
0010
0010
,  // measure 21
0001
0001
0100
0100
,  // measure 22
1000
0010
0001
0100
,  // measure 23
2000
3002
0103
0010
,  // measure 24
2002
3003
0001
1000
,  // measure 25
0220
0330
1000
0001
,  // measure 26
0020
0031
0100
0100
,  // measure 27
2002
0000
3003
0001
,  // measure 28
1000
1000
0100
0010
,  // measure 29
2002
0000
3000
0000
,  // measure 30
1000
1000
1000
1003
,  // measure 31
0001
0100
0001
0000
1000
0100
1000
0000
,  // measure 32
0001
0000
0001
0000
0100
0010
1000
0000
,  // measure 33
0100
0001
0100
1000
,  // measure 34
0010
0000
0100
0000
0001
0010
0100
0000
,  // measure 35
1000
0100
1000
0000
0001
0100
0001
0000
,  // measure 36
1000
0000
1000
0000
0100
0010
0001
0000
,  // measure 37
0100
1000
0100
0001
,  // measure 38
0010
0000
0100
0000
0010
0001
1000
0000
,  // measure 39
0001
0000
0001
0000
1000
0100
1000
0000
,  // measure 40
0001
0000
0001
0000
1000
0010
1000
0000
,  // measure 41
0001
0000
0001
0000
0010
0100
0010
0000
,  // measure 42
2002
0000
0000
3003
,  // measure 43
1001
0000
1000
0000
0010
1000
0001
0000
,  // measure 44
1000
0000
0100
0000
0010
0001
1000
0000
,  // measure 45
0010
0000
0100
0000
0010
1000
0100
0000
,  // measure 46
0010
0000
0001
0000
0100
0001
0010
0000
,  // measure 47
0100
0000
1000
0000
0001
0100
0010
0000
,  // measure 48
1000
0000
0100
0000
0010
0001
1000
0000
,  // measure 49
0010
0000
0100
0000
0001
0010
0100
0000
,  // measure 50
1000
0001
1001
0110
,  // measure 51
1001
0000
0001
0000
0010
0001
0100
0000
,  // measure 52
1000
0000
0100
0000
0001
1000
0100
0000
,  // measure 53
0010
0000
0001
0000
0100
0001
0010
0000
,  // measure 54
1000
0000
0010
0000
0001
0100
0010
0000
,  // measure 55
1000
0000
0100
0000
0001
0100
1000
0000
,  // measure 56
0001
0000
0100
0000
1000
0100
0001
0000
,  // measure 57
1000
0100
0001
0010
,  // measure 58
2000
0000
3002
0000
0013
0100
0010
0000
,  // measure 59
1001
0000
0001
0000
0001
0100
0001
0000
,  // measure 60
1000
0000
0001
0000
0010
0000
0001
1000
,  // measure 61
0001
0000
1000
0000
1000
0001
0100
0000
,  // measure 62
0001
1000
0100
0000
0020
0000
0031
0000
,  // measure 63
1000
1000
0010
0010
,  // measure 64
0001
0001
0100
0100
,  // measure 65
1000
0010
0001
0100
,  // measure 66
2000
3002
0103
0010
,  // measure 67
2002
0000
0000
0000
,  // measure 68
0000
0000
0000
0000
,  // measure 69
3003
0000
0000
0000
;

//---------------dance-single - ----------------
#NOTES:
     dance-single:
     :
     Beginner:
     2:
     0.195056,0.240031,0.060878,0.104361,0.000000,157.000000,150.000000,7.000000,12.000000,0.000000,0.000000,0.195056,0.240031,0.060878,0.104361,0.000000,157.000000,150.000000,7.000000,12.000000,0.000000,0.000000:
// measure 0
0000
0000
0000
0000
,  // measure 1
0000
0000
0000
0000
,  // measure 2
0000
0000
0000
0000
,  // measure 3
0000
0000
0000
0000
,  // measure 4
1000
0000
0001
0000
,  // measure 5
1000
0000
0001
0000
,  // measure 6
1000
0000
0001
0000
,  // measure 7
0200
0000
0300
0000
,  // measure 8
1001
0000
1000
0000
,  // measure 9
0100
0000
1000
0000
,  // measure 10
0001
0000
1000
0000
,  // measure 11
0010
0010
0010
0000
,  // measure 12
1000
0000
0001
0000
,  // measure 13
0010
0010
0010
0000
,  // measure 14
0001
0000
1000
0000
,  // measure 15
0010
0010
0010
0000
,  // measure 16
1001
0000
1000
0000
,  // measure 17
0100
0010
0100
0000
,  // measure 18
1000
0000
0001
0000
,  // measure 19
0100
0010
0100
0000
,  // measure 20
0001
0000
1000
0000
,  // measure 21
0001
0000
1000
0000
,  // measure 22
0100
0100
0100
0100
,  // measure 23
0200
0300
1000
0001
,  // measure 24
1000
0000
0001
0000
,  // measure 25
2002
0000
3003
0000
,  // measure 26
0010
0000
0100
0000
,  // measure 27
2002
0000
3003
0000
,  // measure 28
1000
0000
0001
0000
,  // measure 29
0220
0000
0000
0000
,  // measure 30
0330
0000
0000
0000
,  // measure 31
0001
0000
0001
0000
,  // measure 32
0100
0000
0010
0000
,  // measure 33
1000
0000
0100
0000
,  // measure 34
1000
0000
0010
0000
,  // measure 35
1000
0000
1000
0000
,  // measure 36
0100
0000
0010
0000
,  // measure 37
0001
0000
0100
0000
,  // measure 38
0001
0000
0010
0000
,  // measure 39
0001
0001
0001
0000
,  // measure 40
0100
0100
0100
0000
,  // measure 41
0010
0010
0010
0000
,  // measure 42
2002
0000
3003
0000
,  // measure 43
1000
0100
1000
0000
,  // measure 44
0001
0100
0001
0000
,  // measure 45
1000
0010
1000
0000
,  // measure 46
0001
0010
0001
0000
,  // measure 47
1000
0010
1000
0000
,  // measure 48
0001
0100
0001
0000
,  // measure 49
1000
0100
1000
0000
,  // measure 50
0001
0010
0001
0000
,  // measure 51
0100
0010
0100
0000
,  // measure 52
0001
1000
0001
0000
,  // measure 53
0010
0100
0010
0000
,  // measure 54
0001
1000
0001
0000
,  // measure 55
0100
0100
0100
0000
,  // measure 56
0010
0010
0010
0000
,  // measure 57
1000
0000
0001
0000
,  // measure 58
0010
0100
0010
0000
,  // measure 59
1001
0000
0001
0000
,  // measure 60
0100
0000
0001
0000
,  // measure 61
1000
0000
0001
0000
,  // measure 62
0010
0100
0010
0000
,  // measure 63
0001
0000
1000
0000
,  // measure 64
0001
0000
1000
0000
,  // measure 65
0010
0010
0010
0010
,  // measure 66
0020
0030
1000
0001
,  // measure 67
2000
0000
0000
0000
,  // measure 68
0000
0000
0000
0000
,  // measure 69
3000
0000
0000
0000
;
