#TITLE:Paris;
#SUBTITLE:;
#ARTIST:Epik High;
#TITLETRANSLIT:;
#SUBTITLETRANSLIT:;
#ARTISTTRANSLIT:;
#GENRE:;
#CREDIT:;
#BANNER:epikTitle.png;
#BACKGROUND:Epik High Background.png;
#LYRICSPATH:;
#CDTITLE:;
#MUSIC:Paris.ogg;
#OFFSET:0.100000;
#SAMPLESTART:12.679931;
#SAMPLELENGTH:12.000000;
#SELECTABLE:YES;
#BPMS:0.000000=155.000000
;
#STOPS:
;
#BGCHANGES:;
#KEYSOUNDS:;
#ATTACKS:;

//---------------dance-single - ----------------
#NOTES:
     dance-single:
     :
     Medium:
     8:
     0.553597,0.633578,0.161466,0.294851,0.049142,552.000000,529.000000,23.000000,42.000000,6.000000,0.000000,0.553597,0.633578,0.161466,0.294851,0.049142,552.000000,529.000000,23.000000,42.000000,6.000000,0.000000:
0000
0000
0000
0000
,
0000
0000
0000
0000
,
0000
0000
0000
0000
,
0000
0000
0000
0000
,
0000
0000
0000
0000
,
0000
00M0
0000
0000
,
0000
00M0
0000
0000
,
0000
0000
0000
0001
0100
0001
0010
0000
,
1MM1
0000
2000
0000
3001
0000
0010
0100
,
1000
0010
0000
1010
0000
1000
0100
0010
,
1000
0010
0002
0000
0013
0000
0100
0000
,
0000
1000
0100
0010
0001
1000
0001
1000
,
0010
1000
0200
0300
0010
0000
0110
0000
,
0000
0011
0000
0101
0000
0100
0010
1000
,
0001
1000
0020
0000
0130
0000
0002
0000
,
1003
0100
1000
0100
0010
0001
1000
0001
,
0000
0000
1000
0001
0100
0010
1000
0100
,
0110
0000
0001
1000
0100
0010
0001
0010
,
0200
0300
0020
0000
0130
0010
0001
0100
,
0001
0010
0100
0040
0030
0001
0400
0300
,
0001
0100
0010
1000
0100
0010
0001
0100
,
0002
0000
0000
0003
0100
0000
0010
0000
1000
0000
0100
0000
1000
0000
0010
0000
,
1020
0030
0100
0010
1000
0001
0100
0001
,
0201
0300
0000
1000
0100
0010
0100
0001
,
0100
0010
0001
1000
0010
0100
0001
0100
,
0010
0000
0000
0010
0000
0000
0000
0000
0000
0100
0000
0000
0010
0000
0000
1000
0000
0000
0100
0000
0000
0000
0100
0000
,
0000
0000
0000
0010
0000
0000
0001
0000
0000
0100
0000
0000
1000
0000
0000
0100
0000
0000
0010
0000
0000
0000
0010
0000
,
0000
1000
0100
0001
0100
0010
0001
0010
,
0000
0001
0010
0001
0100
0010
1000
0100
,
M000
0M00
0000
0001
0010
0100
0001
0100
,
1000
0000
0000
0001
0100
0010
1000
0010
,
0100
0001
0010
0100
1000
0001
0100
0001
,
0010
0100
0010
0001
0100
0010
1000
0001
,
0011
0000
1000
0100
0110
0010
0001
0100
,
0110
0010
1000
0100
0001
0100
0010
0001
,
0011
0000
1000
0010
0100
1000
0100
0001
,
0010
0100
1000
0010
0100
0001
1000
0001
,
0010
0000
0001
0000
0100
0000
0010
0000
1000
0000
0001
0000
0010
0100
0020
0000
,
0000
0030
0100
0000
1000
0000
0010
0000
0100
0000
0010
0000
0100
0000
0001
0100
,
0000
0000
0001
0000
0020
0000
0030
0000
0001
0000
1000
0000
0010
0000
1000
0001
,
0000
0000
0010
0000
0200
0000
0000
0000
0310
0000
0001
0000
0100
0000
1000
0200
,
0000
0000
0000
0300
0020
0000
0000
0000
1030
0000
0001
0000
0010
0000
0100
0000
,
0010
0001
1000
0010
0100
0010
1000
0010
,
0100
0001
0102
0003
1000
0010
0100
1000
,
0100
0010
1000
0100
0010
0001
1000
0001
,
0100
0010
0100
0001
0010
0100
0010
0100
,
0110
0000
1000
0001
0100
0010
1000
0001
,
2001
0000
3000
0000
1000
0000
0001
0000
0010
0000
0100
0000
0010
0000
0001
0010
,
0000
0100
1000
0100
0010
0100
1000
0010
,
0200
0000
0000
0300
0000
0000
0001
0000
0000
0010
0000
0000
0100
0000
0000
0001
0000
0000
0100
0000
0000
0000
0100
0000
,
0000
0000
0000
0010
0000
0000
0100
0000
0000
1000
0000
0000
0001
0000
0000
1000
0000
0000
0010
0000
0000
0000
0010
0000
,
0000
0100
0001
0010
0100
1000
0010
0100
,
0001
0100
0010
1000
0001
0010
0001
1000
,
0010
0000
1000
0200
0000
0300
0000
0000
0010
0000
0001
0000
0100
0000
0001
0000
,
2000
3000
0100
1000
0100
0001
0100
1000
,
0010
0000
0100
0010
1000
0100
0010
0100
,
1000
0010
0100
0001
0010
0100
0010
0001
,
2000
0000
3000
0000
0100
0000
1000
0000
0001
0000
0100
0000
0001
0000
0010
0100
,
0000
0000
0010
0000
0001
0000
0100
0000
1000
0000
0100
0000
0010
0000
1000
0001
,
0000
0000
0100
0000
0001
0000
0010
0000
1000
0000
0010
0000
0001
0000
0000
0100
,
1000
0100
0010
1000
0001
0010
0100
0010
,
0001
1000
0100
0010
0100
0010
0001
1000
,
0020
0000
0030
0100
0001
1000
0100
1000
,
0001
0000
0100
0000
0010
0000
1000
0010
0000
0000
0100
0000
0010
0000
1000
0000
,
0200
1300
0010
0100
0001
1000
0100
0010
,
0002
0003
1001
0000
0001
1000
0001
0100
,
0000
1000
0100
0000
0010
0100
0000
0001
,
0020
0030
0200
0300
1000
0100
0000
1000
,
0000
2000
0000
0000
0010
0000
0000
3001
,
1000
0001
0000
0100
0000
0001
0000
0010
,
0000
0001
0000
0100
0000
0010
0000
1000
,
0000
0020
0100
0000
1000
0000
0000
0130
,
0001
0100
0000
0000
0000
0020
2030
0000
,
3200
0300
1001
0000
1000
0010
1000
0001
,
0000
0010
0000
0100
0000
0010
0000
0001
,
0000
2000
0000
0000
3000
0000
0010
1000
,
0000
0200
0010
0000
0000
0300
0000
1000
,
0001
0200
0000
0000
0310
1000
0000
0010
,
0000
0100
0000
0000
0001
1000
0000
0200
,
0000
0000
0301
0100
1000
0010
2000
0000
,
0000
3000
0001
0100
0010
0100
0110
0000
,
1001
0000
0002
0000
1003
0000
0010
0100
,
0001
0010
0000
1001
0000
0001
1000
0001
,
1000
0100
0200
0000
0310
0000
0001
0000
,
0000
0100
1000
0100
0010
1000
0001
0010
,
0001
0000
0200
0000
0310
0000
1000
0010
,
0100
0001
0000
0101
0000
0011
0001
0100
,
0010
1000
0020
0000
0130
0000
0001
0000
,
1000
0100
0010
0100
1000
0010
1000
0010
,
0000
0000
1000
0001
0100
0001
1000
0001
,
2002
3003
0000
0000
;

//---------------dance-single - Give Me The Benpai----------------
#NOTES:
     dance-single:
     Give Me The Benpai:
     Easy:
     5:
     0.315911,0.348468,0.056162,0.358033,0.000000,315.000000,307.000000,8.000000,51.000000,3.000000,0.000000,0.315911,0.348468,0.056162,0.358033,0.000000,315.000000,307.000000,8.000000,51.000000,3.000000,0.000000:
0000
0000
0000
0000
,
0000
0000
0000
0000
,
0000
0000
0000
0000
,
0000
0000
0000
0000
,
0000
0000
0000
0000
,
0000
0000
0000
0000
,
0000
00M0
0000
0000
,
0000
0000
0001
0001
,
1001
2000
3100
0020
,
0030
0100
0000
0100
0000
1000
0010
0000
,
0010
2000
3000
0100
,
0000
1000
0100
0000
0010
0001
0000
0002
,
0000
0003
0200
0300
0010
0000
0110
0000
,
0000
0100
0000
0100
0000
0001
0010
0000
,
0010
0002
0003
2000
,
3000
0100
1000
0000
0001
0010
0000
0002
,
0000
0003
0000
0000
0001
0000
0000
0000
0100
0000
0000
0000
0010
0000
0000
0000
,
1000
0001
0010
0001
,
1000
0200
0310
0100
,
1000
0000
0100
0000
0000
1000
0000
0000
,
0001
0100
0010
0000
0100
0000
1000
0000
,
0200
0301
0100
0010
,
2000
3000
0100
0000
1000
0000
0100
0000
,
0120
0030
0000
0000
0100
0000
1000
0000
,
0010
0100
0010
1000
,
0001
0001
0000
0000
0010
0000
0002
0000
,
0003
0100
0010
0200
,
0300
0000
0010
0000
1000
0000
0010
1000
,
0000
0100
0010
0001
,
M000
0M00
0000
0000
0010
0000
0100
0000
,
1000
0000
1000
0010
,
0100
0001
0100
0001
,
0010
0100
0010
0001
,
0011
1000
0100
0010
,
0100
1000
0001
0100
,
0101
1000
0010
0100
,
0001
0010
0001
1000
,
0001
0000
0100
0000
0010
0000
0100
0001
,
0000
0010
0001
0000
0100
0000
0010
0000
,
1000
0200
0310
0001
,
1000
0200
0310
0100
,
2000
3020
1030
0010
,
0100
0001
0100
1000
,
0100
0000
0002
0003
1000
0000
0100
0000
,
0010
1000
0010
0001
,
0100
0000
0010
0000
1000
0000
0010
0100
,
0010
0000
1000
0000
0100
0000
1000
0001
,
2000
3000
0010
0000
1000
0000
0100
0000
,
0010
0001
0010
0001
,
0200
0300
0010
0000
1000
0000
0200
0000
,
0300
0010
0100
0000
1000
0000
0200
0000
,
0300
1000
0001
0100
,
0001
0010
0100
0010
,
0001
0000
0200
0300
0010
0000
1000
0000
,
0002
0103
0010
1000
,
0001
0010
0100
0010
,
0001
0100
0010
1000
,
0002
0000
0003
0000
0010
0000
0000
0000
0001
0000
0000
0000
0020
0000
0000
0030
,
0000
0000
0000
0000
0001
0000
0000
0000
1000
0000
0000
0000
0020
0000
0000
0030
,
0000
0000
0000
0000
1000
0000
0000
0000
0010
0000
0000
0000
0200
0000
0000
0300
,
0000
0001
0100
0010
,
0100
0001
1000
0100
,
0020
0030
0100
1000
,
0001
0000
0020
0000
0000
0030
0001
0000
,
2000
3000
0100
0000
0010
0000
0100
0000
,
0020
0030
1001
0000
0001
0000
2000
0000
,
3000
0010
0100
0000
0010
0100
0000
0002
,
0000
0003
0200
0300
0001
0100
0000
0010
,
0000
2000
0000
0000
0000
0000
0000
0000
,
3000
0001
0000
0001
0000
0100
0000
0010
,
0000
1000
0000
0100
0000
0010
0000
0001
,
0000
0020
0000
0000
0000
0000
0000
0130
,
0000
0100
0000
0000
0000
0020
0032
0000
,
0203
0300
0001
0000
1000
0000
1000
0001
,
0000
0010
0000
0100
0000
0010
0000
0001
,
0000
2000
0000
0000
3000
0000
0010
1000
,
0000
0200
0000
0000
0000
0000
0000
1300
,
0000
0200
0000
0000
0310
0001
0000
0010
,
0000
0100
0000
0000
1000
0001
0000
0200
,
0000
0301
1000
2000
,
0000
3000
0001
0000
0100
0000
0110
0000
,
1001
0002
0000
0013
,
0000
0010
0000
0001
0000
1000
0010
0000
,
0010
0200
0000
0301
,
0000
0100
0010
1000
,
0010
2000
0000
3001
,
0010
0001
0000
0010
0000
0001
0100
0000
,
0010
0020
0130
0010
,
0000
0000
0010
0000
1000
0000
0100
0010
,
0000
0100
1000
0010
,
0200
0300
0000
0000
;

//---------------dance-single - ----------------
#NOTES:
     dance-single:
     :
     Hard:
     10:
     0.672941,0.823651,0.231668,0.217628,0.393134,671.000000,638.000000,33.000000,31.000000,6.000000,0.000000,0.672941,0.823651,0.231668,0.217628,0.393134,671.000000,638.000000,33.000000,31.000000,6.000000,0.000000:
0000
0000
0000
0000
,
0000
0000
0000
0000
,
0000
0000
0000
0000
,
0000
0000
0000
0000
,
0000
0000
0000
0000
,
0000
00M0
0000
0000
,
0000
00M0
0000
0000
,
0000
0000
0000
1000
0100
1000
0001
0000
,
1MM1
0000
2000
0000
3001
0000
0010
0100
,
1000
1010
0000
1010
0000
0001
0010
0001
,
1000
0100
2000
0000
3010
0000
0100
0000
,
0000
0000
0001
0000
0100
0000
0010
0100
0010
0000
1000
0100
1000
0000
0001
0000
,
0010
0001
2000
3000
1100
0000
0110
0000
,
0000
0011
0000
0101
0000
1001
0001
0100
,
0010
1000
0200
0000
0310
0000
0002
0000
,
1003
0000
0100
0000
1000
0000
0001
0000
0100
0010
1000
0100
0010
0100
1000
0000
,
0000
0000
1001
0001
0101
0100
0110
0010
,
1010
0000
0000
0000
1000
0000
0100
0010
0100
0000
0010
0000
0001
0100
0010
1000
,
0020
0000
0030
0000
1000
0000
0100
1000
0100
0000
0010
0000
0001
0000
0100
0000
,
0001
0000
0010
0000
0001
0010
0010
1000
0001
1000
0001
0100
0100
1000
0010
0000
,
1000
0000
0100
0000
0010
0000
0001
0000
0100
0010
1000
0000
0100
0010
0100
1000
,
0001
0000
1000
0100
0010
0000
0100
0010
0001
0000
0100
0000
0001
0000
1000
0000
,
1010
0000
0001
0010
0100
0000
0010
0100
1000
0000
0010
0000
0100
0000
0001
0000
,
0101
0000
0000
0000
0000
0000
1000
0000
0100
0000
0010
0000
0100
1000
0100
0000
,
1000
0000
0010
0000
1000
0000
0001
0000
0100
0010
0100
0001
0010
0100
1000
0010
,
0100
0000
0000
0000
0000
0000
0100
0000
0000
0000
0000
0000
0000
0000
0000
0000
0000
0000
0001
0000
0000
0010
0000
0000
0001
0000
0000
0000
0000
0000
1000
0000
0000
0000
0000
0000
0100
0000
0000
0000
0000
0000
0000
0000
0100
0000
0000
0000
,
0000
0000
0000
0000
0000
0000
0010
0000
0000
0000
0000
0000
0001
0000
0000
0000
0000
0000
0010
0000
0000
0001
0000
0000
0010
0000
0000
0000
0000
0000
0100
0000
0000
0000
0000
0000
0010
0000
0000
0000
0000
0000
0000
0000
0010
0000
0000
0000
,
0000
0000
0001
0000
0100
0000
1000
0000
0100
0000
0010
0100
1000
0000
0100
0000
,
0000
0000
0001
0000
0010
0001
0010
0001
0100
0000
0010
0000
1000
0000
0100
0000
,
M000
0M00
0000
0001
0010
0100
0001
0100
,
1000
0000
0000
1000
0100
0010
1000
0010
,
0001
0000
0100
0000
0010
0000
1000
0100
1000
0000
0001
0100
0010
1000
0100
0000
,
0010
0100
1000
0010
0100
1000
0100
0001
,
0011
0000
0000
0000
1000
0000
0100
0000
0110
0000
0010
0001
0010
0001
0100
0000
,
0110
0000
0010
1000
0010
0000
0100
0000
0001
0000
0100
0000
0010
0000
1000
0000
,
1100
0000
0000
0000
1000
0000
0010
0100
0010
0000
1000
0000
0001
0000
0010
0000
,
0100
0001
0100
0010
0001
0100
0010
1000
,
0001
0000
1000
0000
0010
1000
0100
0010
0001
0000
1000
0000
0100
0010
0100
1000
,
0000
0001
0100
0001
1000
0000
0010
0000
0100
0010
1000
0100
1000
0000
0001
0100
,
0000
0000
0001
0100
0020
0000
0030
0000
0010
0100
0001
0000
1000
0000
0001
1000
,
0000
0000
0010
1000
0200
0000
0000
0000
0310
0001
0100
0010
1000
0000
1000
0200
,
0000
0000
0000
0300
0020
0000
0000
0000
0031
0000
1000
0000
0010
0000
0100
0000
,
0001
0000
0100
0000
0001
0000
0010
0000
0100
1000
0010
0000
1000
0000
0100
0000
,
0010
0000
0100
0000
1010
0000
0010
0100
0010
0000
1000
0000
0100
0000
1000
0000
,
0001
0000
0100
0000
0010
0000
0100
0001
0010
0001
0100
0000
0010
0000
1000
0000
,
0100
0000
0010
0000
0100
0000
1000
0010
1000
0000
0100
0000
0010
0000
0001
0000
,
0011
0000
0000
0000
0001
0000
1000
0100
1000
0000
0010
0000
1000
0000
0001
0000
,
0101
0000
0100
0010
1000
0000
0001
0000
0010
0000
0100
0000
0010
0000
0001
0010
,
0000
0000
0100
1000
0001
0000
0100
0000
0010
0000
0100
0000
0001
0010
0001
1000
,
0100
0000
0000
0010
0000
0000
0001
0000
0000
0000
0000
0000
1000
0000
0000
0000
0000
0000
0010
0000
0000
0000
0000
0000
0100
0000
0000
0000
0000
0000
0001
0000
0000
0000
0000
0000
0010
0000
0000
0000
0000
0000
0000
0000
0010
0000
0000
0000
,
0000
0000
0000
0000
0000
0000
0100
0000
0000
1000
0000
0000
0100
0000
0000
0000
0000
0000
0010
0000
0000
0000
0000
0000
0001
0000
0000
0000
0000
0000
1000
0000
0000
0000
0000
0000
0100
0000
0000
0000
0000
0000
0000
0000
0100
0000
0000
0000
,
0000
0000
1000
0100
0010
0000
0010
0100
1000
0000
0010
0100
0010
0000
0100
0000
,
0001
0000
0100
0000
0010
0000
1000
0001
1000
0000
0001
0100
0001
0000
1000
0010
,
1000
0000
0001
0100
0000
0000
0100
0000
0010
0000
1000
0000
0001
0000
0100
0000
,
1000
0000
0100
0010
0100
0000
0001
0000
0010
0000
0001
0000
1000
0000
0010
0000
,
1000
0000
0000
0000
0001
0000
1000
0000
0010
0000
0100
0000
0001
0000
0010
0100
,
1000
0000
1000
0100
0010
0000
0100
0000
1000
0000
0010
0000
1000
0000
0001
2000
,
0000
0000
3000
0000
0010
1000
0010
1000
0100
0000
0001
0000
0100
0000
0010
0100
,
0000
1000
0010
0000
0100
0010
0100
0001
1000
0000
0001
0000
0010
0000
0100
1000
,
0000
0100
0010
0000
0001
0010
0100
1000
0001
0010
0001
0000
1000
0010
0000
0100
,
0001
0000
1000
0000
0100
0010
0100
0010
0001
1000
0010
0000
1000
0100
0010
0100
,
1000
0000
0010
0000
0100
0001
0010
0100
1000
0000
0010
0000
1000
0000
0001
0000
,
0020
0000
0000
0000
0030
0000
0001
0100
0001
0000
1000
0000
0100
0000
1000
0000
,
0001
0000
0100
0000
0010
0000
1000
0010
0000
0000
0100
0010
0100
0001
0010
0100
,
1000
0000
1000
0100
0010
0000
0010
0000
0001
0000
0001
0000
0100
0000
0100
0000
,
0020
0030
1001
0000
0001
1000
0001
0100
,
0000
1000
0100
0000
0010
0100
0000
0001
,
0020
0030
0200
0300
1000
0100
0000
1000
,
0000
2000
0000
0000
0010
0000
0100
3001
,
1000
0001
0000
0100
0000
0001
0000
0010
,
0000
0001
0000
0100
0000
0010
0000
1000
,
0000
0020
0100
0000
1000
0000
0000
0130
,
0001
0100
0000
0000
0000
0020
2030
0000
,
3200
0300
1001
0000
1000
0010
1000
0001
,
0000
0010
0000
0100
0000
0010
0000
0001
,
0000
2000
0000
0000
3000
0000
0010
1000
,
0000
0200
0010
0000
1000
0300
0000
1000
,
0001
0200
0000
0000
0310
1000
0000
0010
,
0000
0100
0000
0000
0001
1000
0000
0200
,
0000
0000
0301
0100
1000
0010
2010
0000
,
0000
3000
0001
0010
0100
0010
0110
0000
,
1001
0000
0002
0000
1003
0000
0010
0100
,
0001
0011
0000
1001
0000
1010
1000
0001
,
1000
0100
0200
0000
0310
0000
0001
0000
,
0010
0000
0100
0000
1000
0000
0100
0010
0100
0000
1000
0001
1000
0000
0040
0000
,
0000
0030
0200
0000
0301
0000
0001
0010
,
0100
1100
0000
0110
0000
0011
0001
0100
,
0010
1000
0020
0000
0130
0000
0001
0000
,
1000
0000
0100
0000
0010
0000
0100
1000
0100
0000
0010
0100
1000
0000
0010
0000
,
0000
0000
1000
0100
1000
0010
1000
0001
,
2002
3003
0000
0000
;

//---------------dance-single - Give Me The Benpai----------------
#NOTES:
     dance-single:
     :
     Beginner:
     2:
     0.167483,0.252729,0.028081,0.322932,0.000000,167.000000,163.000000,4.000000,46.000000,0.000000,0.000000,0.167483,0.252729,0.028081,0.322932,0.000000,167.000000,163.000000,4.000000,46.000000,0.000000,0.000000:
// measure 0
0000
0000
0000
0000
,  // measure 1
0000
0000
0000
0000
,  // measure 2
0000
0000
0000
0000
,  // measure 3
0000
0000
0000
0000
,  // measure 4
0000
0000
0000
0000
,  // measure 5
0000
0000
0000
0000
,  // measure 6
0000
0000
0000
0000
,  // measure 7
0000
0000
0000
0000
,  // measure 8
1000
0002
0003
0020
,  // measure 9
0030
0100
0000
1000
,  // measure 10
0000
0020
0030
0100
,  // measure 11
0000
0001
0000
0010
,  // measure 12
0002
0003
0200
0300
0000
0000
0010
0000
,  // measure 13
0000
0100
0000
0001
,  // measure 14
0000
0020
0030
0200
,  // measure 15
0300
1000
0000
0002
,  // measure 16
0003
2000
0000
0000
,  // measure 17
3000
0100
0000
0010
,  // measure 18
0000
0200
0300
1000
,  // measure 19
0000
0001
0000
0100
,  // measure 20
0000
0010
0000
1000
,  // measure 21
0000
0200
0300
0010
,  // measure 22
0000
0002
0003
0100
,  // measure 23
0000
0002
0003
1000
,  // measure 24
0000
0100
0000
0010
,  // measure 25
0000
0100
0000
2000
,  // measure 26
3000
0100
0000
0020
,  // measure 27
0030
0001
0000
0100
,  // measure 28
0000
0001
0000
0010
,  // measure 29
0000
0001
0000
0100
,  // measure 30
0000
0010
0000
1000
,  // measure 31
0000
0100
0000
1000
,  // measure 32
0000
0001
0000
0100
,  // measure 33
0000
0001
0000
0010
,  // measure 34
0000
0100
0000
1000
,  // measure 35
0000
1001
0000
0001
,  // measure 36
0000
0010
0000
0001
,  // measure 37
0000
0100
0000
0010
,  // measure 38
0000
1000
0000
0010
,  // measure 39
0000
0200
0300
0001
,  // measure 40
0000
0020
0030
0100
,  // measure 41
0000
2000
3000
0010
,  // measure 42
0000
0100
0000
0001
,  // measure 43
0000
2000
3000
0100
,  // measure 44
0000
0010
0000
0100
,  // measure 45
0000
1000
0000
0001
,  // measure 46
0000
1000
0000
0010
,  // measure 47
0000
0100
0000
0010
,  // measure 48
0000
1000
0000
0002
,  // measure 49
0000
0013
0000
0200
,  // measure 50
0300
0010
0000
0002
,  // measure 51
0003
1000
0000
0010
,  // measure 52
0000
1000
0000
0001
,  // measure 53
0000
0020
0030
0100
,  // measure 54
0000
2000
3000
0010
,  // measure 55
0000
0200
0300
0010
,  // measure 56
0000
1000
0000
0200
,  // measure 57
0000
0310
0000
0001
,  // measure 58
0000
1000
0000
0020
,  // measure 59
0000
1030
0000
0200
,  // measure 60
0000
0310
0000
0001
,  // measure 61
0000
1000
0000
0200
,  // measure 62
0000
1300
0000
0020
,  // measure 63
0030
0200
0300
0002
,  // measure 64
0003
0100
0000
0010
,  // measure 65
0000
1001
0000
1000
,  // measure 66
0000
0100
0000
0010
,  // measure 67
0000
0000
0200
0300
0000
0000
1000
0000
,  // measure 68
0000
0020
0000
0000
,  // measure 69
0000
0030
1000
0000
0000
0000
0100
0000
,  // measure 70
0000
0010
0000
0001
,  // measure 71
0000
0200
0000
0000
,  // measure 72
0000
0300
0010
0000
0000
0000
2000
0000
,  // measure 73
3002
1003
0000
0010
,  // measure 74
0000
0100
0000
0010
,  // measure 75
0000
2000
3000
0100
,  // measure 76
0000
0020
0000
0000
,  // measure 77
0030
0001
0000
0100
,  // measure 78
0000
0010
0000
2000
,  // measure 79
0000
3001
0000
0020
,  // measure 80
0000
0031
0000
1001
,  // measure 81
1001
0002
0000
0013
,  // measure 82
0000
0001
0000
1000
,  // measure 83
0000
0200
0000
0310
,  // measure 84
0000
0100
0000
1000
,  // measure 85
0000
0020
0000
0130
,  // measure 86
0000
0001
0000
0010
,  // measure 87
0000
0002
0003
0010
,  // measure 88
0000
0100
0000
1000
,  // measure 89
0000
0200
0000
0000
,  // measure 90
0300
0000
0000
0000
;
