#TITLE:Night In Paris;
#SUBTITLE:;
#ARTIST:Finzy Kontini;
#TITLETRANSLIT:;
#SUBTITLETRANSLIT:;
#ARTISTTRANSLIT:;
#CREDIT:;
#BANNER:Night In Paris.png;
#BACKGROUND:Night In Paris-bg.png;
#LYRICSPATH:;
#CDTITLE:;
#MUSIC:Night In Paris.ogg;
#OFFSET:-0.180;
#SAMPLESTART:94.560;
#SAMPLELENGTH:12.000;
#SELECTABLE:YES;
#BPMS:0.000=110.600;
#STOPS:;
#BGCHANGES:;

//---------------dance-single - ----------------
#NOTES:
     dance-single:
     :
     Hard:
     6:
     0.398,0.411,0.221,0.107,0.075: // measure 1
0000
0000
0000
0000
,  // measure 2
0000
0000
0000
0000
,  // measure 3
0000
0000
0000
0000
,  // measure 4
0000
0000
0000
0000
,  // measure 5
1000
0100
1000
0000
0010
0100
0010
0000
,  // measure 6
1000
0010
1000
0000
0001
1000
0001
0000
,  // measure 7
0010
0100
0010
0000
0100
1000
0100
0000
,  // measure 8
1000
0100
1000
0001
1000
0010
0010
0000
,  // measure 9
1000
0100
0001
0100
0000
0010
0000
0001
,  // measure 10
0000
0100
0000
0001
0000
1000
0000
0010
,  // measure 11
0000
0100
0000
1000
0000
0001
0000
0010
,  // measure 12
0000
0000
0100
0000
0000
0000
0100
0000
0001
0000
0001
0000
1000
0000
0100
1000
,  // measure 13
0100
0000
0000
0000
0100
0000
0000
0000
0010
0000
0000
0001
0000
0000
0100
0000
,  // measure 14
0000
0000
0010
1000
0100
0010
0100
1000
,  // measure 15
0010
0000
0000
0000
0010
0000
0100
0000
0010
0000
0000
0100
0000
0000
0001
0000
,  // measure 16
0000
0000
0010
0000
0000
0000
0010
0000
0100
0000
1000
0000
0100
0000
1000
0100
,  // measure 17
1000
0000
0000
0000
0010
0000
0100
0000
0001
0000
0000
0010
0000
0000
0100
0000
,  // measure 18
0000
0000
1000
0100
0010
0100
1000
0100
,  // measure 19
0010
0000
0000
0000
0001
0000
0100
0000
0010
0000
0000
0100
0000
0000
0001
0000
,  // measure 20
0000
0000
0010
0000
0000
0000
0100
0000
0010
0000
0001
0000
0010
0000
0100
0010
,  // measure 21
0100
0010
0100
1000
0000
0100
0000
0010
,  // measure 22
0000
0001
0000
0100
0000
0001
0000
0010
,  // measure 23
0000
0100
0000
1000
0000
0100
0000
0010
,  // measure 24
0000
0000
0001
0000
0000
0000
0001
0000
0010
0000
0010
0000
0100
0000
1000
0100
,  // measure 25
1000
1100
0102
1003
,  // measure 26
1000
0100
0010
0001
0100
1000
0100
0000
,  // measure 27
0102
1000
0010
1000
,  // measure 28
0103
0001
0010
0100
1000
0010
0100
0000
,  // measure 29
0110
1001
0110
1001
,  // measure 30
1000
0001
0100
0010
1000
0100
1000
0000
,  // measure 31
2100
0000
3001
0000
0001
1000
0100
0001
,  // measure 32
0100
0100
1000
0000
0010
0010
0100
0000
,  // measure 33
0101
1100
0101
1100
,  // measure 34
1000
0010
0100
0001
0010
1000
0010
0000
,  // measure 35
0012
1000
0100
1000
,  // measure 36
0013
0001
0100
0010
1000
0100
0010
0000
,  // measure 37
0110
1001
0110
1001
,  // measure 38
1000
0010
0100
0001
0010
0100
1000
0000
,  // measure 39
2100
0000
3001
0000
0001
0010
0100
0010
,  // measure 40
0001
0100
0010
0100
1000
0100
0010
0100
,  // measure 41
0001
0200
0000
0320
0000
2030
0000
3002
,  // measure 42
0000
0003
0000
1001
0000
0101
0000
0000
,  // measure 43
0000
0200
0000
0320
0000
2030
0000
3002
,  // measure 44
0000
0000
0003
0000
0000
0000
0000
0000
0001
0000
1000
0000
0001
0000
1000
0001
,  // measure 45
1000
0000
0000
0000
1100
0000
0000
0000
1000
0000
0000
0010
0000
0000
0100
0000
,  // measure 46
0001
0000
0010
0000
0100
1000
0100
0010
,  // measure 47
0100
0000
0000
0000
1000
0000
0010
0000
0100
0000
0000
0001
0000
0000
0010
0000
,  // measure 48
0000
0000
0100
0000
0000
0000
1000
0000
0000
0000
0000
0000
1100
0000
1000
0100
,  // measure 49
0010
0000
0000
0000
0011
0000
0000
0000
0001
0000
0000
0100
0000
0000
0010
0000
,  // measure 50
1000
0000
0100
0000
1000
0010
0100
0001
,  // measure 51
0010
0000
0000
0000
0100
0000
0010
0000
0001
0000
0000
0100
0000
0000
0010
0000
,  // measure 52
0000
0000
1000
0000
0000
0000
0001
0000
0100
0000
0010
0000
1000
0000
0100
0010
,  // measure 53
0001
0100
1000
0100
0000
0001
0000
0010
,  // measure 54
0000
1000
0000
0100
0000
0001
0000
0010
,  // measure 55
0000
1000
0000
0100
0000
0001
0000
0010
,  // measure 56
0000
0000
1000
0000
0000
0000
0010
0000
0000
0000
0001
0000
1000
0000
0100
1000
,  // measure 57
0100
0000
0010
0000
0001
0000
0010
0000
0100
0000
0000
1000
0000
0000
0010
0000
,  // measure 58
0100
0001
0010
0100
0010
0001
0100
0010
,  // measure 59
1010
0000
0010
0000
1000
0000
0010
0000
0100
0000
0000
0001
0000
0000
0010
0000
,  // measure 60
0000
0000
0110
0000
0000
0000
1001
0000
0000
0000
0000
0000
1001
0000
0001
1000
,  // measure 61
0100
0000
0010
0000
0001
0000
0010
0000
0100
0000
0000
1000
0000
0000
0010
0000
,  // measure 62
0100
0001
0010
0100
0010
0001
0010
0100
,  // measure 63
1100
0000
0100
0000
1000
0000
0010
0000
0100
0000
0000
0001
0000
0000
0010
0000
,  // measure 64
0000
0011
0000
1100
1000
0001
0202
0303
;

//---------------dance-double - ----------------
#NOTES:
     dance-double:
     :
     Hard:
     7:
     0.504,0.433,0.307,0.014,0.139:
00000000
00000000
00000000
00000000
,
00000000
00000000
00000000
00000000
,
00000000
00000000
00000000
00000000
,
00000000
00000000
00000000
00000000
,
10000000
10000000
01000000
01000000
00100000
00100000
00001000
00001000
,
00010000
00010000
00000100
00000100
00000010
00000010
00000001
00000001
,
00001000
00001000
00000100
00000100
00000010
00000001
00000010
00001000
,
00010000
00010000
00100000
00100000
10000000
00010000
10000000
01000000
,
10000000
00100000
01000000
01010000
00000000
00011000
00000000
00001100
,
00000000
00011000
00000100
00001000
00000000
00000110
00000000
00000101
,
00000000
00000011
00000001
00001000
00000000
00001010
00000000
00011000
,
00000000
00000000
00110000
00000000
00010000
00000000
10000000
00000000
00100000
00000000
01000000
00000000
00001000
00000000
00010000
00001000
,
00010000
00000000
00000100
00000000
00000010
00000000
00000100
00000000
00001000
00000000
00000000
00000100
00000000
00000000
00000001
00000100
,
00000001
00000100
00001000
00000100
00000010
00000100
00001000
00010000
,
01000000
00000000
10000000
00000000
00010000
00000000
10000000
00000000
01000000
00000000
00000000
00010000
00000000
00000000
00100000
00010000
,
00100000
00000000
00001000
00000000
00010000
00000000
00000100
00001000
00000100
00000000
00001000
00000000
00000010
00000000
00000100
00000001
,
00000100
00000000
00000010
00000000
00001000
00000000
00010000
00000000
00100000
00000000
00000000
00010000
00000000
00000000
00001000
00000010
,
00000100
00000001
00000100
00001000
00010000
00100000
00010000
00001000
,
00010000
00000000
01000000
00000000
10000000
00000000
00100000
00000000
01000000
00000000
00000000
00010000
00000000
00000000
00100000
01000000
,
10000000
00000000
00100000
00000000
01000000
00000000
00010000
00100000
00001000
00000000
00010000
00000000
00000100
00000000
00001000
00000010
,
00000100
00000001
00000010
00000110
00000000
00001001
00000000
00000110
,
00000000
00000100
00001000
00011000
00000000
00110000
00000000
10100000
,
00000000
10000000
01000000
01100000
00000000
00110000
00000000
00011000
,
00000000
00000000
00010000
00000000
00000100
00000000
00001000
00000000
00000010
00000000
00000100
00000000
00000001
00000000
00000010
00000100
,
00001000
00000100
00000001
00000100
00001000
00000100
00000001
00000100
,
00001000
00010000
01000000
10000000
00010000
10000000
01000000
00010000
,
00100000
10000000
00100000
00010000
00100000
10000000
00100000
00010000
,
00001000
00000010
00000100
00000001
00000100
00000010
00001001
00000100
,
00000001
00000100
00001000
00000100
00000001
00000010
00001000
00000010
,
00000001
00000100
00001000
00010000
00100000
10000000
01000000
00100000
,
00110000
00100000
00010000
00000000
00001010
00001000
00000010
00000100
,
00000001
00000010
00000100
00001000
00000100
00010000
00001000
00100000
,
00010000
01000000
10000000
01000000
00010000
00100000
10000000
00100000
,
00010000
00001000
00000010
00000100
00000001
00000010
00000100
00000100
,
00001000
00000010
00000001
00000010
00001000
00000100
00000001
00000100
,
00001000
00000010
00010000
00001000
00100000
01000000
10000000
00100000
,
01000000
00010000
01000000
10000000
01000000
00010000
00100000
10000000
,
00100000
00000000
00000000
00010000
00000000
00000000
00001000
00000000
00000000
00010000
00000000
00000000
00100000
00000000
00000000
00010000
00000000
00000000
00001000
00000000
00000000
00000010
00000000
00000100
,
00001000
00000100
00000001
00000100
00001000
00010000
00100000
10000000
,
00100000
00010000
00001000
00000100
00000001
00000100
00001000
00010000
,
00100000
00110000
00000000
10100000
00000000
11000000
00000000
01010000
,
00000000
00000000
00000000
00011000
00000000
00011000
00000000
00000000
,
00000000
00001010
00000000
00000011
00000000
00000101
00000000
00001100
,
00000000
00000000
00000000
00000000
00000000
00000000
00000000
00000000
00001000
00000000
00010000
00000000
10000000
00000000
00010000
00001000
,
00000100
00000000
00000010
00000000
00000001
00000000
00000100
00000000
00000010
00000000
00000000
00001000
00000000
00000000
00000100
00010000
,
00001000
00100000
00010000
01000000
10000000
01000000
00010000
00100000
,
01000000
00000000
10000000
00000000
01000000
00000000
00010000
00000000
00001000
00000000
00000000
00000010
00000000
00000000
00000001
00000100
,
00000001
00000000
00000010
00000000
00000100
00000000
00001000
00000100
00001000
00000000
00000100
00000000
00010000
00000000
00001000
00010000
,
00001000
00000000
00010000
00000000
00001000
00000000
00100000
00000000
00010000
00000000
00000000
01000000
00000000
00000000
00100000
10000000
,
00010000
01000000
00001000
00010000
00001000
00000010
00000100
00001000
,
00000010
00000000
00000100
00000000
00000001
00000000
00000010
00000000
00001000
00000000
00000000
00010000
00000000
00000000
00100000
10000000
,
00100000
00000000
00010000
00000000
00001000
00000000
00000010
00000001
00000010
00000000
00001000
00000000
00010000
00000000
00001000
00000000
,
00011000
00001000
00100000
00110000
00000000
10010000
00000000
11000000
,
00000000
10000000
00100000
01100000
00000000
01010000
00000000
00011000
,
00000000
00000100
00001000
00001010
00000000
00000110
00000000
00000101
,
00000000
00000000
00000100
00000000
00000001
00000000
00000010
00000000
00001000
00000000
00010000
00000000
00001000
00000000
00010000
00001000
,
00010000
00000000
00001000
00000000
00000100
00000000
00000001
00000000
00000100
00000000
00000000
00001000
00000000
00000000
00010000
00001000
,
00100000
00010000
01000000
00100000
10000000
01000000
00001000
00010000
,
00001000
00000000
00000010
00000000
00000001
00000000
00000010
00000000
00001000
00000000
00000000
00000100
00000000
00000000
00010000
00001000
,
00100000
00000000
00010000
00000000
01000000
00000000
00100000
10000000
01000000
00000000
00100000
00000000
00001000
00000000
00010000
00001000
,
00010000
00000000
00000100
00000000
00001000
00000000
00000010
00000000
00000100
00000000
00000000
00000001
00000000
00000000
00000010
00001000
,
00010000
00001000
00100000
00010000
10000000
01000000
00010000
01000000
,
00010000
00000000
00000100
00000000
00001000
00000000
00000010
00000000
00000100
00000000
00000000
00000001
00000000
00000000
00000010
00000100
,
00001000
00000000
00000100
00000000
00010000
00000000
00001000
00010000
00001000
00000000
00010000
00000000
00022000
00000000
00033000
00000000
;

//---------------dance-single - ----------------
#NOTES:
     dance-single:
     :
     Medium:
     5:
     0.274,0.297,0.164,0.079,0.043:
0000
0000
0000
0000
,
0000
0000
0000
0000
,
0000
0000
0000
0000
,
0000
0000
0000
0000
,
1000
1100
1000
1001
,
1000
1010
1000
1001
,
0001
0101
0001
1001
,
0001
0011
0001
1001
,
1000
0100
1000
0100
0000
0010
0000
0001
,
0000
0100
0000
0001
0000
1000
0000
0010
,
0000
1000
0000
0100
0000
0010
0000
0001
,
0000
0100
0000
0001
0100
0010
1000
0001
,
2000
0000
0000
0000
0000
0000
3000
0000
1000
0000
0000
0001
0000
0000
0200
0000
,
0000
0000
0000
0301
1000
0100
1000
0001
,
2000
0000
0000
0000
0000
0000
3000
0000
1000
0000
0000
0001
0000
0000
0100
0000
,
0000
0010
0000
1000
0000
0000
1010
0000
,
0012
0000
0000
0000
0000
0000
0003
0000
0001
0000
0000
1000
0000
0000
0200
0000
,
0000
0000
0000
1300
0001
1000
0100
1000
,
0002
0000
0000
0000
0000
0000
0003
0000
0001
0000
0000
1000
0000
0000
0100
0000
,
0000
0010
0000
0002
0000
0000
0000
0003
,
1001
0000
0000
1000
0000
0100
0000
0010
,
0000
0100
0000
1000
0000
0001
0000
0010
,
0000
0001
0000
1000
0000
0100
0000
0010
,
0000
0100
0000
1000
0000
0001
0000
1000
,
0001
0100
0010
0000
,
0010
1000
0100
1000
0000
0001
0000
0000
,
0100
0001
1000
0000
,
0020
0000
0000
0100
0000
1030
0000
0000
,
1000
0100
0010
0000
,
0010
0001
0100
0001
0000
1000
0000
0000
,
1001
0000
0000
0000
1000
0000
0100
0010
,
0000
0000
0100
0010
,
0101
0100
0010
0000
,
0010
1000
0100
0010
0000
0001
0000
0000
,
0001
0100
1000
0000
,
0020
0000
0000
0100
0000
0031
0000
0000
,
0001
0100
0010
0000
,
0010
0100
0001
0010
0000
0100
0000
0000
,
1001
0000
0000
0000
1000
0000
0100
0010
,
0000
0001
0100
0000
0010
0000
1000
0000
,
0100
0010
0000
0001
0000
1000
0000
0100
,
0000
0000
0000
1100
0000
0101
0000
0000
,
0000
0001
0000
0100
0000
0010
0000
1000
,
0000
1000
0100
0010
,
0110
0000
0000
0000
0010
0000
0000
0000
0001
0000
0000
0100
0000
0000
1000
0000
,
0000
0000
0000
0000
1000
0100
0001
1000
,
0001
0000
0000
0000
0000
0000
0001
0000
0010
0000
0000
0100
0000
0000
1000
0000
,
0000
0010
0000
1000
0000
0000
0000
0000
,
1001
0000
0000
0000
0000
0000
0000
0000
1000
0000
0000
0010
0000
0000
0001
0000
,
0000
0000
0000
0000
0001
0010
0100
0001
,
0100
0000
0000
0000
0100
0000
0000
0000
0001
0000
0000
0010
0000
0000
0100
0000
,
0000
1000
0000
0001
0000
0000
1001
0000
,
1010
0000
1000
0100
0000
1000
0000
0010
,
0000
0100
0000
0001
0000
0100
0000
0010
,
0000
1000
0000
0100
0000
1000
0000
0010
,
0000
0001
0000
0100
1000
0000
0001
0000
,
1001
0000
0000
0000
0000
0000
0000
0000
1000
0000
0000
0010
0000
0000
0001
0000
,
0000
0000
0000
0000
0001
1000
0001
0010
,
1000
0000
0000
0000
0000
0000
1000
0000
0001
0000
0000
0010
0000
0000
0100
0000
,
0000
1000
0000
0001
0000
0000
0000
0000
,
1001
0000
0000
0000
0000
0000
0000
0000
0001
0000
0000
0010
0000
0000
0100
0000
,
0000
0000
0000
0000
0100
1000
0010
0100
,
0001
0000
0000
0000
0000
0000
0001
0000
0010
0000
0000
0100
0000
0000
1000
0000
,
0000
0001
0000
1000
0000
0000
2002
3003
;

//---------------dance-single - ----------------
#NOTES:
     dance-single:
     :
     Easy:
     3:
     0.217,0.228,0.086,0.071,0.000:
0000
0000
0000
0000
,
0000
0000
0000
0000
,
0000
0000
0000
0000
,
0000
0000
0000
0000
,
1000
1000
0100
0100
,
0010
0010
0001
1000
,
0100
0100
1000
0010
,
0100
0100
0001
1000
,
1001
1000
0001
1000
,
0010
1000
0010
1000
,
0100
1000
0100
1000
,
0100
0010
0100
0010
,
1001
1000
0000
1000
,
0000
1000
0100
0010
,
0001
0001
0000
0001
,
0000
0001
0000
0001
,
1001
1000
0000
1000
,
0000
1000
0010
0100
,
0001
0001
0000
0001
,
0000
0001
0000
0001
,
0010
0001
0010
0001
,
0010
0100
0010
0100
,
1000
0100
1000
0100
,
1000
0001
1000
0001
,
1001
1000
0010
0000
,
0010
1000
0100
1000
,
0001
0001
0010
0000
,
0020
0000
0000
0002
0000
0033
0000
0000
,
0010
0001
1000
0000
,
0010
1000
0100
0010
,
0001
0000
0001
0100
,
1000
0000
1000
0100
,
1001
0001
0010
0000
,
0001
0010
0001
0100
,
0001
0001
0100
0000
,
0020
0000
0000
2000
0000
3030
0000
0000
,
1000
0001
0010
0000
,
0001
0100
0010
1000
,
1001
0000
1000
0010
,
0100
0001
0010
0100
,
0000
1000
0000
0100
0000
0010
0000
0001
,
0000
0000
0000
0001
0000
0001
0000
0000
,
0000
0001
0000
0100
0000
0010
0000
1000
,
0000
0000
1000
0001
,
1001
0000
0000
0000
2000
0000
0000
3100
,
0000
0000
1000
0100
,
0010
0000
0000
0000
0001
0000
0000
1000
,
0000
0010
0000
0100
0000
0000
0000
0000
,
1001
0000
0000
0000
0002
0000
0000
0103
,
0000
0000
0100
0001
,
1000
0000
0000
0000
1000
0000
0000
0100
,
0000
0010
0000
0001
0000
0000
0000
0000
,
1001
0001
0100
1000
,
0100
0001
0010
0001
,
0100
0001
0010
1000
,
0010
0001
1000
0001
,
1001
0000
0000
0000
2000
0000
0000
3100
,
0000
0010
0001
1000
,
0001
0000
0000
0000
0001
0000
0000
0010
,
0000
0100
0000
1000
0000
0000
0000
0000
,
1001
0000
0000
0000
0002
0000
0000
0103
,
0000
0000
0100
0001
,
1000
0000
0000
0000
1000
0000
0000
0010
,
0000
0100
0000
0001
0000
0000
2002
3003
;

//---------------dance-double - ----------------
#NOTES:
     dance-double:
     :
     Medium:
     6:
     0.303,0.297,0.150,0.179,0.043:
00000000
00000000
00000000
00000000
,
00000000
00000000
00000000
00000000
,
00000000
00000000
00000000
00000000
,
00000000
00000000
00000000
00000000
,
00010000
00011000
00001000
01001000
,
01000000
01100000
00100000
10100000
,
10000000
11000000
01000000
01010000
,
00010000
00000000
00011000
00000000
00001000
00000100
00000001
00000000
,
00000001
00001000
00000001
00000100
00000000
00001000
00000000
00100000
,
00000000
01000000
00000000
10000000
00000000
00010000
00000000
00100000
,
00000000
00000100
00000000
00001000
00000000
00000001
00000000
00000010
,
00000000
00000100
00000000
00010000
00001000
00100000
00010000
10000000
,
00100000
00000000
00000000
00000000
00000000
00000000
10000000
00000000
00100000
00000000
00000000
10000000
00000000
00000000
02000000
00000000
,
00000000
00000000
00000000
13000000
01000000
00010000
01000000
10000000
,
00020000
00000000
00000000
00000000
00000000
00000000
01030000
00000000
00001000
00000000
00000000
00010000
00000000
00000000
00000100
00000000
,
00000000
00000010
00000000
00000002
00000000
00000000
00000000
00000000
,
00000023
00000000
00000000
00000000
00000000
00000000
00000130
00000000
00000010
00000000
00000000
00000001
00000000
00000000
00000200
00000000
,
00000000
00000000
00000000
00001300
00000100
00000001
00000100
00001000
,
00000200
00000000
00000000
00000000
00000000
00000000
00001300
00000000
00010000
00000000
00000000
00001000
00000000
00000000
00100000
00000000
,
00000000
00010000
00000000
10000000
01000000
00100000
01000000
10000000
,
00100000
01000000
00010000
10000000
00000000
01000000
00000000
00010000
,
00000000
00001000
00000000
00000100
00000000
00000001
00000000
00000010
,
00000000
00000001
00000000
00000100
00000000
00001000
00000000
00100000
,
00000000
00010000
00000000
01000000
00000000
10000000
00000000
01000000
,
00020000
10000000
00130000
00000000
,
00100000
00010000
01000000
00010000
00000000
10000000
00000000
00000000
,
20000000
01000000
00020000
30030000
,
00020000
00000000
00000000
00032000
00000000
00003200
00000300
00000000
,
00002000
00000001
00003010
00000000
,
00000010
00001000
00000100
00001000
00000000
00000001
00000000
00000000
,
00000022
00000000
00000033
00000000
00000010
00000000
00000001
00000200
,
00000000
00000300
00001000
00000000
00010000
00000000
01000000
00000000
,
20010000
01000000
00200000
30300000
,
10000000
00100000
10000000
00010000
00000000
00100000
00000000
00000000
,
00020000
10000000
00200000
00330000
,
00200000
00000000
00000000
00010000
00000000
00301000
00000100
00000000
,
00000002
00000100
00000013
00000000
,
00000001
00000100
00001000
00000100
00000000
00000001
00000000
00000000
,
00000101
00000000
00000100
00000000
00001000
00000000
00010000
02000000
,
00000000
13000000
00100000
01000000
,
01010000
01000000
00000000
00001000
00000000
00010000
00000000
00000100
,
00000000
00000000
00000000
00000110
00000000
00001001
00000000
00000000
,
00000000
00000001
00000000
00000100
00000000
00001000
00000000
00010000
,
00000000
00000000
00010000
00001000
,
00110000
00000000
00000000
00000000
00000000
00000000
00000000
00000000
00010000
00000000
00000000
00100000
00000000
00000000
10000000
00000000
,
00000000
00000000
00000000
00000000
10000000
00100000
00010000
10000000
,
00100000
00000000
00000000
00000000
00000000
00000000
00100000
00000000
01000000
00000000
00000000
00001000
00000000
00000000
00010000
00000000
,
00000000
00000100
00000000
00000010
00000000
00000000
00000001
00001000
,
00001010
00000000
00000000
00000000
00000000
00000000
00000000
00000000
00001000
00000000
00000000
00000010
00000000
00000000
00000001
00000000
,
00000000
00000000
00000000
00000000
00000001
00000010
00001000
00000001
,
00001000
00000000
00000000
00000000
00000000
00000000
00001000
00000000
00000100
00000000
00000000
00010000
00000000
00000000
00001000
00000000
,
00000000
00100000
00000000
11000000
10000000
01000000
10000000
00010000
,
00100000
00001000
00010000
00000100
00000000
00001000
00000000
00000010
,
00000000
00000100
00000000
00000001
00000000
00001000
00000000
00000010
,
00000000
00010000
00000000
00001000
00000000
01000000
00000000
00100000
,
00000000
10000000
00000000
01000000
10000000
00000000
00010000
00000000
,
00110000
00000000
00000000
00000000
00000000
00000000
00000000
00000000
00010000
00000000
00000000
01000000
00000000
00000000
10000000
00000000
,
00000000
00000000
00000000
00000000
10000000
01000000
00010000
10000000
,
01000000
00000000
00000000
00000000
00000000
00000000
01000000
00000000
00010000
00000000
00000000
00001000
00000000
00000000
00010000
00000000
,
00000000
00000010
00000000
00000100
00000000
00000000
00000000
00000000
,
00001001
00000000
00000000
00000000
00000000
00000000
00000000
00000000
00000001
00000000
00000000
00000100
00000000
00000000
00001000
00000000
,
00000000
00000000
00000000
00000000
00001000
00000100
00000001
00001000
,
00000001
00000000
00000000
00000000
00000000
00000000
00000001
00000000
00001000
00000000
00000000
00000100
00000000
00000000
00010000
00000000
,
00000000
00011000
00000000
10010000
00000000
00000000
02200000
03300000
;

//---------------dance-double - ----------------
#NOTES:
     dance-double:
     :
     Easy:
     3:
     0.211,0.228,0.050,0.057,0.000:
00000000
00000000
00000000
00000000
,
00000000
00000000
00000000
00000000
,
00000000
00000000
00000000
00000000
,
00000000
00000000
00000000
00000000
,
10000000
01000000
00010000
01000000
,
10000000
00100000
00010000
00001000
,
00000100
00000001
00001000
00000001
,
00000010
00000100
00010000
00001000
,
00011000
00000000
00001000
00010000
,
01000000
00000000
00010000
00001000
,
00000100
00000000
00001000
00010000
,
00100000
00000000
00010000
00001000
,
00000010
00000001
00000000
00000100
,
00000000
00001000
00010000
01000000
,
10000000
00100000
00000000
00010000
,
00000000
00001000
00000000
00000100
,
00000001
00000010
00000000
00001000
,
00000000
00010000
00000000
01000000
,
10000000
00100000
00000000
01000000
,
00000000
00001000
00000000
00010000
,
00000010
00000000
00000100
00000001
,
00001000
00000000
00000100
00001000
,
00010000
00000000
01000000
10000000
,
00010000
00000000
00100000
10000000
,
10010000
10000000
00100000
00000000
,
00100000
01000000
00001000
00010000
,
00001000
00000100
00000001
00000000
,
00000020
00000000
00000000
00002000
00000000
00003030
00000000
00000000
,
00001000
00010000
00100000
00000000
,
00100000
10000000
01000000
00010000
,
02000000
03000000
10000000
00100000
,
02000000
03000000
00001000
00010000
,
00011000
00010000
00000010
00000000
,
00000010
00001000
00000001
00001000
,
00000100
00010000
00001000
00000000
,
00200000
00000000
00000000
00020000
00000000
00330000
00000000
00000000
,
00010000
01000000
00100000
00000000
,
00100000
10000000
01000000
10000000
,
00010000
00000000
00100000
00001000
,
00010000
00000100
00010000
00001000
,
00000000
00001000
00000000
00010000
00000000
01000000
00000000
10000000
,
00000000
00000000
00000000
01000000
00000000
00010000
00000000
00000000
,
00000000
00010000
00000000
00001000
00000000
00000100
00000000
00000001
,
00000000
00000000
00000001
00000100
,
00000010
00000000
00000010
00001000
,
00000100
00000001
00000100
00010000
,
00001000
00000000
00001000
01000000
,
00010000
10000000
01000000
00100000
,
10010000
00000000
10000000
00100000
,
10000000
01000000
00010000
00001000
,
00000100
00000001
00000010
00000001
,
00000100
00001000
00010000
00001000
,
00011000
00000000
00010000
00001000
,
01000000
00000000
01000000
00010000
,
10000000
00000000
01000000
10000000
,
00010000
00000000
01000000
00010000
,
00000010
00000000
00000010
00000001
,
00000100
00001000
00000100
00000001
,
00000010
00000000
00000100
00000000
00010000
00000000
00000000
00001000
,
00000000
00100000
00000000
00010000
00000000
00000000
00000000
00000000
,
10010000
00000000
10000000
00100000
,
00010000
00001000
00010000
00000100
,
00000010
00000000
00000100
00000000
00000001
00000000
00000000
00000100
,
00000000
00010000
00000000
00001000
00000000
00000000
00022000
00033000
;

//---------------dance-single - ----------------
#NOTES:
     dance-single:
     :
     Beginner:
     1:
     0.112,0.159,0.057,0.000,0.000:
0000
0000
0000
0000
,
0000
0000
0000
0000
,
0000
0000
0000
0000
,
0000
0000
0000
0000
,
0000
1000
0000
0100
,
0000
0010
0000
0001
,
0000
0001
0000
0100
,
0000
0010
0000
1000
,
1000
0000
0000
0000
,
1000
0000
0000
0000
,
1000
0000
0000
0000
,
1000
0000
0000
0000
,
0001
0000
0001
0000
,
0100
0000
0010
0010
,
0010
0000
0010
0000
,
1000
0000
0001
0000
,
1000
0000
1000
0000
,
0100
0000
0010
0010
,
0010
0000
0001
0000
,
0100
0000
0001
0000
,
1001
0000
0000
0000
,
0000
0000
0000
0000
,
0000
0000
0000
0000
,
0000
0000
0000
0000
,
1000
0000
1000
0000
,
0100
0000
0000
0000
,
0001
0000
0001
0000
,
0010
0000
0000
0000
,
1000
0000
1000
0000
,
0010
0000
0000
0000
,
0001
0000
0001
0000
,
0010
0000
0000
0000
,
1000
0000
1000
0000
,
0001
0000
0000
0000
,
0001
0000
0001
0000
,
1000
0000
0000
0000
,
0100
0000
0100
0000
,
0010
0000
0000
0000
,
0010
0000
0010
0000
,
0100
0000
0000
0000
,
1001
1000
0000
1000
,
0000
1000
0000
1000
,
0000
0001
0000
0001
,
0000
0001
0000
0001
,
1001
0000
0001
0000
,
0100
0000
1000
0000
,
0100
0000
0001
0000
,
1000
0000
0001
0000
,
1001
0000
1000
0000
,
0100
0000
0001
0000
,
0100
0000
1000
0000
,
0001
0000
1000
1000
,
1001
0000
0000
0000
,
0000
0000
0000
0000
,
0000
0000
0000
0000
,
0000
0000
0001
0001
,
1001
1000
0000
0010
,
0000
0100
0000
0001
,
0000
0001
0000
0010
,
0000
0100
0000
1000
,
1001
0001
0000
0100
,
0000
0010
0000
1000
,
0000
1000
0000
0100
,
0000
0010
0000
1001
;

//---------------dance-single - Copied from----------------
#NOTES:
     dance-single:
     Copied from:
     Edit:
     6:
     0.411,0.411,0.214,0.107,0.079:
0000
0000
0000
0000
,
0000
0000
0000
0000
,
0000
0000
0000
0000
,
0000
0000
0000
0000
,
1000
0100
1000
0000
0010
0100
0010
0000
,
1000
0010
1000
0000
0001
1000
0001
1000
,
0100
0010
0100
0000
1000
0100
1000
0100
,
1000
0100
1000
0100
1000
0010
0010
0000
,
1000
0100
1000
0100
0000
0010
0000
0001
,
0000
0100
0010
0100
0000
0001
0000
0010
,
0000
0100
0010
0100
0000
1000
0000
0010
,
0000
0000
0100
0000
0010
0000
0100
0000
0001
0000
0001
0000
1000
0000
0100
1000
,
0100
0000
0000
0000
0100
0000
0000
0000
0010
0000
0000
0001
0000
0000
0100
0000
,
0000
0000
0010
1000
0100
0010
0100
1000
,
0010
0000
0000
0000
0010
0000
0100
0000
0010
0000
0000
0100
0000
0000
0001
0000
,
0000
0000
0010
0000
0000
0000
0010
0000
0100
0000
1000
0000
0100
0000
1000
0100
,
1000
0000
0000
0000
0010
0000
0100
0000
0001
0000
0000
0010
0000
0000
0100
0000
,
0000
0000
1000
0100
0010
0100
1000
0100
,
0010
0000
0000
0000
0001
0000
0100
0000
0010
0000
0000
0100
0000
0000
0001
0000
,
0000
0000
0001
0000
0010
0000
0100
0000
0010
0000
0001
0000
0010
0000
0100
0010
,
0100
0010
0100
1000
0000
0100
0000
0010
,
0000
0001
0010
0001
0000
0100
0000
0010
,
0000
1000
0010
1000
0000
0100
0000
0010
,
0000
0000
0001
0000
0010
0000
0001
0000
0010
0000
0010
0000
0100
0000
1000
0100
,
1000
1100
0102
1003
,
1000
0100
0010
0001
0100
1000
0100
0000
,
0102
1000
0010
1000
,
0103
0001
0010
0100
1000
0010
0100
0000
,
0110
1001
0110
1001
,
1000
0001
0100
0010
1000
0100
1000
0000
,
2100
0000
3001
0000
0001
1000
0100
0001
,
0100
0100
1000
0000
0010
0010
0100
0000
,
0101
1100
0101
1100
,
1000
0010
0100
0001
0010
1000
0010
0000
,
0012
1000
0100
1000
,
0013
0001
0100
0010
1000
0100
0010
0000
,
0110
1001
0110
1001
,
1000
0000
0000
0010
0000
0000
0100
0000
0000
0001
0000
0000
0010
0000
0000
0100
0000
0000
1000
0000
0000
0000
0000
0100
,
2000
0000
3001
0000
0001
0010
0100
0010
,
0001
0100
0010
0100
1000
0100
0010
0100
,
0001
0200
0000
0320
0000
2030
0000
3002
,
0000
0003
0000
1001
0000
0101
0000
0000
,
0000
0200
0000
0320
0000
2030
0000
3002
,
0000
0000
0000
0000
0000
0000
0003
0000
0001
0000
1000
0000
0001
0000
1000
0001
,
1000
0000
0000
0000
1100
0000
0000
0000
1000
0000
0000
0010
0000
0000
0100
0000
,
0001
0000
0010
0000
0100
1000
0100
0010
,
0100
0000
0000
0000
1000
0000
0010
0000
0100
0000
0000
0001
0000
0000
0010
0000
,
0000
0000
0100
0000
0000
0000
1000
0000
0000
0000
0000
0000
1100
0000
1000
0100
,
0010
0000
0000
0000
0011
0000
0000
0000
0001
0000
0000
0100
0000
0000
0010
0000
,
1000
0000
0100
0000
1000
0010
0100
0001
,
0010
0000
0000
0000
0100
0000
0010
0000
0001
0000
0000
0100
0000
0000
0010
0000
,
0000
0000
1000
0000
0000
0000
0001
0000
0100
0000
0010
0000
1000
0000
0100
0010
,
0001
0100
1000
0100
0000
0001
0000
0010
,
0000
0100
1000
0100
0000
0010
0000
0001
,
0000
0100
1000
0100
0000
0001
0000
0010
,
0000
0000
0100
0000
1000
0000
0100
0000
0010
0000
0100
0000
1000
0000
0100
1000
,
0100
0000
0010
0000
0001
0000
0010
0000
0100
0000
0000
1000
0000
0000
0010
0000
,
0100
0001
0010
0100
0010
0001
0100
0010
,
1010
0000
0010
0000
1000
0000
0010
0000
0100
0000
0000
0001
0000
0000
0010
0000
,
0000
0000
0110
0000
0000
0000
1001
0000
0000
0000
0000
0000
1001
0000
0001
1000
,
0100
0000
0010
0000
0001
0000
0010
0000
0100
0000
0000
1000
0000
0000
0010
0000
,
0100
0001
0010
0100
0010
0001
0010
0100
,
1100
0000
0100
0000
1000
0000
0010
0000
0100
0000
0000
0001
0000
0000
0010
0000
,
0000
0011
0000
1100
1000
0001
0202
0303
;
