#TITLE:New York City Boy;
#SUBTITLE:;
#ARTIST:Pet Shop Boys;
#TITLETRANSLIT:;
#SUBTITLETRANSLIT:;
#ARTISTTRANSLIT:;
#CREDIT:;
#BANNER:[Passport] - New York City Boy.png;
#BACKGROUND:[Passport] - New York City Boy-bg.png;
#LYRICSPATH:;
#CDTITLE:cdtitle.png;
#MUSIC:[Passport] - New York City Boy.ogg;
#OFFSET:-0.203;
#SAMPLESTART:66.180;
#SAMPLELENGTH:12.000;
#SELECTABLE:YES;
#BPMS:0.000=130.899;
#STOPS:;
#BGCHANGES:;

//---------------dance-single - ----------------
#NOTES:
     dance-single:
     :
     Hard:
     6:
     0.429,0.476,0.461,0.000,0.048: // measure 1
0000
0000
0000
0000
,  // measure 2
0000
0000
0000
0000
,  // measure 3
0000
0000
0000
0000
,  // measure 4
0000
0000
0000
0000
,  // measure 5
1000
0100
0010
0001
,  // measure 6
1000
1001
0001
1001
,  // measure 7
1000
0000
0000
0000
0100
0000
0000
0000
0001
0000
0000
0000
0100
0000
1000
0100
,  // measure 8
1000
1100
1000
1001
,  // measure 9
0001
0100
0010
1000
,  // measure 10
0001
0100
1000
0100
,  // measure 11
0001
0000
0000
0000
1001
0000
0000
0000
1000
0000
0000
0001
0000
0000
1000
0000
,  // measure 12
0100
0010
0001
1001
,  // measure 13
1010
0000
1001
0000
1000
0010
0000
0100
,  // measure 14
0001
1000
0000
1000
0000
1000
0000
0100
,  // measure 15
1000
1000
0000
1001
0000
1010
0000
0110
,  // measure 16
0000
0101
0000
0000
0000
0100
0001
1000
,  // measure 17
1100
0000
0110
0000
0010
0001
0000
0100
,  // measure 18
0010
1000
0000
1000
0000
1000
0100
1000
,  // measure 19
0001
0001
0000
0101
0000
1001
0000
1010
,  // measure 20
0000
0000
1001
0000
0000
0000
0000
0000
1000
0001
1000
0000
0001
0000
0000
0000
,  // measure 21
0001
0100
0010
1000
0000
0000
0001
0000
,  // measure 22
1000
0100
0010
0001
0000
0000
1000
0000
,  // measure 23
0001
0100
1000
0100
0001
0000
1000
0010
,  // measure 24
0100
0100
0001
1000
0000
0000
0100
0000
,  // measure 25
1100
1000
0001
0010
0000
0010
0000
0001
,  // measure 26
1000
1000
0100
1000
0000
0000
0001
0000
,  // measure 27
1000
0010
0001
0000
0001
1000
0001
0010
,  // measure 28
1000
0001
0000
1001
0000
0000
1000
0100
,  // measure 29
0000
0000
0100
0000
0000
0100
0000
0000
0100
0000
0000
0100
0000
0000
0000
0000
,  // measure 30
0000
0000
0010
0000
0010
0000
0010
0000
0010
0000
0000
0010
0000
0000
0000
0000
,  // measure 31
0000
0000
0001
0000
0000
0001
0000
0000
0001
0000
0000
0000
0001
0000
0100
0000
,  // measure 32
0010
0000
1000
0000
1000
0010
0100
0001
,  // measure 33
1000
0001
0100
0010
,  // measure 34
1000
0100
0001
0100
,  // measure 35
1000
0000
1001
0000
0001
0000
1000
0100
,  // measure 36
0010
0000
0000
0000
0010
0000
0000
0000
0010
0100
0010
0100
1000
0000
0000
0000
,  // measure 37
1001
0000
0011
0000
0001
0010
0000
0010
,  // measure 38
0100
0010
0000
0010
0000
0010
0000
0010
,  // measure 39
0001
1000
0000
1100
0000
1001
0000
1000
,  // measure 40
0010
1000
0001
0100
0001
1000
0010
1000
,  // measure 41
1001
0000
1010
0000
1000
0010
0000
0010
,  // measure 42
0100
0010
0000
0010
0000
0010
1000
0100
,  // measure 43
1000
1000
0000
1100
0000
1001
0000
1010
,  // measure 44
0000
0000
1000
0000
0010
0000
0100
0000
0001
1000
0001
0000
0010
0000
0001
0000
,  // measure 45
0011
0000
1001
0000
1000
0010
0000
0010
,  // measure 46
0100
0010
1000
0001
0000
1000
0000
0100
,  // measure 47
1000
1000
0000
1010
0000
0110
0000
0101
,  // measure 48
0000
0100
0010
0100
1000
0100
0001
1000
,  // measure 49
1010
0000
1001
0000
1000
0010
0000
0010
,  // measure 50
0100
0001
1000
0010
0000
0100
1000
0100
,  // measure 51
0001
0001
0000
0101
0000
0110
0000
1010
,  // measure 52
0000
1001
0000
0000
0000
1000
0100
0010
,  // measure 53
1001
0000
1100
0000
0100
0010
0000
1001
,  // measure 54
0000
0000
0000
0000
0000
1000
0001
0100
,  // measure 55
0001
0001
0000
1001
0000
0011
0000
0110
,  // measure 56
0000
1100
0000
0000
0000
0000
0000
0000
;

//---------------dance-single - ----------------
#NOTES:
     dance-single:
     :
     Medium:
     5:
     0.307,0.371,0.192,0.000,0.000:
0000
0000
0000
0000
,
0000
0000
0000
0000
,
0000
0000
0000
0000
,
0000
0000
0000
0000
,
1000
0100
0010
0001
,
1001
0000
1000
0001
,
0101
0000
0100
0010
,
1010
1000
0001
0100
,
0001
0010
0001
1000
,
0010
1000
0100
0001
,
0100
0000
0000
1000
,
0001
0001
0010
0100
,
1000
0000
1100
0000
1000
0001
0000
0100
,
0010
0100
0000
0100
0000
0100
0000
0100
,
0001
0100
0000
0001
0000
1000
0000
0100
,
0000
0010
0000
0000
0000
0000
0001
0100
,
0001
0000
0101
0000
0001
1000
0000
0100
,
0010
0100
0000
0100
0000
0100
0000
0100
,
1000
0001
0000
1000
0000
0001
0000
0010
,
0000
0100
0000
0000
1000
0000
0010
0000
,
0110
0000
0100
0001
0000
0000
1000
0000
,
1001
0000
0001
0010
0000
0000
0100
0000
,
1100
1100
1001
1001
,
0001
0000
1000
0100
0000
0000
0010
0000
,
0011
0000
0001
0100
0000
0010
0000
1000
,
0100
0000
0010
0001
0000
0000
1000
0000
,
1001
1000
1001
0001
,
0001
0100
0000
0010
0000
0000
1000
0100
,
0000
0000
0000
0000
0000
0000
0100
0010
,
0000
0000
0000
0000
0000
0010
0000
0001
,
0000
0000
0000
0000
0000
0000
0001
1000
,
0010
0000
0010
0000
0010
1000
0000
0100
,
0000
0000
0000
0000
0000
0100
0000
0010
,
0000
0000
0000
0000
0000
0010
0000
0001
,
0000
0000
0000
0000
0000
0000
0001
1000
,
0001
0000
0001
0000
0100
0010
0000
0000
,
1000
0000
1001
0000
1000
0010
0000
0100
,
0000
0001
0000
1000
0000
0100
0000
1000
,
0001
1000
0000
0001
0000
1000
0000
0100
,
0000
0010
0000
0000
0000
0000
0010
0001
,
1000
0000
1001
0000
1000
0010
0000
0100
,
0000
0001
0000
0100
0000
1000
0000
0100
,
0001
1000
0000
0100
0000
0001
0000
0100
,
0000
0010
0000
0000
0010
0000
0001
0000
,
1000
0000
1100
0000
1000
0100
0000
0010
,
0000
0001
0100
0001
0000
1000
0000
0000
,
1000
0100
0000
0010
0000
0001
0000
0010
,
0000
0100
1000
0001
1000
0000
0100
1000
,
0001
0000
0101
0000
0001
0100
0000
0010
,
0000
1000
0010
1000
0000
0100
0000
0000
,
0010
0100
0000
1000
0000
0001
0000
0010
,
0000
0100
0000
0000
0000
0000
1000
0001
,
1001
0000
1010
0000
1000
0010
0000
0100
,
0000
0000
0000
0000
0000
0100
0001
0100
,
1000
1000
0000
0100
0000
0001
0000
0010
,
0000
0100
0000
0000
0000
0000
0000
0000
;

//---------------dance-single - ----------------
#NOTES:
     dance-single:
     :
     Easy:
     4:
     0.215,0.265,0.096,0.000,0.000:
0000
0000
0000
0000
,
0000
0000
0000
0000
,
0000
0000
0000
0000
,
0000
0000
0000
0000
,
1000
0100
0001
0100
,
1000
0000
0000
1000
,
0010
0000
0000
1000
,
0001
0000
0000
0000
,
0001
0100
0001
0010
,
0001
0100
1000
0100
,
0001
0000
0000
1000
,
0100
1000
0001
1000
,
0010
0000
0010
0000
1000
0000
0000
1001
,
0000
0000
0000
0000
,
1000
0100
0010
0100
,
1000
0010
0100
0001
,
0100
0000
0100
0000
0001
0000
0000
1001
,
0000
0000
0000
0001
,
0100
0010
0100
0001
,
0010
0100
1000
0001
,
1001
0001
0100
0000
,
0100
0010
1000
0000
,
1000
0100
0010
0100
,
0001
0100
1000
0010
,
1010
0010
0100
0100
,
0001
0010
0100
0000
,
0010
0001
0100
1000
,
0100
0100
0001
1000
,
1100
0000
0000
0000
,
1000
0000
0000
0000
,
0001
0000
0000
0000
,
0010
0000
0001
0000
,
0100
0000
0000
0000
,
0001
0000
0000
0000
,
1000
0000
0000
0000
,
0010
0000
0010
0000
,
0010
0000
0010
0000
1000
0000
0000
1001
,
0000
0000
0000
0000
,
1000
0100
0001
0100
,
1000
0010
0100
0001
,
0100
0000
0100
0000
0001
0000
0000
1001
,
0000
0000
0000
1000
,
0010
0100
0010
1000
,
0001
1000
0100
0010
,
0001
0000
0001
0000
0100
0000
0000
0110
,
0000
0000
0000
0000
,
0010
1000
0100
0010
,
0001
0100
1000
0100
,
0001
0000
0001
0000
0010
0000
0000
0110
,
0000
0000
0000
0100
,
1000
0010
0100
0001
,
1000
1000
0100
0010
,
1001
0000
1000
0000
0010
0000
0000
0100
,
0000
0000
0000
0100
,
0001
0000
0000
0010
0000
0100
0000
0001
,
0000
1000
0000
0000
0000
0000
0000
0000
;

//---------------dance-double - ----------------
#NOTES:
     dance-double:
     :
     Hard:
     7:
     0.439,0.503,0.173,0.000,0.062:
00000000
00000000
00000000
00000000
,
00000000
00000000
00000000
00000000
,
00000000
00000000
00000000
00000000
,
00000000
00000000
00000000
00000000
,
10000000
01000000
00010000
00001000
,
00000100
00000001
00000010
00000001
,
00000100
00000000
00000000
00000000
00001000
00000000
00000000
00000000
00010000
00000000
00000000
00000000
00001000
00000000
00010000
00001000
,
00010000
00001000
01000000
00010000
,
10000000
00100000
00010000
00100000
,
10000000
01000000
00010000
00001000
,
00000100
00000000
00000000
00000000
00000001
00000000
00000000
00000000
00000010
00000000
00000000
00000010
00000000
00000000
00000100
00000000
,
00001000
00000001
00001000
00000100
00010000
00001000
00100000
00010000
,
10010000
00000000
10100000
00000000
10000000
00100000
00000000
01000000
,
00010000
10000000
00000000
10000000
00000000
10000000
00000000
01000000
,
00010000
00001000
00000000
00000100
00000000
00000001
00000000
00000010
,
00000001
00000100
00000001
00001000
00000100
00010000
00001000
01000000
,
01010000
00000000
11000000
00000000
10000000
00100000
00000000
01000000
,
00001000
00010000
00000000
00010000
00000000
00010000
01000000
00010000
,
00001000
00001000
00000000
00000100
00000000
00000001
00000000
00000010
,
00000001
00000000
00001000
00000000
00000010
00000000
00001000
00000000
00000001
00001000
00000001
00000000
00000100
00000000
00000000
00000000
,
00000101
00000100
00000001
00001000
00000000
00000100
00001000
00000000
,
00000100
00010000
00001000
01000000
00000000
00010000
01000000
00000000
,
01000000
00010000
01000000
10000000
01000000
00000000
01000000
00100000
,
10000000
10000000
01000000
00010000
00001000
00010000
00000100
00001000
,
00000001
00000100
00000010
00001000
00000000
00001001
00000000
00001000
,
00000100
00001000
00000010
00001000
00000000
00000010
00001000
00000000
,
00000001
00000100
00001000
00000000
00010000
00100000
10000000
00100000
,
00010000
00001000
00000100
00001000
00010000
00000100
00001000
00000001
,
00000000
00000000
00000100
00000000
00000000
00000100
00000000
00000000
00000100
00000000
00000000
00000100
00000000
00000000
00001000
00000000
,
00000000
00000000
00010000
00000000
01000000
00000000
10000000
00000000
01000000
00000000
00000000
01000000
00000000
00000000
01000000
00000000
,
00000000
00000000
00010000
00000000
00000000
00010000
00000000
00000000
00010000
00000000
00000000
00000000
00010000
00000000
00001000
00000000
,
00000010
00000000
00000001
00000000
00000100
00001000
00010000
01000000
,
10000000
01000000
00010000
01000000
10000000
01000000
00010000
00001000
,
00000100
00000001
00000100
00001000
00000100
00000001
00000100
00001000
,
00010000
00100000
10000000
00100000
00010000
00100000
10000000
00100000
,
00010000
00000000
00001000
00000000
00000010
00000000
00000001
00000000
00001000
00000001
00001000
00000001
00001000
00000000
00000000
00000000
,
00001001
00000000
00001010
00000000
00001000
00000010
00000000
00000100
,
00000001
00001000
00000000
00001000
00000000
00001000
00000000
00001000
,
00010000
01000000
00000000
00010000
00000000
10000000
00000000
00100000
,
00010000
10000000
01000000
00010000
00001000
00000100
00000001
00001000
,
00001001
00000000
00001010
00000000
00001000
00000010
00000000
00000010
,
00000100
00000001
00000000
00000001
00000000
00000100
00001000
00000100
,
00010000
00010000
00000000
01000000
00000000
00010000
00000000
00100000
,
01000000
10000000
01000000
10000000
01000000
00000000
10000000
01000000
10000000
01000000
10000000
00000000
01000000
00000000
00100000
00000000
,
10010000
00000000
00110000
00000000
00010000
00100000
00000000
01000000
,
00010000
00001000
00000100
00001000
00000000
00011000
00000000
00000000
,
00001000
00010000
00000000
01000000
00000000
10000000
00000000
01000000
,
00000000
00100000
00001000
00010000
00000100
00000010
00010000
10000000
,
10010000
00000000
10100000
00000000
10000000
00100000
00000000
01000000
,
00000000
00010000
00100000
00001000
00000000
00011000
00001000
00010000
,
00000100
00000100
00000000
00001000
00000000
00000001
00000000
00000010
,
00000000
00000100
00000000
00000000
00000000
00010000
00001000
00100000
,
00110000
00000000
10100000
00000000
10000000
00100000
00000000
01000000
,
00000000
00000000
00000000
00000000
00000000
00010000
01000000
10000000
,
01000000
01000000
00000000
00010000
00000000
00001000
00000000
00000010
,
00000000
00001000
00000000
00000000
00000000
00000000
00000000
00000000
;

//---------------dance-double - ----------------
#NOTES:
     dance-double:
     :
     Medium:
     5:
     0.344,0.397,0.432,0.000,0.000:
00000000
00000000
00000000
00000000
,
00000000
00000000
00000000
00000000
,
00000000
00000000
00000000
00000000
,
00000000
00000000
00000000
00000000
,
10000000
01000000
00010000
00001000
,
00011000
00000000
00010000
00001000
,
00001100
00000000
00001000
00010000
,
01010000
00000000
00000000
00000000
,
01000000
10000000
00100000
01000000
,
00001000
00000100
00000001
00000100
,
00001000
00000000
00000000
00010000
,
01000000
10000000
00100000
01000000
,
10010000
00000000
10100000
00000000
10000000
01000000
00000000
00010000
,
00001000
00010000
00000000
00010000
00000000
00010000
00000000
00010000
,
00001000
00000100
00000000
00001100
00000000
00000101
00000000
00000011
,
00000000
00001001
00000000
00000000
00000000
00000000
00000001
00000000
,
00001001
00000000
00001010
00000000
00000010
00010000
00000000
00010000
,
00001000
00100000
00000000
00100000
00000000
00000000
00010000
00100000
,
00010000
00010000
00000000
01010000
00000000
11000000
00000000
10100000
,
00000000
10010000
00000000
00000000
10000000
00000000
11000000
00000000
,
10010000
00000000
10000000
01000000
00000000
00000000
00100000
00000000
,
00001000
00000000
00010000
00000100
00000000
00000000
00000010
00000000
,
00000001
00000100
00000001
00000000
00000100
00001000
00000100
00000000
,
00001000
00010000
00000000
00011000
00000000
00000000
00000000
00000000
,
00010000
00000000
01000000
10000000
00000000
00100000
00000000
01000000
,
00001000
00000000
00010000
00001000
00000000
00000000
00000000
00000000
,
00010000
00000000
00000100
00000000
00000010
00000001
00000010
00000000
,
00000100
00010000
00000000
00001000
00000000
00000000
00010000
00001000
,
00000000
00000000
00000000
00000000
00000000
00000000
00100000
00010000
,
00000000
00000000
00000000
00000000
00000000
10000000
00000000
00100000
,
00000000
00000000
10000000
00100000
,
00100000
00000000
10000000
00000000
00010000
01000000
10000000
00000000
,
01000000
00001000
00010000
00001000
,
00000010
00000001
00000100
00001000
,
00000000
00000000
00000000
00000000
00000000
00000000
00001000
00010000
,
00001000
00000000
00001000
00000000
00010000
00001000
00000000
00000000
,
00011000
00000000
00110000
00000000
00010000
00100000
00000000
01000000
,
00000000
10000000
00000000
00010000
00000000
01000000
00000000
00001000
,
00010000
00000100
00000000
00001100
00000000
00000101
00000000
00000011
,
00000000
00001010
00000000
00000000
00000000
00001000
00000001
00000000
,
00001001
00000000
00011000
00000000
00001000
00100000
00000000
01000000
,
00000000
10000000
00000000
00010000
00000000
01000000
00001000
00010000
,
00001000
00001000
00000000
00011000
00000000
00010010
00000000
00001010
,
00000000
00000110
00000000
00000000
00000100
00000000
00000001
00000000
,
00001001
00000000
00001010
00000000
00001000
00000010
00000000
00000100
,
00000000
00000001
00000000
00001000
00000000
00000100
00010000
00001000
,
00010000
00010000
00000000
00001000
00000000
00010000
00000000
01000000
,
00000000
00010000
00000000
00000000
00000000
00010000
01000000
10000000
,
11000000
00000000
10010000
00000000
10000000
00100000
00000000
01000000
,
00000000
00001000
00010000
00001000
00000000
00000100
00000000
00000000
,
00000100
00001000
00000000
00011000
00000000
00110000
00000000
10010000
,
00000000
10100000
00000000
00000000
00000000
10000000
01000000
00100000
,
10010000
00000000
00110000
00000000
00100000
00001000
00000000
00011000
,
00000000
00000000
00000000
00000000
00000000
00010000
00000100
00010000
,
00001000
00001000
00000000
00011000
00000000
00110000
00000000
10010000
,
00000000
10100000
00000000
00000000
00000000
00000000
00000000
00000000
;

//---------------dance-double - ----------------
#NOTES:
     dance-double:
     :
     Easy:
     4:
     0.236,0.265,0.115,0.000,0.000:
00000000
00000000
00000000
00000000
,
00000000
00000000
00000000
00000000
,
00000000
00000000
00000000
00000000
,
00000000
00000000
00000000
00000000
,
10000000
01000000
00010000
00000010
,
00001000
00000000
00000000
00001000
,
00000001
00000000
00000000
00000001
,
00000010
00000001
00001000
00000100
,
00001100
00000100
00000001
00000100
,
00010000
01000000
10000000
01000000
,
00010000
00000000
00000000
00001000
,
00000100
00000001
00001000
00000100
,
00000010
00000000
00000001
00000000
00001000
00000000
00000000
00001001
,
00000000
00000000
00000000
00000000
,
00000001
00000100
00000010
00000100
,
00000001
00000010
00001000
00010000
,
01000000
00000000
10000000
00000000
00010000
00000000
00000000
10010000
,
00000000
00000000
00000000
10000000
,
01000000
00100000
01000000
10000000
,
01000000
00010000
00001000
00010000
,
00010100
00000100
00001000
00000000
,
00001000
00000001
00000100
00000000
,
00000100
00000001
00000010
00001000
,
00010000
01000000
10000000
00010000
,
01010000
01000000
00100000
10000000
,
01000000
00010000
00001000
00000000
,
00010000
00001000
00000010
00001000
,
00010000
00001000
00000100
00000001
,
00001001
00000000
00000000
00000000
,
00001000
00000000
00000000
00000000
,
00000001
00000000
00000000
00000000
,
00000010
00001000
00010000
01000000
,
10000000
01000000
00100000
00010000
,
00100000
01000000
10000000
00010000
,
10000000
00000000
00000000
10000000
,
00100000
00100000
01000000
00001000
,
00010000
00000000
00000100
00000000
00001000
00000000
00000000
00001001
,
00000000
00000000
00000000
00000000
,
00000001
00000100
00000010
00000100
,
00000001
00000010
00001000
00010000
,
01000000
00000000
10000000
00000000
00010000
00000000
00000000
10010000
,
00000000
00000000
00000000
10000000
,
01000000
00100000
01000000
10000000
,
00100000
00010000
00001000
00000100
,
00000001
00000000
00000010
00000000
00000100
00000000
00000000
00000110
,
00000000
00000000
00000000
00000000
,
00000010
00000001
00000100
00000010
,
00010000
00001000
00100000
00010000
,
10000000
00000000
01000000
00000000
00100000
00000000
00000000
01100000
,
00000000
00000000
00000000
00000000
,
01000000
10000000
00010000
00100000
,
00001000
00010000
00000010
00000100
,
00001001
00000000
00001000
00000000
00000001
00000000
00000000
00001001
,
00000000
00000000
00000000
00000001
,
00000100
00000000
00000000
00001000
00000000
00100000
00000000
00010000
,
00000000
00001000
00000000
00000000
00000000
00000000
00000000
00000000
;
