#TITLE:もすかう (DIGIMIND REMIX);
#SUBTITLE:;
#ARTIST:塩分手生えるんすか;
#TITLETRANSLIT:Moskau (DIGIMIND REMIX);
#SUBTITLETRANSLIT:;
#ARTISTTRANSLIT:Fremd und geheimnisvoll;
#GENRE:HANDZ UP!;
#CREDIT:;
#BANNER:[Passport] - Moskau (DIGIMIND REMIX).png;
#BACKGROUND:[Passport] - Moskau (DIGIMIND REMIX)-bg.png;
#LYRICSPATH:;
#CDTITLE:cdtitle.png;
#MUSIC:[Passport] - Moskau (DIGIMIND REMIX).ogg;
#OFFSET:-0.080000;
#SAMPLESTART:71.684082;
#SAMPLELENGTH:13.437500;
#SELECTABLE:YES;
#BPMS:0.000000=144.000000
;
#STOPS:
;
#BGCHANGES:;
#KEYSOUNDS:;
#ATTACKS:;

//---------------dance-single - ----------------
#NOTES:
     dance-single:
     :
     Hard:
     8:
     0.530237,0.512159,0.246312,0.152883,0.106169,437.000000,408.000000,29.000000,18.000000,0.000000,0.000000,0.530237,0.512159,0.246312,0.152883,0.106169,437.000000,408.000000,29.000000,18.000000,0.000000,0.000000:
// measure 0
0000
0000
0000
0000
,  // measure 1
0000
0000
0000
0000
,  // measure 2
0000
0000
0000
0000
,  // measure 3
0000
0000
0000
0000
,  // measure 4
2000
0000
3001
0100
1000
0100
0001
0000
,  // measure 5
1000
0000
0000
0100
0010
0000
0100
0000
2000
0000
0000
0000
3010
0000
0100
0001
,  // measure 6
0100
0000
0001
0000
0010
0000
0100
0000
0020
0000
0000
0000
0031
0000
1000
0010
,  // measure 7
1000
0100
0001
0100
1000
0000
1001
0000
,  // measure 8
0002
0000
1003
0100
0001
0100
1000
0000
,  // measure 9
0001
0000
0000
0100
0010
0000
0100
0000
0002
0000
0000
0000
0013
0000
0100
1000
,  // measure 10
0100
0000
1000
0000
0010
0000
0100
0000
0020
0000
0000
0000
1030
0000
0001
0010
,  // measure 11
0001
0100
1000
0100
0001
0000
1001
0000
,  // measure 12
2000
0000
3001
1000
0100
1000
0001
0000
,  // measure 13
0010
0000
0000
0100
1000
0000
0010
0000
2000
0000
0000
0000
3001
0000
0010
0100
,  // measure 14
0010
0000
0001
0000
0100
0000
0010
0000
0200
0000
0000
0000
1300
0000
0100
0010
,  // measure 15
0100
0001
1000
0100
0010
0000
1001
0000
,  // measure 16
0002
0100
0100
0103
,  // measure 17
2000
0100
0100
3100
,  // measure 18
1001
0000
1000
0010
0100
0010
1000
0000
,  // measure 19
0100
0010
0100
0000
0010
0001
0010
0100
,  // measure 20
1000
0010
1000
0000
0001
0010
0100
0000
,  // measure 21
0010
0001
1000
0000
0010
0100
0010
1000
,  // measure 22
0100
0010
0001
0000
0100
0010
1000
0000
,  // measure 23
0100
0010
0100
0000
1000
0010
0100
0001
,  // measure 24
1000
0100
0010
0100
1000
0100
0001
0100
,  // measure 25
1000
0000
0010
0000
0100
0000
0010
0000
1000
0000
0000
0001
1000
0000
0100
0000
,  // measure 26
0010
0000
0001
0100
0010
0100
0001
0000
,  // measure 27
0010
0100
0010
0000
0100
1000
0100
1000
,  // measure 28
0010
0100
0001
0000
0010
0100
1000
0000
,  // measure 29
0010
0100
0001
0000
0010
0100
0010
0001
,  // measure 30
1000
0010
1000
0000
0100
0010
0001
0000
,  // measure 31
1000
0010
1000
0000
0001
0010
1000
0010
,  // measure 32
0001
0100
0010
0100
0001
0100
1000
0100
,  // measure 33
0001
0010
0100
0010
0001
0010
1000
0010
,  // measure 34
0001
0000
0101
0000
1000
0100
0010
0001
,  // measure 35
0000
1000
0010
0100
0000
0100
0001
0010
,  // measure 36
0100
0000
1100
0000
0001
0100
0010
1000
,  // measure 37
0000
0001
0010
0100
0000
0100
1000
0010
,  // measure 38
0100
0000
0101
0000
1000
0100
0010
0001
,  // measure 39
0000
1000
0010
0100
0000
0100
0001
0010
,  // measure 40
0001
0000
0001
0100
1000
0000
1000
0100
,  // measure 41
0001
0010
0001
0010
0100
1000
0100
1000
,  // measure 42
0020
0000
0000
0030
,  // measure 43
1001
1100
1001
0101
,  // measure 44
1000
0000
0000
0100
0010
0000
0100
0000
0001
0000
0100
0000
0010
0000
0000
0000
,  // measure 45
0001
0000
0000
0100
0010
0000
0100
0000
1000
0000
0100
0000
0010
0000
0000
0000
,  // measure 46
1000
0100
0001
0100
1000
0000
0110
0000
,  // measure 47
1001
0011
1001
1010
,  // measure 48
0001
0000
0000
0010
0100
0000
0010
0000
1000
0000
0010
0000
0100
0000
0000
0000
,  // measure 49
1000
0000
0000
0010
0100
0000
0010
0000
0001
0000
0010
0000
0100
0000
0000
0000
,  // measure 50
0001
0010
1000
0010
0001
0000
0110
0000
,  // measure 51
1100
0101
0011
1010
,  // measure 52
1000
0000
0000
0100
0010
0000
1000
0000
0010
0000
0001
0000
0100
0000
0000
0000
,  // measure 53
0001
0000
0000
0010
0100
0000
0001
0000
0100
0000
1000
0000
0010
0000
0000
0000
,  // measure 54
1000
0100
0001
0100
1000
0000
1001
0000
,  // measure 55
1010
0011
0101
1100
,  // measure 56
0001
0000
0000
0100
0010
0000
0001
0000
0010
0000
1000
0000
0100
0000
0000
0000
,  // measure 57
1000
0000
0000
0010
0100
0000
1000
0000
0100
0000
0001
0000
0010
0000
0000
0000
,  // measure 58
0001
0000
0100
0000
1000
0000
0100
0000
0001
0000
0000
1000
0001
0000
0001
0000
,  // measure 59
2000
0000
3001
0100
1000
0100
0001
0000
,  // measure 60
1000
0000
0000
0100
0010
0000
0100
0000
2000
0000
0000
0000
3010
0000
0100
0001
,  // measure 61
0100
0000
0001
0000
0010
0000
0100
0000
0020
0000
0000
0000
0031
0000
1000
0010
,  // measure 62
1000
0100
0001
0100
1000
0000
1001
0000
,  // measure 63
0002
0000
1003
0001
0100
0001
1000
0000
,  // measure 64
0010
0000
0000
0100
0001
0000
0010
0000
0002
0000
0000
0000
1003
0000
0010
0100
,  // measure 65
0010
0000
1000
0000
0100
0000
0010
0000
0200
0000
0000
0000
0301
0000
0100
0010
,  // measure 66
0100
1000
0001
0100
0010
0000
1001
0000
,  // measure 67
0110
0000
0000
0000
;

//---------------dance-single - ----------------
#NOTES:
     dance-single:
     :
     Medium:
     6:
     0.368861,0.398345,0.161377,0.050961,0.000000,304.000000,285.000000,19.000000,6.000000,0.000000,0.000000,0.368861,0.398345,0.161377,0.050961,0.000000,304.000000,285.000000,19.000000,6.000000,0.000000,0.000000:
0000
0000
0000
0000
,
0000
0000
0000
0000
,
0000
0000
0000
0000
,
0000
0000
0000
0000
,
1000
0000
0001
0100
0001
0100
0010
0000
,
1000
0000
0100
0000
0010
0000
0010
0001
,
1000
0000
0010
0000
0100
0000
0100
0001
,
1000
0100
0010
1001
,
0001
0000
1000
0010
1000
0010
0100
0000
,
0001
0000
0010
0000
0100
0000
0100
1000
,
0001
0000
0100
0000
0010
0000
0010
1000
,
0001
0010
0200
0300
,
1000
0000
0010
0100
0010
0100
0001
0000
,
1000
0000
0001
0000
0010
0000
0010
0100
,
1000
0000
0001
0000
0100
0000
0100
0010
,
1000
0100
0010
1001
,
0002
0000
0000
0003
,
2000
0000
0000
3000
,
0001
0100
0010
0100
,
0001
0010
0100
1000
,
0001
0100
0010
1000
,
0001
0010
0100
0010
,
0001
1000
0010
0100
,
0001
1000
0100
0010
,
0001
0100
0001
0000
1000
0000
0100
0000
,
1000
0010
1000
0000
0001
0000
0010
0001
,
1000
0100
0010
0100
,
1000
0010
0100
0001
,
1000
0100
0010
0001
,
1000
0010
0100
0010
,
1000
0001
0010
0100
,
1000
0001
0100
0010
,
1000
0100
1000
0000
0001
0000
0100
0000
,
0001
0010
0001
0000
1000
0000
0001
1000
,
0001
1001
1000
0100
,
0010
0000
0001
0000
1000
0000
0001
1000
,
0001
1001
1000
0010
,
0100
0000
0001
0000
1000
0000
0100
0010
,
0100
0110
0010
0001
,
0100
0000
0010
0000
1000
0000
0010
0100
,
0010
0000
1000
0001
1000
0000
0100
0010
,
0100
0010
0001
1000
,
2002
0000
0000
3003
,
1000
1001
0001
1001
,
1000
1000
0010
0010
,
0100
0001
0010
0100
,
1000
0010
1000
0010
0100
0000
1001
0000
,
0001
1001
1000
1001
,
0001
0001
0010
0010
,
0100
1000
0010
0100
,
0001
0010
0001
0010
0100
0000
1001
0000
,
1000
1010
0001
0011
,
1000
0000
0010
0000
0100
0001
0100
0000
,
0001
0000
0010
0000
0100
1000
0100
0000
,
1000
0001
1000
0001
0100
0000
0110
0000
,
0001
0011
1000
1010
,
0001
0000
0010
0000
0100
1000
0100
0000
,
1000
0000
0010
0000
0100
0001
0100
0000
,
0001
1000
0001
1000
0100
0000
0010
0000
,
0001
0000
1000
0010
1000
0010
0100
0000
,
0001
0000
0010
0000
0100
0000
0100
1000
,
0001
0000
0100
0000
0010
0000
0010
1000
,
0001
0010
0200
0300
,
1000
0000
0010
0100
0010
0100
0001
0000
,
1000
0000
0001
0000
0010
0000
0010
0100
,
1000
0000
0001
0000
0100
0000
0100
0010
,
1000
0100
0010
1001
,
0110
0000
0000
0000
;

//---------------dance-single - ----------------
#NOTES:
     dance-single:
     :
     Easy:
     3:
     0.266939,0.312986,0.050961,0.042468,0.000000,220.000000,214.000000,6.000000,5.000000,0.000000,0.000000,0.266939,0.312986,0.050961,0.042468,0.000000,220.000000,214.000000,6.000000,5.000000,0.000000,0.000000:
0000
0000
0000
0000
,
0000
0000
0000
0000
,
0000
0000
0000
0000
,
0000
0000
0000
0000
,
1000
0001
0010
0010
,
0001
1000
0010
0010
,
0100
0010
1000
1000
,
0001
0010
0100
1001
,
1000
0010
0100
0100
,
0001
0010
0100
0100
,
0010
0001
1000
1000
,
0010
0100
0002
0003
,
1000
0100
0010
0010
,
0001
0100
0010
0010
,
0100
0001
1000
1000
,
0100
0010
0001
1001
,
2000
0000
0000
0000
,
0000
0000
0000
3000
,
0001
0000
1000
0000
,
0010
0000
0100
0000
,
0001
0000
0010
0000
,
0100
0000
1000
0000
,
0010
0000
0100
0000
,
0001
0000
1000
0000
,
0100
0000
0010
0000
,
0001
0001
1000
1000
,
0001
0100
0001
0000
,
1000
0010
1000
0000
,
0001
0010
0001
0000
,
1000
0100
1000
0000
,
0010
0100
0010
0000
,
1000
0001
1000
0000
,
0001
0001
1000
1000
,
0010
0100
0001
0000
,
1000
0001
1000
0000
,
0010
0100
0010
0100
,
0001
1000
0001
0000
,
1000
0010
1000
0010
,
0100
0001
0100
0000
,
0001
0010
0001
0010
,
0100
1000
0100
0010
,
0001
0001
1000
1000
,
2002
0000
0000
3003
,
0001
0001
1000
1000
,
0010
0100
0001
1000
,
0100
0010
0001
1000
,
0001
1000
0001
0000
,
1000
1000
0001
0001
,
0100
0010
1000
0001
,
0010
0100
1000
0001
,
1000
0001
1000
1001
,
0001
0001
0100
0100
,
0010
1000
0100
0010
,
0100
1000
0010
0100
,
0001
1000
0001
0000
,
1000
1000
0100
0100
,
0010
0001
0100
0010
,
0100
0001
0010
0100
,
1000
0001
1000
0000
,
0001
0100
0010
0010
,
1000
0100
0010
0010
,
0100
1000
0001
0001
,
0100
0010
2000
3000
,
0001
0010
0100
0100
,
1000
0010
0100
0100
,
0010
1000
0001
0001
,
0010
0100
1000
1001
,
0110
0000
0000
0000
;

//---------------dance-single - ----------------
#NOTES:
     dance-single:
     :
     Beginner:
     1:
     0.134683,0.142266,0.000000,0.008494,0.000000,111.000000,111.000000,0.000000,1.000000,0.000000,0.000000,0.134683,0.142266,0.000000,0.008494,0.000000,111.000000,111.000000,0.000000,1.000000,0.000000,0.000000:
0000
0000
0000
0000
,
0000
0000
0000
0000
,
0000
0000
0000
0000
,
0000
0000
0000
0000
,
1000
0000
1000
0000
,
0001
0000
0001
0000
,
0010
0000
0010
0000
,
0100
0000
0100
0000
,
1000
0000
1000
0000
,
0001
0000
0001
0000
,
0100
0000
0100
0000
,
0010
0000
0010
0000
,
1000
0000
1000
0000
,
0100
0000
0100
0000
,
0010
0000
0010
0000
,
0001
0000
0001
0000
,
2000
0000
0000
0000
,
0000
0000
0000
3000
,
0001
0000
0000
0000
,
1000
0000
0000
0000
,
0010
0000
0000
0000
,
0100
0000
0000
0000
,
0001
0000
0000
0000
,
1000
0000
0000
0000
,
0100
0000
0000
0000
,
0010
0000
0000
0000
,
0001
0000
0100
0000
,
0001
0000
0100
0000
,
0010
0000
1000
0000
,
0010
0000
1000
0000
,
0001
0000
0010
0000
,
0001
0000
0010
0000
,
0100
0000
1000
0000
,
0100
0000
1000
0000
,
0001
0000
0001
0000
,
0001
0000
0000
0000
,
1000
0000
1000
0000
,
1000
0000
0000
0000
,
0010
0000
0010
0000
,
0010
0000
0000
0000
,
1000
0000
0001
0000
,
1000
0000
0000
0000
,
0001
0000
0000
0000
,
1000
0000
0010
0000
,
1000
0000
0010
0000
,
0100
0000
0001
0000
,
0100
0000
0001
0000
,
1000
0000
0100
0000
,
1000
0000
0100
0000
,
0010
0000
0001
0000
,
0010
0000
0001
0000
,
0100
0000
0010
0000
,
0100
0000
0010
0000
,
1000
0000
0001
0000
,
1000
0000
0001
0000
,
0010
0000
0100
0000
,
0010
0000
0100
0000
,
1000
0000
0001
0000
,
1000
0000
0001
0000
,
1000
0000
1000
0000
,
0001
0000
0001
0000
,
0100
0000
0100
0000
,
0010
0000
0010
0000
,
1000
0000
1000
0000
,
0100
0000
0100
0000
,
0010
0000
0010
0000
,
0001
0000
0001
0000
,
1000
0000
0000
0000
;
