#VERSION:0.81;
#TITLE:Lose It (feat. Vic Mensa);
#SUBTITLE:;
#ARTIST:Flume;
#TITLETRANSLIT:;
#SUBTITLETRANSLIT:;
#ARTISTTRANSLIT:;
#GENRE:;
#ORIGIN:;
#CREDIT:;
#BANNER:;
#BACKGROUND:;
#PREVIEWVID:;
#JACKET:;
#CDIMAGE:;
#DISCIMAGE:;
#LYRICSPATH:;
#CDTITLE:;
#MUSIC:Lose It.ogg;
#OFFSET:-7.563221;
#SAMPLESTART:51.716057;
#SAMPLELENGTH:12.000000;
#SELECTABLE:YES;
#BPMS:0.000=130.000,
64.000=65.000,
80.000=130.000;
#STOPS:;
#DELAYS:;
#WARPS:;
#TIMESIGNATURES:0.000=4=4;
#TICKCOUNTS:0.000=4;
#COMBOS:0.000=1;
#SPEEDS:0.000=1.000=0.000=0;
#SCROLLS:0.000=1.000;
#FAKES:;
#LABELS:0.000=Song Start;
#BGCHANGES:;
#KEYSOUNDS:;
#ATTACKS:
;

//---------------dance-single - ----------------
#NOTEDATA:;
#CHARTNAME:;
#STEPSTYPE:dance-single;
#DESCRIPTION:;
#CHARTSTYLE:;
#DIFFICULTY:Beginner;
#METER:1;
#RADARVALUES:0.083137,0.088596,0.000000,0.000000,0.000000,67.000000,0.000000,0.000000,0.000000,0.000000,0.000000,0.000000,0.000000,0.083137,0.088596,0.000000,0.000000,0.000000,67.000000,0.000000,0.000000,0.000000,0.000000,0.000000,0.000000,0.000000;
#CREDIT:;
#NOTES:
1000
0000
0000
0000
,
0100
0000
0000
0000
,
0010
0000
0000
0000
,
0001
0000
0000
0000
,
0100
0000
0000
0000
,
0010
0000
0000
0000
,
1000
0000
0000
0000
,
0001
0000
0000
0000
,
1000
0000
1000
0000
,
1000
0000
0000
0000
,
0001
0000
0001
0000
,
0001
0000
0000
0000
,
0100
0000
0100
0000
,
0100
0000
0000
0000
,
0010
0000
0010
0000
,
0010
0000
0000
0000
,
1000
0000
1000
0000
,
0100
0000
0100
0000
,
0010
0000
0010
0000
,
0001
0000
0000
0000
,
1000
0000
1000
0000
,
0001
0000
0000
0000
,
0001
0000
0001
0000
,
1000
0000
0000
0000
,
0010
0000
0010
0000
,
0100
0000
0000
0000
,
0100
0000
0100
0000
,
0010
0000
0000
0000
,
1000
0000
1000
0000
,
0100
0000
0000
0000
,
0010
0000
0010
0000
,
0001
0000
0000
0000
,
0100
0000
0100
0000
,
0010
0000
0000
0000
,
1000
0000
1000
0000
,
0001
0000
0000
0000
,
1000
0000
0000
0000
,
0100
0000
0000
0000
,
0010
0000
0000
0000
,
0001
0000
0000
0000
,
0100
0000
0000
0000
,
0010
0000
0000
0000
,
1000
0000
0000
0000
,
0001
0000
0000
0000
,
1000
0000
0000
0000
,
0010
0000
0000
0000
,
0100
0000
0000
0000
,
0001
0000
0000
0000
,
0010
0000
0000
0000
,
0100
0000
0000
0000
,
1000
0000
0000
0000
,
0001
0000
0000
0000
;

//---------------dance-single - ----------------
#NOTEDATA:;
#CHARTNAME:;
#STEPSTYPE:dance-single;
#DESCRIPTION:;
#CHARTSTYLE:;
#DIFFICULTY:Easy;
#METER:4;
#RADARVALUES:0.246928,0.205205,0.104231,0.069487,0.000000,179.000000,12.000000,8.000000,0.000000,0.000000,0.000000,0.000000,0.000000,0.246928,0.205205,0.104231,0.069487,0.000000,179.000000,12.000000,8.000000,0.000000,0.000000,0.000000,0.000000,0.000000;
#CREDIT:;
#NOTES:
// measure 0
0000
1000
0100
0010
,  // measure 1
0000
0001
0100
0010
,  // measure 2
0000
1000
0010
0100
,  // measure 3
0000
0001
0010
0100
,  // measure 4
0000
1000
0010
0100
,  // measure 5
0001
0010
0100
1000
,  // measure 6
0000
0001
0010
0100
,  // measure 7
1000
0010
0100
0001
,  // measure 8
0000
1000
1000
0100
,  // measure 9
0100
0020
0001
0031
,  // measure 10
0000
0001
0001
0100
,  // measure 11
0100
0020
1000
1030
,  // measure 12
0000
1000
0100
0010
,  // measure 13
0001
0200
0010
0310
,  // measure 14
0010
0100
0000
0100
,  // measure 15
0010
0010
0010
0000
,  // measure 16
2100
0000
3010
0000
,  // measure 17
0012
0000
0103
0000
,  // measure 18
0102
0000
0013
0000
,  // measure 19
2100
0000
0000
3000
,  // measure 20
1001
1000
0001
0100
,  // measure 21
0010
0010
0100
0000
,  // measure 22
0101
0001
0010
0100
,  // measure 23
1000
1000
0001
0000
,  // measure 24
1010
0010
0100
0001
,  // measure 25
0010
0010
0100
0000
,  // measure 26
0011
0010
0100
1000
,  // measure 27
0010
0010
0100
0000
,  // measure 28
1100
0001
1000
1000
,  // measure 29
0001
1000
0001
0000
,  // measure 30
0101
1000
0001
0001
,  // measure 31
1000
0001
1000
0000
,  // measure 32
1010
0001
1000
1000
,  // measure 33
0001
1000
0001
0000
,  // measure 34
0011
1000
0001
0001
,  // measure 35
1000
0001
1000
0000
,  // measure 36
1000
0010
0100
0001
,  // measure 37
0010
0100
1000
0001
,  // measure 38
0100
0010
0100
0001
,  // measure 39
1000
0100
1000
0010
,  // measure 40
0100
0001
0100
0010
,  // measure 41
1000
0100
0010
0100
,  // measure 42
1000
0010
0100
0001
,  // measure 43
1000
0001
0000
1000
,  // measure 44
0100
0010
0001
0100
,  // measure 45
0010
0100
0001
0010
,  // measure 46
0100
1000
0010
0100
,  // measure 47
0001
1000
0100
0010
,  // measure 48
0100
1000
0010
0100
,  // measure 49
0001
0010
0100
1000
,  // measure 50
0010
0100
0001
1000
,  // measure 51
0100
1000
0001
0200
,  // measure 52
0000
0000
0300
0000
;

//---------------dance-single - ----------------
#NOTEDATA:;
#CHARTNAME:;
#STEPSTYPE:dance-single;
#DESCRIPTION:;
#CHARTSTYLE:;
#DIFFICULTY:Medium;
#METER:5;
#RADARVALUES:0.295321,0.340379,0.243205,0.138975,0.000000,194.000000,28.000000,16.000000,0.000000,0.000000,0.000000,0.000000,0.000000,0.295321,0.340379,0.243205,0.138975,0.000000,194.000000,28.000000,16.000000,0.000000,0.000000,0.000000,0.000000,0.000000;
#CREDIT:;
#NOTES:
0000
1000
0001
0000
0100
0000
0100
0000
,
0000
0001
1000
0000
0100
0000
0100
0000
,
0000
1000
0001
0000
0010
0000
0010
0000
,
0000
0001
1000
0000
0010
0000
0010
0000
,
0000
0100
0001
0000
0010
0000
0100
0000
,
0000
0100
1000
0000
0010
0000
0100
0000
,
0000
0001
1000
0000
0010
0000
0100
0000
,
0002
0010
0100
1003
,
1001
0000
1000
0100
0010
0000
0001
0100
,
0010
0200
1000
0301
,
1001
0000
1000
0010
0100
0000
0001
0010
,
0100
0020
1000
0031
,
1001
0000
0001
0100
0010
0000
1000
0100
,
0010
0200
1000
0310
,
1001
1001
0001
0100
,
0110
1001
1001
1002
,
2003
0000
3020
0000
,
0032
0000
2003
0000
,
3200
0000
0302
0000
,
2000
0000
0000
3003
,
1100
0000
0000
0001
0000
0000
0100
0000
,
0010
0000
0000
0100
0000
0000
0001
0000
,
0011
0000
0000
1000
0000
0000
0010
0000
,
0100
0000
0000
0010
0000
0000
1000
0000
,
1100
0000
0000
0001
0000
0000
1000
0000
,
0001
0000
0000
0100
0000
0000
0001
0000
,
1010
0000
0000
0001
0000
0000
0100
0000
,
0001
0000
0000
1000
0000
0000
0001
0000
,
0011
0000
0000
0010
0000
0000
0100
0000
,
1000
0000
0000
0010
0000
0000
0100
0000
,
0101
0000
0000
0100
0000
0000
0010
0000
,
1000
0000
0000
0100
0000
0000
0010
0000
,
1100
0000
0000
0001
0000
0000
1000
0000
,
0010
0000
0000
1000
0000
0000
0001
0000
,
0101
0000
0000
1000
0000
0000
0010
0000
,
1001
1001
1001
2000
,
3001
0000
0010
0100
0010
0000
0100
0000
,
0000
1000
0010
0000
0100
0000
1000
0000
,
0100
0000
0001
0100
0010
0000
1000
0000
,
0000
0100
1000
0000
0010
0000
0100
0000
,
0001
0000
1000
0010
0100
0000
0001
0000
,
0000
0010
0100
0000
1000
0000
0001
0000
,
0100
0000
0010
0100
0001
0000
0010
0000
,
0110
0110
0110
2001
,
3001
1000
0010
0100
,
0000
0100
0010
0000
0100
0000
0001
0000
,
0010
0100
0010
0100
,
0000
0100
1000
0000
0010
0000
0100
0000
,
0001
1000
0100
1000
,
0000
0001
1000
0000
0010
0000
0100
0000
,
0001
0010
0100
0010
,
1001
1001
1001
2002
,
0000
3003
0000
0000
;

//---------------dance-single - ----------------
#NOTEDATA:;
#CHARTNAME:;
#STEPSTYPE:dance-single;
#DESCRIPTION:;
#CHARTSTYLE:;
#DIFFICULTY:Hard;
#METER:8;
#RADARVALUES:0.474002,0.431147,0.277949,0.304007,0.091202,315.000000,32.000000,35.000000,0.000000,0.000000,0.000000,0.000000,0.000000,0.474002,0.431147,0.277949,0.304007,0.091202,315.000000,32.000000,35.000000,0.000000,0.000000,0.000000,0.000000,0.000000;
#CREDIT:;
#NOTES:
0000
1000
0001
0100
0010
0000
0100
0000
,
0000
0001
0010
0100
1000
1000
0002
0000
,
1003
0000
0010
0100
0010
0000
0100
0000
0001
0000
0000
0000
1000
0000
0000
0000
,
0100
0010
0100
0100
0010
0100
2001
0000
,
3001
0100
0010
0100
0001
0000
0001
1000
,
0000
0100
1000
0010
0100
0001
0001
0000
,
1000
0100
0010
0100
1000
0010
0100
1000
,
0200
0001
0302
0010
0023
0100
0230
0000
,
1300
0000
0000
1000
0010
0100
0001
0000
0000
0001
0100
0010
,
2000
0100
0010
3001
,
1001
0000
0000
0001
0010
0100
1000
0000
0000
1000
0100
0010
,
0002
0010
0100
1003
,
1001
0000
0000
1000
0100
0001
0100
0000
0000
1000
0010
0001
,
0020
0100
0001
1030
,
1000
0100
0010
0001
0000
0000
1001
0000
0000
0001
0100
0010
,
1000
1001
1001
2001
,
3002
0000
0203
0000
,
2300
0000
3002
0000
,
0023
0000
2030
0000
,
0200
0000
0000
0000
0000
0000
0000
3300
,
1100
0000
0100
0010
0000
0010
0001
0000
,
0101
0000
0001
0100
0010
0000
0100
0000
,
1001
0000
0001
0010
0000
0010
0100
0000
,
1100
0000
1000
0010
0100
0000
0010
0000
,
1010
0000
0001
0100
0000
0001
1000
0000
,
0011
0000
1000
0100
0010
0000
0100
0000
,
1001
0000
0001
0100
0000
0010
1000
0000
,
1100
0000
1000
0100
0010
0000
1001
0000
,
0101
0001
0010
0100
1000
0100
0001
0100
,
1000
0010
0100
1000
0100
0001
1000
0000
,
1010
0001
0010
1000
0010
0001
0100
0010
,
0100
0001
1000
0100
0010
0100
1000
0000
,
1001
0001
1000
0010
0100
1000
0100
0001
,
0010
0100
0001
0100
1000
0010
0100
0000
,
1010
0010
0100
0001
0010
0100
1000
0100
,
0011
0101
1010
1002
,
0103
0000
1000
0100
0001
0000
0010
0000
0100
0000
1000
0000
0100
0000
0002
0000
,
0000
0103
1000
0010
1000
1000
0001
0000
,
0100
0000
0010
1000
0100
0000
0010
0000
0001
0000
0100
0000
1000
0000
0200
0000
,
0000
1300
0100
0001
0100
0100
0002
0000
,
1003
0000
0100
0001
0100
0000
1000
0000
0010
0000
0100
0000
0001
0000
0020
0000
,
0000
0130
0001
0100
1000
0010
0100
0000
,
0001
0000
1000
0100
1000
0000
0001
0000
0100
0000
0010
0000
1000
0000
0001
0000
,
1100
1010
0101
0012
,
1003
0010
0001
1000
0100
0001
2000
0000
,
3001
0010
1000
0001
0100
1000
0002
1000
,
2003
0000
3020
0000
0130
0002
0000
0013
,
0200
0000
0301
0100
1000
0010
0100
0001
,
1000
0010
0001
1000
0100
0001
2000
0000
,
3100
0001
0100
1000
0010
0100
0002
1000
,
1003
0100
0020
0000
0130
2000
0000
3010
,
0110
0110
0110
2002
,
0000
3003
0000
0000
;
