#TITLE:ロンドンは夜8時(LON 8PM - TYO 4AM);
#SUBTITLE:;
#ARTIST:TAG meets “eimy”;
#TITLETRANSLIT:London wa Yoru 8 Ji (LON 8PM - TYO 4AM);
#SUBTITLETRANSLIT:;
#ARTISTTRANSLIT:;
#GENRE:;
#CREDIT:;
#BANNER:ロンドンは夜8時 (LON 8PM - TYO 4AM)-banner.png;
#BACKGROUND:ロンドンは夜8時 (LON 8PM - TYO 4AM)-bg.png;
#LYRICSPATH:;
#CDTITLE:;
#MUSIC:London wa Yoru 8 Ji (LON 8PM - TYO 4AM).ogg;
#OFFSET:0.000000;
#SAMPLESTART:75.558006;
#SAMPLELENGTH:15.000000;
#SELECTABLE:YES;
#DISPLAYBPM:181.000000;
#BPMS:0.000000=181.817993
,4.000000=181.003998
;
#STOPS:
;
#BGCHANGES:;
#KEYSOUNDS:;
#ATTACKS:;

//---------------dance-single - ----------------
#NOTES:
     dance-single:
     :
     Hard:
     9:
     0.690689,0.853180,0.200062,0.100031,0.200062,580.000000,556.000000,24.000000,12.000000,0.000000,0.000000,0.690689,0.853180,0.200062,0.100031,0.200062,580.000000,556.000000,24.000000,12.000000,0.000000,0.000000:
0000
0000
0000
0000
,
0000
0000
0000
0000
,
0000
0000
0000
0000
,
0000
0000
0000
0000
,
0000
0000
0000
0000
,
1000
0000
0000
0100
0000
0000
0001
0000
0000
0100
0000
0000
1000
0000
0000
0000
,
0001
1000
0010
0000
1000
0001
0010
0000
,
0001
0001
1000
0010
1000
1000
0001
0010
,
0001
0000
0000
0001
1000
0000
0000
1000
0001
0000
0100
0010
0000
0100
0010
0000
,
1000
0100
0010
1000
0010
0000
0001
0100
,
1000
0000
0001
0010
1000
0100
0001
0100
,
0010
0000
0110
0000
0010
0001
1000
0000
,
1001
0000
0001
1000
0100
1000
0100
0010
,
0001
0000
1000
0000
0000
0010
0000
0000
0001
0000
0000
0010
0000
0000
1000
0000
,
0001
0000
0010
0000
0000
0010
0000
0000
0001
0000
0000
0100
0000
0000
0010
0000
,
1000
0000
0001
0000
0000
0010
0000
0000
1000
0000
0000
0010
0000
0000
0001
0000
,
1000
0000
0010
0000
0000
0010
0000
0000
1000
0000
0000
0100
0000
0000
0010
0000
,
0001
0100
0010
0001
0010
0000
1000
0100
,
0001
0000
1000
0010
0001
0100
1000
0100
,
0010
0000
0110
0000
0010
1000
0001
0000
,
1001
0000
1000
0001
0100
0001
0100
0010
,
1000
0000
0001
0000
0000
0001
0000
0000
0010
0000
0100
0001
0000
0100
1000
0000
,
0001
0000
1000
0000
0000
1000
0000
0000
0010
0000
0100
1000
0000
0100
0001
0000
,
1000
0100
0001
0000
0001
0100
1000
0000
,
1001
0000
0000
0001
1000
0000
0000
1000
0001
0000
0010
0000
0001
1000
0001
1000
,
0001
0100
0010
0000
1000
0100
0000
0100
,
0010
0000
0010
0001
0000
0001
0100
1000
,
0100
0010
1000
0100
1000
0001
0100
0001
,
1000
0100
0010
0001
0000
0001
1000
0001
,
1000
0100
0010
0000
0001
0100
0000
0100
,
0010
0000
0010
1000
0000
1000
0100
0001
,
0100
0010
0001
0100
0001
1000
0100
1000
,
0001
0100
0010
1000
0000
1000
0001
1000
,
0001
0100
0010
0010
1000
0100
0010
0001
,
0100
1000
0100
0010
0000
0010
1000
0001
,
1000
0100
0010
0010
0001
0100
0010
1000
,
0100
0001
0100
0010
0000
0010
0001
1000
,
0001
0100
1000
0100
0001
0100
1000
0100
,
0001
0010
1000
0010
0001
0010
1000
0010
,
0001
0100
0001
0000
1000
0000
1000
0000
0001
0100
0001
0000
1000
0000
1000
0000
,
0001
0010
0100
0000
0010
0100
1000
0000
0010
0000
0100
0000
0001
1000
0001
1000
,
0001
0010
0000
0010
0000
0100
0000
0100
,
0000
1000
0000
1000
0000
0001
0000
0001
,
1000
0010
0000
0110
0000
0100
0000
1001
,
0000
0011
0000
1100
0000
1001
0000
0001
,
1000
0010
0000
0010
0000
0100
0000
0100
,
0000
0001
0000
0001
0000
1000
0000
1000
,
0001
0010
0000
0110
0000
0100
0000
1001
,
0000
1010
0000
0101
0000
1001
0000
1000
,
0001
0000
0000
0100
0000
0000
1000
0000
0000
0100
0000
0000
0001
0000
0000
0000
,
1000
0100
0010
0000
0010
0100
1000
0000
,
0001
0100
0010
1000
0100
0001
0100
1000
,
0001
0001
1000
1000
0010
0100
0001
0000
,
1000
0000
0000
0100
0000
0000
0001
0000
0000
0100
0000
0000
1000
0000
0000
0000
,
0001
0100
0010
0000
0010
0100
0001
0000
,
1000
0100
1000
0000
0001
0000
0001
0000
1000
0100
1000
0000
0001
0000
0001
0000
,
1000
0010
0100
0000
0010
0100
0001
0000
0010
0000
0100
0000
1000
0001
1000
0001
,
1000
0100
1000
0100
0010
0001
0010
0001
,
0100
1000
0100
0001
1000
0100
0001
0100
,
0010
0000
0001
0200
0000
1000
0000
0320
,
0000
0001
0000
1030
1000
0100
0010
0001
,
1001
0000
1000
0200
0000
0001
0000
0320
,
0000
1000
0000
0031
0001
1000
1000
0010
,
1001
0000
0001
0200
0000
1000
0000
0320
,
0000
0001
0000
0100
0000
1030
0100
0010
,
0001
0100
0001
0100
0010
1000
0010
1000
,
0100
0001
0100
1000
0001
0100
1000
0100
,
0010
0000
1000
0200
0000
0001
0000
0320
,
0000
1000
0000
0031
0001
0100
0010
1000
,
1001
0000
0001
0200
0000
1000
0000
0320
,
0000
0001
0000
1030
1000
0001
0001
0010
,
1001
0000
1000
0200
0000
0001
0000
0320
,
0000
1000
0000
0100
0000
0031
0100
0010
,
1000
0000
0000
0000
,
0000
0000
0000
0000
0000
0000
0000
0000
0000
0000
0000
0000
1000
0001
1000
0001
,
1000
0100
0001
0100
0010
0001
0100
0010
,
0001
0010
1000
0001
0010
0001
0010
0000
,
0001
0100
0001
0100
0010
1000
0100
0010
,
1000
0010
0001
1000
0010
1000
0010
0000
,
1000
0100
0010
0001
0100
1000
0100
0001
,
1000
1000
0001
0001
0010
0100
1000
0000
,
0001
0010
0000
0010
0000
0100
0000
0100
,
0000
1000
0000
1000
0000
0001
0000
0001
,
1000
0010
0000
0110
0000
0100
0000
1001
,
0000
0011
0000
1100
0000
1001
0000
0001
,
1000
0100
0010
0001
0010
0100
0010
0001
,
1000
0100
0010
0001
0010
0100
0010
0001
,
1000
0100
1000
0000
0001
0000
0001
0000
1000
0100
1000
0000
0001
0000
0001
0000
,
1000
0100
0010
0000
0100
0010
0001
0000
0100
0000
0010
0000
1000
0001
1000
0001
,
1000
0000
0000
0000
;

//---------------dance-single - ----------------
#NOTES:
     dance-single:
     :
     Medium:
     8:
     0.635910,0.704801,0.216734,0.150046,0.058351,534.000000,508.000000,26.000000,18.000000,0.000000,0.000000,0.635910,0.704801,0.216734,0.150046,0.058351,534.000000,508.000000,26.000000,18.000000,0.000000,0.000000:
0000
0000
0000
0000
,
0000
0000
0000
0000
,
0000
0000
0000
0000
,
0000
0000
0000
0000
,
0000
0000
0000
0000
,
0001
0000
0000
0100
0000
0000
1000
0000
0000
0100
0000
0000
0001
0000
0000
0000
,
1000
0100
0010
0000
0010
0100
1000
0000
,
0001
0100
0010
0000
0010
0100
0001
0000
,
1000
0000
0000
1000
0001
0000
0000
0001
1000
0000
0100
0010
0000
0100
0010
0000
,
0001
0000
1000
0010
0100
0000
0110
0000
,
0100
0001
0010
0100
1000
0000
0001
0100
,
0010
0000
1001
0000
1000
0100
1000
0100
,
0010
0000
0100
1000
0001
0100
1000
0100
,
0001
0010
0100
0000
0010
0100
1000
0000
,
0001
0100
1000
0000
1000
0100
0001
0000
,
1000
0100
0010
0000
0100
0010
0001
0000
,
1000
0010
0001
0010
1000
0001
1000
0001
,
1000
0000
0001
0010
0100
0000
0110
0000
,
0100
1000
0010
0100
0001
0000
1000
0100
,
0010
0000
1001
0000
0001
0100
0001
0100
,
0010
0000
0100
0001
1000
0100
0001
0100
,
1000
0010
0100
0000
0010
0100
0001
0000
,
1000
0100
0001
0000
0001
0100
1000
0000
,
0001
0100
0010
0000
0100
0010
1000
0000
,
1001
0000
0000
1000
0001
0000
0000
0001
1000
0000
0100
0000
0001
0000
0100
0000
,
1000
0001
0100
0000
0010
1000
0000
1000
,
0100
0000
0100
0010
0000
0010
0001
1000
,
0001
0100
0010
0000
0010
1000
0000
1000
,
0001
0000
0001
0010
0000
0010
0001
0100
,
0001
1000
0100
0000
0010
0001
0000
0001
,
0100
0000
0100
0010
0000
0010
1000
0001
,
1000
0100
0010
0000
0010
0001
0000
0001
,
1000
0000
1000
0010
0000
0010
1000
0100
,
1000
0001
0001
0100
1000
0100
0001
0010
,
0001
1000
0100
1000
0000
1000
0001
0010
,
0001
1000
1000
0100
0001
0100
1000
0010
,
1000
0001
0100
0001
0000
0001
1000
0010
,
1000
0100
0001
0100
1000
0100
0001
0100
,
1000
0010
0001
0010
1000
0010
0001
0010
,
1000
0100
0010
0100
1000
0100
0010
0100
,
1000
0001
0100
0010
1000
0010
0100
0001
,
1000
0100
0000
0100
0000
0010
0000
0010
,
0000
0001
0000
0001
0000
1000
0000
1000
,
0001
0100
0000
0110
0000
0010
0000
1001
,
0000
0011
0000
1100
0000
1001
0000
1000
,
0001
0100
0000
0100
0000
0010
0000
0010
,
0000
1000
0000
1000
0000
0001
0000
0001
,
1000
0100
0000
0110
0000
0010
0000
1001
,
0000
1010
0000
0101
0000
1001
0000
0001
,
1000
0000
0000
0100
0000
0000
0001
0000
0000
0100
0000
0000
1000
0000
0000
0000
,
0001
0100
0010
0000
0010
0100
0001
0000
,
1000
0100
0010
0000
0010
0100
1000
0000
,
0001
0100
0010
1000
0100
1000
0100
0010
,
0001
0000
0000
0100
0000
0000
1000
0000
0000
0100
0000
0000
0001
0000
0000
0000
,
1000
0100
0010
0000
0010
0100
1000
0000
,
0001
0100
0010
0100
0001
0100
0010
0100
,
0001
1000
0100
0010
0001
0010
0100
1000
,
0001
0000
1000
0100
0000
0110
0000
0100
,
1000
0001
0000
0001
1000
0010
0000
0010
,
1000
0000
0001
0200
0000
1000
0000
0320
,
0000
0001
0000
1030
1000
0100
0010
0001
,
1001
0000
1000
0200
0000
0001
0000
0320
,
0000
1000
0000
0031
0001
1000
1000
0010
,
1001
0000
0001
0200
0000
2300
0000
3020
,
0000
0032
0000
2003
0000
3010
0100
0001
,
1000
0000
0001
0100
0000
0110
0000
0100
,
0001
1000
0000
1000
0001
0010
0000
0010
,
0001
0000
1000
0200
0000
0001
0000
0320
,
0000
1000
0000
0031
0001
0100
0010
1000
,
1001
0000
0001
0200
0000
1000
0000
0320
,
0000
0001
0000
1030
1000
0001
0001
0010
,
1001
0000
1000
0200
0000
0302
0000
0023
,
0000
2030
0000
3002
0000
0013
0100
1000
,
0001
0000
0000
0000
,
0000
0000
0000
0000
0000
0000
0000
0000
0000
0000
0000
0000
0001
1000
0001
1000
,
0001
0100
0001
0100
0010
1000
0010
1000
,
0100
0001
0100
0010
0001
0100
0010
0000
,
1000
0100
1000
0100
0010
0001
0010
0001
,
0100
1000
0100
0010
1000
0100
0010
0000
,
0001
0100
0010
0000
0010
0100
0001
0000
,
1000
0100
0010
0001
0100
0001
0100
0010
,
1000
0100
0000
0100
0000
0010
0000
0010
,
0000
0001
0000
0001
0000
1000
0000
1000
,
0001
0100
0000
0110
0000
0010
0000
1001
,
0000
0011
0000
1100
0000
1001
0000
1000
,
0001
0100
0010
0000
0010
0100
0001
0000
,
1000
0100
0010
0000
0010
0100
1000
0000
,
0001
0100
0010
0100
0001
0100
0010
0100
,
0001
1000
0100
0010
0001
0010
0100
1000
,
0001
0000
0000
0000
;

//---------------dance-single - ----------------
#NOTES:
     dance-single:
     :
     Easy:
     5:
     0.507299,0.667706,0.358444,0.116703,0.016672,426.000000,383.000000,43.000000,14.000000,0.000000,0.000000,0.507299,0.667706,0.358444,0.116703,0.016672,426.000000,383.000000,43.000000,14.000000,0.000000,0.000000:
// measure 0
0000
0000
0000
0000
,  // measure 1
0000
0000
0000
0000
,  // measure 2
0000
0000
0000
0000
,  // measure 3
0000
0000
0000
0000
,  // measure 4
0000
0000
0000
0000
,  // measure 5
1002
0100
1000
0013
,  // measure 6
2001
0100
0001
3010
,  // measure 7
1001
0100
1001
0010
,  // measure 8
1001
0011
1100
1001
,  // measure 9
0001
0001
1000
1000
,  // measure 10
0100
0001
0100
1000
,  // measure 11
0010
0010
0100
0100
,  // measure 12
0001
0010
1000
0010
,  // measure 13
0001
0100
0001
0100
,  // measure 14
0010
1000
0010
1000
,  // measure 15
0100
0100
1000
0001
,  // measure 16
0100
0100
0010
0010
,  // measure 17
1000
1000
0001
0001
,  // measure 18
0100
1000
0100
0001
,  // measure 19
0010
0010
0100
0100
,  // measure 20
1000
0010
0001
0010
,  // measure 21
1000
0100
1000
0100
,  // measure 22
0010
0001
0010
0001
,  // measure 23
0100
0100
0001
1000
,  // measure 24
0100
0100
0010
0010
,  // measure 25
0001
0100
1000
0100
,  // measure 26
0001
0000
0010
0000
0100
0000
1000
0001
,  // measure 27
1000
0100
0001
0100
,  // measure 28
1000
0000
0010
0000
0100
0000
0001
1000
,  // measure 29
0001
0010
0100
0010
,  // measure 30
0001
0000
0010
0000
0100
0000
1000
0001
,  // measure 31
1000
0010
0100
0010
,  // measure 32
1000
0000
0010
0000
0100
0000
0001
1000
,  // measure 33
0001
0100
1000
0001
,  // measure 34
0010
0000
1000
0000
0100
0000
0010
0001
,  // measure 35
1000
0100
0001
1000
,  // measure 36
0010
0000
0001
0000
0100
0000
0010
1000
,  // measure 37
0001
0010
0100
1000
,  // measure 38
0001
0010
0100
1000
,  // measure 39
0001
1000
0001
0000
1000
0001
1000
0000
,  // measure 40
1001
1010
0101
1001
,  // measure 41
0001
0100
0000
0100
0000
0010
0000
0010
,  // measure 42
0000
1000
0000
1000
0000
0001
0000
0001
,  // measure 43
1000
0100
0000
0110
0000
0010
0000
1001
,  // measure 44
0000
1010
0000
0101
0000
1001
0000
0001
,  // measure 45
1000
0100
0000
0100
0000
0010
0000
0010
,  // measure 46
0000
0001
0000
0001
0000
1000
0000
1000
,  // measure 47
0001
0100
0000
0110
0000
0010
0000
1001
,  // measure 48
0000
0011
0000
1100
0000
1001
0000
1000
,  // measure 49
0001
0000
0000
0001
0000
0000
0001
0000
0000
0001
0000
0000
0001
0000
0000
0000
,  // measure 50
1000
1000
0010
0010
,  // measure 51
1000
0100
0001
0100
,  // measure 52
1000
0001
0100
0000
0001
1000
0100
0000
,  // measure 53
1000
0000
0000
1000
0000
0000
1000
0000
0000
1000
0000
0000
1000
0000
0000
0000
,  // measure 54
0001
0001
0010
0010
,  // measure 55
0001
1000
0001
0000
1000
0001
1000
0000
,  // measure 56
1001
0011
1100
1001
,  // measure 57
0001
0100
1000
0000
1000
0100
0001
0000
,  // measure 58
0010
0000
0100
0000
1000
0001
1000
0000
,  // measure 59
1001
0000
0001
0200
0000
1000
0000
0320
,  // measure 60
0000
0001
0000
1030
0100
1000
0100
0000
,  // measure 61
1001
0000
1000
0200
0000
0001
0000
0320
,  // measure 62
0000
1000
0000
0031
0100
0001
0100
0000
,  // measure 63
1001
0000
0001
0200
0000
1000
0000
0320
,  // measure 64
0000
0001
0000
0100
0000
1030
0000
0001
,  // measure 65
1000
0100
0001
0000
0001
0100
1000
0000
,  // measure 66
0010
0000
0100
0000
0001
1000
0001
0000
,  // measure 67
1001
0000
1000
0200
0000
0001
0000
0320
,  // measure 68
0000
1000
0000
0031
0100
0001
0100
0000
,  // measure 69
1001
0000
0001
0200
0000
1000
0000
0320
,  // measure 70
0000
0001
0000
1030
0100
1000
0100
0000
,  // measure 71
1001
0000
1000
0200
0000
0001
0000
0320
,  // measure 72
0000
1000
0000
0100
0000
0031
0000
1000
,  // measure 73
0001
0000
0000
0000
,  // measure 74
0000
0000
0000
0000
,  // measure 75
0001
1000
0100
0000
0100
1000
0001
0000
,  // measure 76
1000
0010
0100
0000
0010
0100
0001
0000
,  // measure 77
1000
0001
0100
0000
0100
0001
1000
0000
,  // measure 78
0001
0010
0100
0000
0010
0100
1000
0000
,  // measure 79
0001
0100
1000
0100
,  // measure 80
0001
1000
0100
0000
1000
0001
0100
0000
,  // measure 81
0001
0100
0000
0100
0000
0010
0000
0010
,  // measure 82
0000
1000
0000
1000
0000
0001
0000
0001
,  // measure 83
1000
0100
0000
0110
0000
0010
0000
1001
,  // measure 84
0000
1010
0000
0101
0000
1001
0000
0001
,  // measure 85
1000
0100
0010
0000
0010
0100
1000
0000
,  // measure 86
0001
0100
0010
0000
0010
0100
0001
0000
,  // measure 87
1000
0001
1000
0000
0001
1000
0001
0000
,  // measure 88
1001
0000
0011
0000
1100
0000
1001
0110
,  // measure 89
1001
0000
0000
0000
;
