#TITLE:LAS VEGAS;
#SUBTITLE:;
#ARTIST:MARTIN STENMARCK;
#TITLETRANSLIT:;
#SUBTITLETRANSLIT:;
#ARTISTTRANSLIT:;
#GENRE:;
#CREDIT:;
#BANNER:Las Vegas.png;
#BACKGROUND:Las Vegas-bg.png;
#LYRICSPATH:;
#CDTITLE:;
#MUSIC:Las Vegas.ogg;
#OFFSET:-0.225000;
#SAMPLESTART:51.995079;
#SAMPLELENGTH:14.999990;
#SELECTABLE:YES;
#BPMS:0.000000=128.000000
;
#STOPS:
;
#BGCHANGES:;
#KEYSOUNDS:;
#ATTACKS:;

//---------------dance-single - ----------------
#NOTES:
     dance-single:
     :
     Hard:
     7:
     0.411476,0.419416,0.252661,0.293086,0.045479,285.000000,260.000000,25.000000,29.000000,0.000000,0.000000,0.411476,0.419416,0.252661,0.293086,0.045479,285.000000,260.000000,25.000000,29.000000,0.000000,0.000000:
// measure 0
0000
0000
0000
0000
,  // measure 1
0000
0000
0000
0000
,  // measure 2
1000
0000
0000
0001
1000
0000
0000
0001
,  // measure 3
1000
0001
0000
1000
0000
0001
1000
0001
,  // measure 4
1000
0001
0010
0100
1000
0100
0010
0001
,  // measure 5
0100
0001
0010
0200
0000
0000
0300
0000
,  // measure 6
0000
1000
0100
0010
0001
1000
0010
0100
,  // measure 7
0010
0000
0000
1000
0000
0000
0002
0000
0000
0000
0000
0000
0003
0000
0000
0000
,  // measure 8
0000
1000
0001
0100
0001
0010
0100
1000
,  // measure 9
0010
0000
0000
0100
0000
0000
0002
0000
0000
0000
0000
0000
0003
0000
0000
0000
,  // measure 10
0000
1000
0001
0010
0100
1000
0002
2000
,  // measure 11
0000
0000
0000
3003
,  // measure 12
1001
1000
0001
0010
0100
1000
0010
0100
,  // measure 13
0001
1000
0000
2001
0000
0000
3001
0000
,  // measure 14
1000
0010
0100
0010
1000
0001
0100
0001
,  // measure 15
0010
0100
2000
0200
3300
0020
0002
0033
,  // measure 16
0010
0001
0010
0100
1000
0010
0100
0010
,  // measure 17
1000
0001
0000
0100
0000
0002
0000
1003
,  // measure 18
0001
1000
0010
0100
0001
0010
0100
2002
,  // measure 19
0000
0000
0000
3003
,  // measure 20
1001
0000
0001
0010
0100
0000
1000
0100
,  // measure 21
0010
0001
0000
0020
0000
0000
0031
0010
,  // measure 22
0000
0001
0010
0100
1000
0010
0100
0010
,  // measure 23
1000
0001
0000
2000
0000
0000
3001
0000
,  // measure 24
0101
0000
1000
0010
0100
0000
0010
0100
,  // measure 25
0001
1000
0000
0100
0000
0010
0000
0001
,  // measure 26
0000
0011
0011
0000
1100
1100
0000
2002
,  // measure 27
0000
0000
0000
3003
,  // measure 28
1001
0000
0000
0000
0001
0000
0000
1000
0010
0000
0100
0000
0010
0000
1000
0000
,  // measure 29
0001
0100
0000
0101
0000
0100
0001
0000
,  // measure 30
1000
0100
0010
0001
0000
0010
0100
1000
,  // measure 31
0000
1100
0000
0110
0000
0010
0001
0200
,  // measure 32
0000
0301
0000
0000
0000
0001
0100
0001
,  // measure 33
0000
1000
0002
0000
0000
0000
0000
0000
1003
0000
0000
0000
0000
0000
1000
0000
,  // measure 34
0010
0100
0000
0110
0000
1001
0000
0220
,  // measure 35
0000
0000
0000
0330
,  // measure 36
0010
0000
0000
0000
1000
0000
0000
0010
1000
0000
0001
0000
0000
0000
0100
0000
,  // measure 37
0000
0000
0001
0000
0010
0000
0000
0100
0010
0000
0100
0000
0000
0000
0010
0000
,  // measure 38
0000
0000
0001
0000
0010
0000
0000
0001
0010
0000
0100
0000
0000
0000
1000
0000
,  // measure 39
0100
0010
0000
0011
0000
0010
0001
2000
,  // measure 40
0000
3010
1000
0002
0000
0103
0000
0101
,  // measure 41
0000
0001
0010
0100
1000
0200
0000
0300
,  // measure 42
1000
0100
0010
0001
1000
0010
0100
0220
,  // measure 43
0000
0000
0000
0000
0330
0010
1000
0002
,  // measure 44
0000
0000
0003
0000
1001
0000
0000
0001
1000
0000
0010
0000
0100
0000
0010
0000
,  // measure 45
1000
0001
0000
0101
0000
0001
0010
0000
,  // measure 46
0100
1000
0100
0010
0000
0001
0010
0100
,  // measure 47
0000
1000
0100
0010
0000
0001
0010
0200
,  // measure 48
0000
0310
0000
0000
0000
0010
0001
1000
,  // measure 49
0000
0001
2000
0000
0000
0000
0000
0000
3001
0000
0000
0000
0000
0000
0001
0000
,  // measure 50
1000
0010
0000
0110
0000
1001
0000
0110
,  // measure 51
0000
0001
1000
0001
1000
0001
1000
0100
;

//---------------dance-single - ----------------
#NOTES:
     dance-single:
     :
     Beginner:
     1:
     0.128496,0.154628,0.030319,0.080851,0.000000,89.000000,86.000000,3.000000,8.000000,0.000000,0.000000,0.128496,0.154628,0.030319,0.080851,0.000000,89.000000,86.000000,3.000000,8.000000,0.000000,0.000000:
0000
0000
0000
0000
,
0000
0000
0000
0000
,
0000
0000
0000
0000
,
0000
0000
0000
0000
,
0000
0010
0000
0010
,
0000
1000
0000
1000
,
0000
0001
0000
0001
,
0000
0100
0000
0100
,
0000
0010
0000
0010
,
0000
1000
0000
0001
,
0000
0100
0000
0020
,
0000
0000
0000
0030
,
0000
0100
0000
0010
,
0000
1000
0000
0001
,
0000
0100
0000
0010
,
0000
1000
0000
0001
,
0000
1000
0000
0100
,
0000
1000
0000
0010
,
0000
1000
0000
0002
,
0000
0000
0003
0000
,
0100
0000
0100
0000
,
0010
0000
0010
0000
,
1000
0000
1000
0000
,
0001
0000
0001
0000
,
0100
0000
0100
0000
,
0010
0000
0100
0000
,
0020
0000
0030
0000
,
0220
0000
0330
0000
,
0000
0001
0000
1000
,
0000
0100
0000
1000
,
0000
0010
0000
1000
,
0000
0100
0000
1000
,
0000
0001
0000
0010
,
0000
0001
0000
1000
,
1000
0000
0000
0000
,
2002
0000
3003
0000
,
0000
0010
0000
0010
,
0000
0100
0000
0100
,
0000
0001
0000
1000
,
0000
0001
0000
0010
,
0000
0001
0000
1000
,
0000
0100
0000
1000
,
0000
0001
0000
0001
,
0002
0000
0003
0000
,
0001
0000
0010
0000
,
0100
0000
1000
0000
,
0010
0000
1000
0000
,
0001
0000
0100
0000
,
0001
0000
1000
0000
,
0010
0000
1000
0000
,
0100
0000
0100
0000
,
0110
0000
0000
0000
;

//---------------dance-single - ----------------
#NOTES:
     dance-single:
     :
     Medium:
     5:
     0.298861,0.334207,0.070745,0.070745,0.010106,207.000000,200.000000,7.000000,7.000000,0.000000,0.000000,0.298861,0.334207,0.070745,0.070745,0.010106,207.000000,200.000000,7.000000,7.000000,0.000000,0.000000:
0000
0000
0000
0000
,
0000
0000
0000
0000
,
0000
0000
0000
0000
,
0000
0000
0000
0000
,
0000
1000
0001
0000
0100
0000
0010
0000
,
1000
0001
1000
0001
0000
0000
0000
0000
,
0000
1000
0001
0000
0100
0000
0010
0000
,
1000
0000
0000
0001
0000
0000
1000
0000
0000
0000
0000
0000
0000
0000
0000
0000
,
0000
0100
0010
0000
0001
0000
0010
0000
,
0100
0000
0000
0010
0000
0000
0100
0000
0000
0000
0000
0000
0000
0000
0000
0000
,
0000
0010
0001
1000
0001
1000
0001
2000
,
0000
0000
0000
3000
,
0001
0000
1000
0000
0100
0010
0100
0000
,
1000
0000
0001
0000
0100
0001
0010
0000
,
0100
0000
1000
0000
0010
1000
0010
0000
,
1000
0000
0001
1000
0000
0001
1000
0000
,
0001
0000
0100
0000
0010
1000
0100
0000
,
0010
0000
0001
0000
0010
0001
0000
0100
,
0001
1000
0001
1000
0001
1000
0001
2000
,
0000
0000
0000
3000
,
0001
0000
1000
0000
0100
0000
0010
0100
,
0010
0100
0000
0010
0000
0000
0000
0100
,
0000
1000
0100
0000
0010
0000
0001
0000
,
0010
0001
0000
0010
0000
0000
0001
0000
,
1000
0000
0001
1000
0001
0000
0000
0100
,
0010
0100
0000
0010
0000
1000
0000
0001
,
0000
1000
1000
0000
0001
0001
0000
2002
,
0000
0000
0000
3003
,
0001
0000
1000
0000
0100
0010
0100
0010
,
0100
1000
0000
0100
0000
0000
1000
0000
,
0100
1000
0100
1000
0000
0001
0010
0001
,
0000
1000
0000
0001
0000
0100
0010
0100
,
0000
0010
0000
0000
0000
1000
0001
1000
,
0000
0001
0000
0000
0000
0000
0000
0100
,
0001
1000
0000
1001
0000
1001
0000
2002
,
0000
0000
3003
0000
,
0001
0000
0100
0000
0010
1000
0000
0100
,
0000
0000
0010
0000
0001
0010
0000
0001
,
0000
0000
1000
0000
0001
1000
0000
0010
,
1000
0010
0000
1000
0000
0000
0000
0010
,
0000
1000
0010
0100
0000
0001
0000
0010
,
0000
0100
0010
0001
1000
0010
0000
0000
,
0000
1000
0010
0100
0001
0010
0100
2000
,
0000
0000
0000
3000
,
0100
0000
1000
0000
0010
1000
0001
0100
,
0001
0100
0000
0001
0000
0000
1000
0000
,
0100
1000
0100
1000
0000
0100
0010
0100
,
0000
0010
0001
0010
0000
0001
1000
0001
,
0000
0100
0000
0000
0000
0010
1000
0001
,
0000
0100
0000
0000
0000
0000
0000
0001
,
0100
0010
0000
0110
0000
0110
0000
0110
;

//---------------dance-single - ----------------
#NOTES:
     dance-single:
     :
     Easy:
     4:
     0.232448,0.257082,0.080851,0.101064,0.000000,161.000000,153.000000,8.000000,10.000000,0.000000,0.000000,0.232448,0.257082,0.080851,0.101064,0.000000,161.000000,153.000000,8.000000,10.000000,0.000000,0.000000:
0000
0000
0000
0000
,
0000
0000
0000
0000
,
0000
0000
0000
0000
,
0000
0000
0000
0000
,
0100
0100
0010
0010
,
1000
1000
0002
0003
,
0100
0100
0001
0001
,
0010
0010
0200
0300
,
1000
1000
0100
0100
,
0010
0010
0002
0003
,
1000
0000
0001
0000
0100
0000
0010
2000
,
0000
0000
0000
3000
,
0001
1000
0010
0100
,
0010
1000
0002
0003
,
0100
0001
0010
0100
,
1000
0100
2000
3000
,
0010
1000
0001
0100
,
0001
0010
0002
0003
,
1000
0000
0001
0000
0100
0000
0010
2000
,
0000
0000
0000
3000
,
0001
0100
0001
0000
,
1000
0100
1000
0000
,
0010
0100
0010
1000
,
0001
0100
0001
0000
,
0010
0001
0010
0000
,
0100
1000
0100
0010
,
0000
0001
0000
0000
1000
0000
0000
1001
,
0000
0000
0000
0000
,
0001
0010
0100
1000
,
0010
1000
0001
0100
,
0001
0010
0100
1000
,
0010
0100
0001
1000
,
0100
1000
0010
0100
,
0001
1000
0100
0010
,
0001
0000
0000
1000
0000
0001
0000
2000
,
0000
0000
0000
3000
,
0001
1001
1000
0000
,
0100
1100
1000
0000
,
0010
1010
1000
0000
,
0001
0100
0001
0000
,
0010
0011
0001
0000
,
1000
1001
0001
0000
,
1000
1100
0100
0000
,
0020
0000
0000
0030
,
0010
0001
1000
0010
,
0100
0010
1000
0100
,
1000
0001
0100
0001
,
0010
0100
0010
0001
,
1000
0010
0100
0010
,
1000
0001
0100
0001
,
1000
0000
0000
0001
0000
0001
0000
1001
;
