#TITLE:I Took A Pill In Ibiza;
#SUBTITLE:(SeeB Remix);
#ARTIST:Mike Posner;
#TITLETRANSLIT:;
#SUBTITLETRANSLIT:;
#ARTISTTRANSLIT:;
#GENRE:;
#CREDIT:;
#BANNER:I Took A Pill In Ibiza (SeeB Remix).png;
#BACKGROUND:I Took A Pill In Ibiza (SeeB Remix)-bg.png;
#LYRICSPATH:;
#CDTITLE:;
#MUSIC:I Took A Pill In Ibiza (SeeB Remix).ogg;
#OFFSET:-1.070000;
#SAMPLESTART:57.540565;
#SAMPLELENGTH:19.823000;
#SELECTABLE:YES;
#BPMS:0.000000=102.000000
,64.000000=51.000000
,80.000000=102.000000
;
#STOPS:
;
#BGCHANGES:;
#KEYSOUNDS:;
#ATTACKS:;

//---------------dance-single - ----------------
#NOTES:
     dance-single:
     :
     Hard:
     6:
     0.274032,0.356561,0.308108,0.159024,0.144115,193.000000,162.000000,31.000000,16.000000,0.000000,0.000000,0.274032,0.356561,0.308108,0.159024,0.144115,193.000000,162.000000,31.000000,16.000000,0.000000,0.000000:
// measure 0
0000
0000
0000
0000
,  // measure 1
0000
0000
0000
0000
,  // measure 2
0000
0000
0000
0000
,  // measure 3
0000
0000
0000
0000
,  // measure 4
0001
0000
0000
0100
0000
0000
1000
0000
0000
0010
0000
0000
0001
0000
0000
0000
,  // measure 5
1000
0000
0000
0001
0000
0000
0100
0000
0000
0010
0000
0000
0110
0000
0000
0000
,  // measure 6
1000
0000
0000
0100
0000
0000
0001
0000
0000
0010
0000
0000
1000
0000
0000
0000
,  // measure 7
0001
0000
0000
1000
0000
0000
0100
0000
0000
0010
0000
0000
0110
0000
0000
0000
,  // measure 8
2000
0000
0000
0001
0000
0000
3010
0000
0000
0000
1000
0000
0101
0000
0000
0000
,  // measure 9
2000
0000
0000
0001
0000
0000
3100
0000
0000
0000
1000
0000
0011
0000
0000
0000
,  // measure 10
1000
0010
0001
0100
,  // measure 11
0010
0100
0001
0010
,  // measure 12
2000
0000
0000
0001
0000
0000
3100
0000
0000
0000
1000
0000
0011
0000
0000
0000
,  // measure 13
2000
0000
0000
0001
0000
0000
3010
0000
0000
0000
1000
0000
0101
0000
0000
0000
,  // measure 14
1000
0100
0001
0010
,  // measure 15
0100
0010
0001
0100
,  // measure 16
0020
0000
0000
0000
0000
0000
0000
0000
0000
0000
0000
0000
0100
0000
0000
0031
0000
0000
0000
0000
0000
0000
0000
0000
0000
0000
0000
0000
0001
0000
0000
0000
,  // measure 17
0100
0000
0000
0100
0010
0000
0000
0110
,  // measure 18
2000
0001
0100
0010
3002
0010
0100
1000
,  // measure 19
0023
0001
0100
1000
0230
0000
0000
0300
,  // measure 20
0110
0011
0101
1001
,  // measure 21
1010
0000
0000
0000
1100
0000
0000
0000
1000
0001
0100
0000
0001
1000
0010
0000
,  // measure 22
1100
0101
0011
1001
,  // measure 23
0101
0101
0011
0011
,  // measure 24
1001
0101
0011
1001
,  // measure 25
1010
0000
0000
0000
1100
0000
0000
0000
1000
0001
0100
0000
0001
1000
0010
0000
,  // measure 26
1100
0101
0011
1001
,  // measure 27
0020
0000
0000
0000
,  // measure 28
0130
0000
0000
0000
0010
0000
0000
0000
1000
0000
0010
1000
0000
0000
0001
0000
,  // measure 29
0000
0000
1000
0000
0000
0000
0100
0000
0000
1000
0100
0000
0000
0100
0010
0000
,  // measure 30
0100
0000
1000
0000
0001
0000
0000
0000
0100
0000
0001
0100
0000
0000
0010
0000
,  // measure 31
0020
0000
0000
0001
0000
0000
0100
0000
2030
0000
0000
0200
0000
0000
3300
0000
,  // measure 32
0010
0000
0000
0000
0100
0000
0000
0000
1000
0000
0100
1000
0000
0000
0001
0000
,  // measure 33
0000
0000
1000
0000
0000
0000
0010
0000
0000
1000
0010
0000
0000
0010
0100
0000
,  // measure 34
0010
0000
1000
0000
0001
0000
0000
0000
0010
0000
0001
0010
0000
0000
0100
0000
,  // measure 35
0200
0000
0000
0001
0000
0000
0010
0000
2300
0000
0000
0002
0000
0000
3003
0000
;

//---------------dance-single - ----------------
#NOTES:
     dance-single:
     :
     Medium:
     3:
     0.170382,0.195425,0.000000,0.228596,0.069573,120.000000,120.000000,0.000000,23.000000,0.000000,0.000000,0.170382,0.195425,0.000000,0.228596,0.069573,120.000000,120.000000,0.000000,23.000000,0.000000,0.000000:
0000
0000
0000
0000
,
0000
0000
0000
0000
,
0000
0000
0000
0000
,
0000
0000
0000
0000
,
1000
0000
0000
0010
0000
0000
0100
0000
0000
1000
0000
0000
0100
0000
0000
0000
,
0001
0000
0000
0100
0000
0000
0001
0000
0000
1000
0000
0000
0100
0000
0000
0000
,
1000
0000
0000
0100
0000
0000
0010
0000
0000
1000
0000
0000
0010
0000
0000
0000
,
0001
0000
0000
0010
0000
0000
0001
0000
0000
1000
0000
0000
0010
0000
0000
0000
,
0200
0000
0000
1000
0000
0000
0001
0000
0000
0000
0000
0000
0001
0000
0000
0000
,
0320
0000
0000
0001
0000
0000
1000
0000
0000
0000
0000
0000
1000
0000
0000
0000
,
0230
0001
0000
1000
,
0320
1000
0000
0001
,
2030
0000
0000
0001
0000
0000
0100
0000
0000
0000
0000
0000
0010
0000
0000
0000
,
3002
0000
0000
1000
0000
0000
0010
0000
0000
0000
0000
0000
0100
0000
0000
0000
,
2003
0001
0000
0100
,
3020
0000
0000
0000
,
2030
0000
0000
0000
0000
0000
0000
0000
0000
0000
0000
0000
0100
0000
0000
3100
0000
0000
0000
0000
0000
0000
0000
0000
0000
0000
0000
0000
0100
0000
0000
0000
,
0010
0000
0000
0010
0001
0000
0000
1000
,
0002
0000
0000
0000
0000
0000
0000
0000
0000
0000
0000
0000
0100
0000
0000
0013
0000
0000
0000
0000
0000
0000
0000
0000
0000
0000
0000
0000
0010
0000
0000
0000
,
0001
0000
0000
0002
2000
0000
0000
3003
,
0001
0100
0010
0010
,
0010
0100
0002
0023
,
0130
0010
0001
0001
,
0200
0001
0010
1000
,
0310
0100
0001
0001
,
0001
0100
0002
2003
,
3100
0010
0100
0100
,
2000
0000
0000
3000
,
0001
0100
1000
1000
,
1000
0100
0002
2003
,
3001
0010
1000
0100
,
0001
0001
1000
1000
,
0001
0010
1000
1000
,
1000
0010
0002
2003
,
3001
0100
1000
0010
,
0002
0000
0000
0103
;

//---------------dance-single - ----------------
#NOTES:
     dance-single:
     :
     Easy:
     2:
     0.154764,0.159893,0.000000,0.168963,0.009939,109.000000,109.000000,0.000000,17.000000,0.000000,0.000000,0.154764,0.159893,0.000000,0.168963,0.009939,109.000000,109.000000,0.000000,17.000000,0.000000,0.000000:
0000
0000
0000
0000
,
0000
0000
0000
0000
,
0000
0000
0000
0000
,
0000
0000
0000
0000
,
1000
0100
0001
0010
,
0001
0100
1000
0001
,
1000
0010
0001
0100
,
0001
0010
1000
0001
,
2000
0000
0000
3001
0000
0000
0000
0000
,
2000
0000
0000
3010
0000
0000
0000
0000
,
1000
0010
0100
0000
,
0100
0010
1000
0000
,
0002
0000
0000
1003
0000
0000
0000
0000
,
0002
0000
0000
0013
0000
0000
0000
0000
,
0001
0010
0100
0000
,
0100
0010
0001
1000
,
0002
0000
0000
0000
0000
0000
0000
0000
0000
0000
0000
0000
0000
0000
0000
0103
0000
0000
0000
0000
0000
0000
0000
0000
0000
0000
0000
0000
0100
0000
0000
0000
,
0010
0000
0000
0010
1000
0000
0000
0001
,
2000
0000
0000
0000
0000
0000
0000
0000
0000
0000
0000
0000
0000
0000
0000
3100
0000
0000
0000
0000
0000
0000
0000
0000
0000
0000
0000
0000
0100
0000
0000
0000
,
0010
0000
0000
0010
0002
0000
0000
0003
,
1000
1000
1000
1000
,
1000
1000
2000
3200
,
0310
0010
0010
0010
,
0010
0001
0100
0010
,
0100
0100
0100
0100
,
0100
0100
0200
0320
,
1030
1000
1000
1000
,
0002
0000
0000
0000
0000
0000
0000
0003
,
1000
0100
0010
0010
,
0010
0100
2000
3002
,
0103
0010
0001
0010
,
0100
0100
0001
0001
,
0010
0100
1000
1000
,
1000
0100
0020
0230
,
1300
0010
0001
0010
,
2000
0000
0000
3001
;

//---------------dance-single - ----------------
#NOTES:
     dance-single:
     :
     Beginner:
     1:
     0.075252,0.088830,0.000000,0.129207,0.000000,53.000000,53.000000,0.000000,13.000000,0.000000,0.000000,0.075252,0.088830,0.000000,0.129207,0.000000,53.000000,53.000000,0.000000,13.000000,0.000000,0.000000:
0000
0000
0000
0000
,
0000
0000
0000
0000
,
0000
0000
0000
0000
,
0000
0000
0000
0000
,
1000
0000
0000
0000
,
0001
0000
0000
0000
,
0100
0000
0000
0000
,
0010
0000
0000
0000
,
0200
0000
0000
0300
0000
0000
0000
0000
,
0020
0000
0000
0030
0000
0000
0000
0000
,
1000
0000
0100
0000
,
0010
0000
0001
0000
,
2000
0000
0000
3000
0000
0000
0000
0000
,
0002
0000
0000
0003
0000
0000
0000
0000
,
0100
0000
0010
0000
,
1000
0000
0001
0000
,
2000
0000
0000
0000
0000
0000
0000
0000
0000
0000
0000
0000
0000
0000
0000
3000
0000
0000
0000
0000
0000
0000
0000
0000
0000
0000
0000
0000
0000
0000
0000
0000
,
0001
0000
1000
0000
,
0200
0000
0000
0000
0000
0000
0000
0000
0000
0000
0000
0000
0000
0000
0000
0300
0000
0000
0000
0000
0000
0000
0000
0000
0000
0000
0000
0000
0000
0000
0000
0000
,
0010
0000
0002
0000
,
1003
0000
1000
0000
,
0001
0000
0002
0000
,
0103
0000
0100
0000
,
0010
0000
0100
0000
,
0001
0000
0001
0000
,
1000
0000
2000
0000
,
3100
0000
0100
0000
,
0020
0000
0000
0000
0000
0000
0000
0030
,
0001
0000
0100
0000
,
1000
0000
0020
0000
,
0130
0000
0010
0000
,
0001
0000
1000
0000
,
0010
0000
0001
0000
,
0100
0000
2000
0000
,
3001
0000
1000
0000
,
0020
0000
0000
0130
;
