#TITLE:Fun Fun Pharaoh;
#SUBTITLE:;
#ARTIST:King & Queen;
#TITLETRANSLIT:;
#SUBTITLETRANSLIT:;
#ARTISTTRANSLIT:;
#CREDIT:;
#BANNER:Fun Fun Pharaoh-bn.png;
#BACKGROUND:Fun Fun Pharaoh-bg.png;
#LYRICSPATH:;
#CDTITLE:Super Eurobeat 112.png;
#MUSIC:Fun Fun Pharaoh.mp3;
#OFFSET:-0.040;
#SAMPLESTART:50.130;
#SAMPLELENGTH:12.000;
#SELECTABLE:YES;
#BPMS:0.000=153.070;
#STOPS:;
#BGCHANGES:;

//---------------dance-single - ----------------
#NOTES:
     dance-single:
     :
     Hard:
     8:
     0.586,0.527,0.321,0.302,0.083:
0000
0000
0000
0000
,
0000
0000
0000
0000
,
0000
0000
0000
0000
,
0000
0000
0000
0000
,
2000
0000
0010
0000
3001
0000
0010
0001
,
0010
0000
0100
1000
0100
0000
0010
0100
,
2000
3100
0020
0031
,
1000
0000
0001
0000
1000
0001
1000
0000
0000
0000
0000
0000
0000
0000
0000
0000
,
0010
0100
0010
0100
0010
0000
0000
0000
1000
0000
1000
0000
0020
0000
0000
0000
,
1030
0100
1000
0000
0010
0100
0001
0000
,
1000
0010
1000
0010
1000
0000
0000
0000
0001
0000
0100
0000
0010
0000
0000
0000
,
0100
0001
0100
0010
1000
1000
0001
0001
,
0100
0010
0100
0010
0100
0000
0000
0000
0001
0000
1000
0000
0020
0000
0000
0000
,
0130
0100
0100
0000
0010
0010
0010
0000
,
0100
0001
0100
0001
0100
0000
0000
0000
0001
0000
1000
0000
0010
0000
0100
0000
,
0001
1000
0000
0000
0110
0000
1001
0000
,
0200
0000
0301
0000
0100
0001
0100
0010
,
0000
0110
0000
1001
0000
0001
1000
0001
,
0100
0010
1000
0100
0010
0001
0100
0010
,
0000
0110
0000
0110
0000
1000
1001
0000
,
0020
0000
0230
0000
0301
1000
0010
0100
,
0000
0101
0000
1010
0000
0100
0010
1000
,
0100
1000
0010
0100
0001
0010
0000
0002
,
0000
2003
0000
3002
0000
1003
0010
0100
,
0010
0010
0000
1001
0000
0110
0000
0100
,
0010
0100
0000
0110
0000
1001
0000
0100
,
0010
0010
0100
0100
0001
1000
0010
0200
,
0000
0310
0000
0100
0100
0010
0010
1000
,
0001
1001
0000
0110
0000
0010
1000
0010
,
1000
0010
0000
1010
0000
0010
0100
0001
,
2000
0000
0010
0000
3001
0000
1000
0010
,
1000
0000
0100
0010
0000
0000
0110
0000
,
1001
0000
1001
0000
1000
0001
1001
0000
,
1000
0001
1000
0010
0100
0001
1000
0000
,
0002
0203
0320
2030
,
3001
0100
0010
0000
0010
1000
0100
0000
,
1100
0000
1100
0000
1000
0001
0101
0000
,
0100
0100
0010
0010
0100
0001
0001
0000
,
1000
0100
1000
0000
0010
0100
0001
0000
,
0100
0010
0100
0010
0100
0000
0110
0000
,
1001
0000
1001
0000
0001
1000
1001
0000
,
0001
1000
0001
0100
0010
1000
0001
0000
,
2000
3020
0230
0302
,
1003
0010
0100
0000
0100
0001
0010
0000
,
0011
0000
0011
0000
0001
1000
1010
0000
,
0010
0010
0100
0100
0010
1000
1000
0000
,
0001
0010
0001
0000
0100
0010
1000
0000
,
0020
0130
0220
0330
,
2000
0010
0001
3010
,
0002
0100
1000
0013
,
0100
0001
0100
0000
0010
0100
0010
0000
,
0010
1000
0001
1000
0010
0100
0001
0000
,
2001
0000
0010
0000
3001
0000
0001
0100
,
0010
0000
0010
0100
0002
0000
0103
0010
,
0200
0001
0010
0301
,
0001
1000
0001
1000
0000
1000
0001
0000
,
0100
0010
0100
0010
0100
0000
0000
0000
0001
0000
0001
0000
0200
0000
0000
0000
,
0301
0010
0001
0000
0100
0010
1000
0000
,
0001
0100
0001
0100
0001
0000
0000
0000
1000
0000
0010
0000
0100
0000
0000
0000
,
0010
1000
0010
0100
0001
0001
1000
1000
,
0010
0100
0010
0100
0010
0000
0000
0000
1000
0000
0001
0000
0200
0000
0000
0000
,
0310
0010
0010
0000
0100
0100
0100
0000
,
0010
1000
0010
1000
0010
0000
0000
0000
1000
0000
0001
0000
0100
0000
0010
0000
,
1000
0001
1000
0001
0000
1000
1001
0000
;

//---------------dance-single - ----------------
#NOTES:
     dance-single:
     :
     Medium:
     5:
     0.492,0.527,0.195,0.593,0.000: // measure 1
0000
0000
0000
0000
,  // measure 2
0000
0000
0000
0000
,  // measure 3
0000
0000
0000
0000
,  // measure 4
0000
0000
0000
0000
,  // measure 5
0002
1000
0100
0013
,  // measure 6
0020
0001
0100
0031
,  // measure 7
0002
2003
3020
0230
,  // measure 8
0301
1000
0010
1000
0000
0000
0000
0000
,  // measure 9
0001
1000
0001
0000
0001
1000
0010
0000
,  // measure 10
0200
0320
2030
3002
,  // measure 11
0013
0100
0010
0000
0001
1000
0001
0000
,  // measure 12
1000
0010
0100
0001
,  // measure 13
1000
0001
1000
0000
0010
1000
0010
0000
,  // measure 14
0020
2030
3002
0203
,  // measure 15
0310
0100
0010
0000
0100
0001
0100
0000
,  // measure 16
2002
3003
0210
0310
,  // measure 17
0010
0100
0001
1000
,  // measure 18
0001
1000
0100
0000
1000
0010
0100
0000
,  // measure 19
0001
0010
0100
1000
,  // measure 20
0001
0000
1000
0000
0010
0100
0010
0000
,  // measure 21
0100
0000
0001
0000
0010
0100
0010
0000
,  // measure 22
0001
1000
0001
0000
1000
0010
1000
0000
,  // measure 23
0010
0100
0001
0010
,  // measure 24
0100
1000
0010
0000
0010
1000
0100
0000
,  // measure 25
2000
0010
0001
3010
,  // measure 26
0002
0100
1000
0103
,  // measure 27
0100
0001
0100
0000
0010
1000
0010
0000
,  // measure 28
0020
0130
0200
0310
,  // measure 29
0010
0100
0010
0000
1001
0000
0110
0000
,  // measure 30
0001
1000
0001
0000
1001
0000
0110
0000
,  // measure 31
0002
1000
0100
1003
,  // measure 32
0010
0000
0001
0200
0000
0000
0310
0000
,  // measure 33
0010
0010
0110
0110
,  // measure 34
0002
2003
3002
0023
,  // measure 35
0032
0100
1000
0103
,  // measure 36
0200
0010
0001
0310
,  // measure 37
1001
1001
0110
0110
,  // measure 38
0002
2003
3200
0320
,  // measure 39
0031
1000
0001
0100
,  // measure 40
0001
0100
0001
0000
0020
0000
0031
0000
,  // measure 41
1000
0001
1001
1001
,  // measure 42
1000
0001
1000
0000
0010
0100
0010
0000
,  // measure 43
2000
3200
0320
0032
,  // measure 44
0103
0001
0100
0000
0010
1000
0010
0000
,  // measure 45
0100
0100
0110
0110
,  // measure 46
1001
1001
0110
0110
,  // measure 47
1000
0000
0001
0000
0100
0000
0001
0100
,  // measure 48
0002
2003
0002
3003
,  // measure 49
0010
1000
0010
1000
,  // measure 50
0001
0100
0001
0100
,  // measure 51
0010
1000
0010
0100
,  // measure 52
0002
0203
0320
0230
,  // measure 53
0302
1000
0100
1003
,  // measure 54
2000
0010
3020
0100
,  // measure 55
0230
0302
0023
0230
,  // measure 56
1300
0010
1000
0010
0000
0010
0100
0000
,  // measure 57
0100
0010
0100
0000
0100
0010
1000
0000
,  // measure 58
0002
2003
3200
0320
,  // measure 59
0031
1000
0001
0000
0100
0010
0100
0000
,  // measure 60
0010
0001
1000
0100
,  // measure 61
0010
0100
0010
0000
0001
0010
0001
0000
,  // measure 62
0002
0023
0230
2300
,  // measure 63
3001
1000
0001
0000
1000
0100
1000
0000
,  // measure 64
0020
0000
0000
0000
0000
0100
0130
0000
;

//---------------dance-single - ----------------
#NOTES:
     dance-single:
     :
     Easy:
     3:
     0.289,0.341,0.039,0.263,0.000: // measure 1
0000
0000
0000
0000
,  // measure 2
0000
0000
0000
0000
,  // measure 3
0000
0000
0000
0000
,  // measure 4
0000
0000
0000
0000
,  // measure 5
2000
0000
3000
0001
,  // measure 6
0001
1000
1000
0001
,  // measure 7
0001
0000
1000
0000
,  // measure 8
1001
0000
0000
0000
,  // measure 9
1000
0010
1000
0000
,  // measure 10
0001
0100
0001
0000
,  // measure 11
1000
0010
0100
0000
,  // measure 12
0100
0010
1000
0001
,  // measure 13
0010
0001
0010
0000
,  // measure 14
0100
1000
0100
0000
,  // measure 15
1000
0010
0100
0000
,  // measure 16
0002
0003
0100
0010
,  // measure 17
0100
0001
0100
0000
,  // measure 18
0010
1000
0100
0000
,  // measure 19
1000
1000
0001
0001
,  // measure 20
2000
0000
3002
0000
,  // measure 21
1003
0010
1000
0000
,  // measure 22
0001
0100
0010
0000
,  // measure 23
0200
0000
0320
0000
,  // measure 24
0130
0000
1000
1000
,  // measure 25
0002
0000
1003
0000
,  // measure 26
2000
0000
3001
0000
,  // measure 27
0001
1000
0010
0000
,  // measure 28
1001
0000
0001
1000
,  // measure 29
0002
0000
0103
0000
,  // measure 30
0200
0000
0310
0010
,  // measure 31
0200
0000
0310
0000
,  // measure 32
2000
0000
3001
0000
,  // measure 33
1000
1000
1000
0001
,  // measure 34
0001
1000
0001
1000
,  // measure 35
0020
0000
0230
0000
,  // measure 36
0310
0100
0010
0100
,  // measure 37
0001
0010
0100
1000
,  // measure 38
1000
0010
0100
0001
,  // measure 39
0100
0010
1000
0000
,  // measure 40
1000
0010
0100
0000
,  // measure 41
0001
0001
1000
1000
,  // measure 42
0001
1000
0001
1000
,  // measure 43
0020
0000
0230
0000
,  // measure 44
0302
0000
2003
0000
,  // measure 45
3001
0010
0100
1000
,  // measure 46
1000
0010
0100
0001
,  // measure 47
0010
0100
1000
0010
,  // measure 48
2000
3002
2000
3003
,  // measure 49
0001
0001
1000
0000
,  // measure 50
1000
1000
0001
0000
,  // measure 51
1000
0010
0100
0000
,  // measure 52
0100
0010
1000
0000
,  // measure 53
2002
0000
3003
0001
,  // measure 54
1000
0010
0100
0001
,  // measure 55
0020
0000
0230
0000
,  // measure 56
2300
0000
0000
3001
,  // measure 57
0001
0100
0001
0000
,  // measure 58
1000
0010
1000
0000
,  // measure 59
0001
0100
0010
0000
,  // measure 60
0010
0100
0001
1000
,  // measure 61
0100
1000
0100
0000
,  // measure 62
0010
0001
0010
0000
,  // measure 63
0001
0100
0010
0000
,  // measure 64
2001
0000
0000
3001
;
