#TITLE:FloriDada;
#SUBTITLE:;
#ARTIST:Animal Collective;
#TITLETRANSLIT:;
#SUBTITLETRANSLIT:;
#ARTISTTRANSLIT:;
#GENRE:;
#CREDIT:;
#BANNER:[Passport] - FloriDada.png;
#BACKGROUND:[Passport] - FloriDada-bg.png;
#LYRICSPATH:;
#CDTITLE:;
#MUSIC:[Passport] - FloriDada.ogg;
#OFFSET:-0.067640;
#SAMPLESTART:54.875332;
#SAMPLELENGTH:11.538464;
#SELECTABLE:YES;
#BPMS:0.000000=166.399994
;
#STOPS:216.000000=3.427000
;
#BGCHANGES:;
#KEYSOUNDS:;
#ATTACKS:;

//---------------dance-single - ----------------
#NOTES:
     dance-single:
     :
     Hard:
     9:
     0.725706,0.742726,0.276816,0.029926,1.170855,679.000000,642.000000,37.000000,4.000000,0.000000,0.000000,0.725706,0.742726,0.276816,0.029926,1.170855,679.000000,642.000000,37.000000,4.000000,0.000000,0.000000:
0000
0000
0000
0000
,
0000
0000
0000
0000
,
0000
0000
0000
1000
0000
1000
0000
0000
1000
0001
0000
0001
,
0000
0000
0001
0100
0000
0100
0000
0000
0100
0001
0000
0001
,
0000
0000
0001
1000
0000
1000
0000
0000
1000
0100
0000
0100
,
0000
0000
0100
0010
0000
0010
0000
0000
0010
0100
0000
0000
,
1001
0000
0000
0001
0010
0001
0010
0000
0000
0100
1000
0100
,
1000
0000
0000
0001
1000
0001
1000
0000
0000
0001
0100
0001
,
0100
0000
0000
0010
1000
0010
1000
0000
0000
0010
0100
0010
,
0100
0000
0100
1000
0100
1000
0100
0000
0000
0101
0000
0000
,
0011
0000
0000
0010
0100
0010
0100
0000
0000
1000
0100
1000
,
0100
0000
0000
1000
0001
1000
0001
0000
0000
0100
0001
0100
,
0001
0000
0000
0100
0010
0100
0010
0000
0000
0100
0001
0100
,
0001
0000
0001
0010
0001
0010
0001
0000
0000
0010
0100
0010
,
0100
0000
0000
1000
0100
1000
0100
0000
0000
1000
0010
1000
,
0010
0000
0010
0100
0010
0100
0010
0000
0000
0100
0001
0100
,
0001
0000
0000
0010
0001
0010
0001
0000
0000
0010
0100
0010
,
0100
0000
0100
0001
0100
0001
0100
0000
0000
1100
0000
0000
,
1010
0000
0000
0010
0100
0010
0100
0000
0000
0001
0100
0001
,
0100
0000
0000
0001
1000
0001
1000
0000
0000
0100
1000
0100
,
1000
0000
0000
0100
0010
0100
0010
0000
0000
0001
0010
0001
,
0010
0000
0010
0001
1000
0001
1000
0000
0001
0010
0000
0010
,
0100
1000
0100
1000
0001
1000
0001
0100
0001
0100
0010
0100
,
0010
0000
1000
0100
0000
1000
0001
0000
0100
0001
0000
0010
,
0100
0000
0100
0010
0000
0010
0001
0000
0001
0010
0000
0010
,
0100
0000
0100
1000
0000
1000
0010
0000
0010
0100
0000
0100
,
0001
0100
0001
0100
0010
0100
0010
1000
0010
1000
0001
1000
,
0001
0000
0010
0100
0000
0010
0001
0000
0100
0010
0000
1000
,
0100
0000
0100
1000
0000
1000
0100
0000
0100
0010
0000
0010
,
0001
0000
0001
1000
0000
1000
0010
0000
0010
0100
0000
0100
,
0001
0000
0001
0010
0001
0010
0001
0000
0001
1000
0001
1000
,
0100
0000
1000
0010
0000
1000
0001
0000
0010
0001
0000
0100
,
0010
0000
0010
0100
0000
0100
1000
0000
1000
0100
0000
0100
,
0010
0000
0010
1000
0000
1000
0100
0000
0100
0001
0000
0001
,
0100
1000
0100
1000
0010
1000
0020
0000
0000
0130
0001
0100
,
0001
0000
0100
0010
0000
0100
0001
0000
0010
0100
0000
1000
,
0100
0000
0100
0001
0000
0001
0100
0000
0100
0010
0000
0010
,
0001
0000
0001
0100
0000
0100
1000
0000
1000
0100
0000
0100
,
0001
0000
0001
0010
0000
0010
1000
0000
1000
0100
0000
0100
,
0001
0000
0001
0010
0000
0010
0100
0000
0100
1000
0000
1000
,
0001
0000
0001
1000
0000
0010
1000
0000
0100
1000
0000
1000
,
0100
0000
0100
0010
0000
0001
0010
0000
1000
0010
0000
0010
,
0001
0000
0001
0100
0000
0100
1000
0000
1000
0010
0000
0010
,
0001
0000
0001
0100
0000
0100
0010
0000
0010
1000
0000
1000
,
0100
0000
0100
1000
0000
0010
1000
0000
0001
1000
0000
1000
,
0001
0000
0001
0010
0000
1000
0010
0000
0100
0010
0000
0010
,
0001
0000
0001
0010
0000
0010
1000
0000
1000
0100
0000
0100
,
0001
0000
0001
0010
0000
0010
0100
0000
0100
1000
0000
1000
,
0001
0000
0001
1000
0000
0010
1000
0000
0100
1000
0000
1000
,
0100
0000
0100
0010
0000
0001
0010
0000
1000
0010
0000
0010
,
0001
0000
0001
0100
0000
0100
1000
0000
1000
0010
0000
0010
,
0001
0000
0001
0100
0000
0100
0010
0000
0010
1000
0000
1000
,
0100
0000
0100
1000
0000
0010
1000
0000
0001
1000
0000
1000
,
0001
0000
0001
0010
0000
1000
0010
0000
0100
0010
0000
0010
,
0000
0000
0000
0100
0000
0000
1001
0000
0001
0100
0000
0000
,
1001
0000
1000
0100
0000
0000
1001
0000
0001
0100
0000
0000
,
1001
0000
1000
0100
0000
0000
0011
0000
0000
1001
0000
0000
,
1010
0000
0000
1001
0000
1000
0001
0000
0100
0001
0000
1000
,
0001
0000
0020
0100
0000
0000
0031
0000
0001
0100
0000
0000
,
1010
0000
1000
0100
0000
0000
0011
0000
0001
0100
0000
0000
,
1010
0000
1000
0100
0000
0000
1100
0000
0000
0011
0000
0000
,
0101
0000
0000
1010
0000
0000
1100
0000
0100
0010
0000
0100
,
0001
0000
0100
0010
0000
0000
1001
0000
0001
0100
0000
0000
,
1001
0000
1000
0100
0000
0000
1001
0000
0001
0100
0000
0000
,
1001
0000
1000
0100
0000
0000
0011
0000
0000
1001
0000
0000
,
1010
0000
0000
1001
0000
1000
0001
0000
0100
0001
0000
1000
,
0001
0000
0020
0100
0000
0000
0031
0000
0001
0100
0000
0000
,
1010
0000
1000
0100
0000
0000
0011
0000
0001
0100
0000
0000
,
1010
0000
1000
0100
0000
0000
1100
0000
0000
0011
0000
0000
,
0101
0000
0000
1010
0000
0000
1100
0000
0100
0010
0000
0100
,
0001
0000
0100
0010
0000
0001
0010
0000
0010
1000
0000
1000
,
0100
0000
0100
0001
0000
0001
0010
0000
0010
0100
0000
0100
,
1000
0000
1000
0001
0000
0001
1000
0000
0010
1000
0000
0100
,
1000
0000
1000
0100
0000
0100
0010
0000
0001
0010
0000
1000
,
0010
0000
0010
0001
0000
0001
0100
0000
0100
1000
0000
1000
,
0010
0000
0010
0001
0000
0001
0100
0000
0100
0010
0000
0010
,
1000
0000
1000
0100
0000
0100
1000
0000
0010
1000
0000
0001
,
1000
0000
1000
0001
0000
0001
0010
0000
1000
0010
0000
0100
,
0010
0000
0010
0001
0000
0001
0010
0000
0010
1000
0000
1000
,
0100
0000
0100
0001
0000
0001
0010
0000
0010
0100
0000
0100
,
1000
0000
1000
0001
0000
0001
1000
0000
0010
1000
0000
0100
,
1000
0000
1000
0100
0000
0100
0010
0000
0001
0010
0000
1000
,
0010
0000
0010
0001
0000
0001
0100
0000
0100
1000
0000
1000
,
0010
0000
0010
0001
0000
0001
0100
0000
0100
0010
0000
0010
,
1000
0000
1000
0100
0000
0100
1000
0000
0010
1000
0000
0001
,
1000
0000
1000
0001
0000
0001
0010
0000
1000
0010
0000
0100
,
0010
0000
0010
0002
0000
0000
0000
0000
0000
0000
0000
0000
,
0000
0000
0000
0000
,
0000
0000
0000
0000
,
0000
0000
0000
0000
,
0000
0003
0000
0000
;

//---------------dance-single - ----------------
#NOTES:
     dance-single:
     :
     Medium:
     7:
     0.456372,0.506404,0.000000,0.598520,0.441409,427.000000,427.000000,0.000000,80.000000,0.000000,0.000000,0.456372,0.506404,0.000000,0.598520,0.441409,427.000000,427.000000,0.000000,80.000000,0.000000,0.000000:
0000
0000
0000
0000
,
0000
0000
0000
0000
,
0000
0000
0000
1000
0000
1000
0000
0000
0000
0001
0000
0001
,
0000
0000
0000
1000
0000
1000
0000
0000
0000
0001
0000
0001
,
0000
0000
0000
1000
0000
1000
0000
0000
0000
0100
0000
0100
,
0000
0000
0000
0010
0000
0010
0000
0000
0000
0001
0000
0001
,
1000
0000
0000
0100
0000
1000
0100
0000
0000
1000
0000
0001
,
1000
0000
0000
0001
0000
0100
0001
0000
0000
1000
0000
0001
,
1000
0000
0000
0100
0000
1000
0100
0000
0000
1000
0000
0001
,
1000
0000
0000
0001
0000
0100
0002
0000
0000
1000
0000
0000
,
0013
0000
0000
0001
0000
0010
0001
0000
0000
0010
0000
0100
,
0010
0000
0000
0100
0000
1000
0100
0000
0000
0010
0000
0100
,
0010
0000
0000
0001
0000
0010
0001
0000
0000
0100
0000
0001
,
0100
0000
0000
0010
0000
0100
0010
0000
0000
1000
0000
0010
,
1000
0000
0000
0100
0000
1000
0100
0000
0000
0001
0000
0100
,
0001
0000
0000
0100
0000
1000
0100
0000
0000
1000
0000
0010
,
1000
0000
0000
0010
0000
0001
0010
0000
0000
1000
0000
0010
,
1000
0000
0000
0001
0000
1000
0002
0000
0000
1000
0000
0000
,
0103
0000
0000
0001
0000
0100
0001
0000
0000
0010
0000
0001
,
0010
0000
0000
1000
0000
0010
1000
0000
0000
0010
0000
0001
,
0010
0000
0000
0001
0000
0100
0001
0000
0000
0100
0000
1000
,
0100
0000
0000
0001
0000
0100
0001
0000
0000
1000
0000
1000
,
0100
0000
0100
1000
0000
1000
0010
0000
0010
1000
0000
1000
,
0100
0000
1000
0000
0000
1000
0100
0000
0000
0100
0000
0000
,
0010
0000
0100
0010
0000
0000
0100
0000
0000
0100
0000
0000
,
1000
0000
0001
1000
0000
0000
0001
0000
0000
0001
0000
0000
,
0100
0000
0100
0001
0000
0001
0010
0000
0010
0001
0000
0001
,
0100
0000
0001
0000
0000
0001
0100
0000
0000
0100
0000
0000
,
0010
0000
0100
0010
0000
0000
1000
0000
0000
1000
0000
0000
,
0001
0000
1000
0001
0000
0000
0100
0000
0000
0100
0000
0000
,
0001
0000
0001
1000
0000
1000
0010
0000
0010
1000
0000
1000
,
0100
0000
0100
1000
0000
0000
0100
0000
0000
0100
0000
0000
,
0010
0000
0010
0100
0000
0000
1000
0000
0000
0010
0000
0000
,
0100
0000
0100
0001
0000
0000
0010
0000
0000
0100
0000
0000
,
1000
0000
1000
0100
0000
0100
0020
0000
0000
0130
0000
0100
,
1000
0000
1000
0001
0000
0000
1000
0000
0000
1000
0000
0000
,
0010
0000
0010
1000
0000
0010
0000
0000
0010
1000
0000
0000
,
0001
0000
0001
0010
0000
0001
0000
0000
0001
0010
0000
0000
,
0002
0023
0230
2300
,
3200
0320
0032
0203
,
0310
0000
0000
1000
0000
0010
0000
0000
0010
1000
0000
1000
,
0001
0000
0000
0100
0000
0001
0000
0000
0001
0100
0000
0100
,
0002
0203
0302
0023
,
0230
2300
3020
2030
,
3100
0000
0000
1000
0000
0100
0000
0000
0100
1000
0000
1000
,
0001
0000
0000
0010
0000
0001
0000
0000
0001
0010
0000
0010
,
0002
0203
0320
2030
,
3020
0230
0302
0023
,
0130
0000
0000
1000
0000
0100
0000
0000
0100
1000
0000
1000
,
0001
0000
0000
0010
0000
0001
0000
0000
0001
0010
0000
0010
,
0002
0023
0032
0203
,
0320
2030
3200
2300
,
3010
0000
0000
1000
0000
0010
0000
0000
0010
1000
0000
1000
,
0001
0000
0000
0100
0000
0001
0000
0000
0001
0100
0000
0000
,
0000
0002
1000
0010
,
1000
0100
1000
0010
,
1000
0203
0010
0001
,
0010
1000
0010
0001
,
0310
2000
0001
0100
,
0001
0010
0001
0100
,
0001
3020
0100
1000
,
0100
0001
0100
1000
,
0130
0002
1000
0100
,
1000
0023
0100
1000
,
0130
2000
0001
0010
,
0001
3200
0010
0001
,
0310
0002
1000
0010
,
1000
0203
0010
1000
,
0310
2000
0001
0100
,
0001
3020
0100
0001
,
0130
0002
0023
2030
,
3200
0302
0023
0230
,
2300
0000
0000
3100
0000
0000
1000
0000
0010
0000
0000
0010
,
1000
0000
1000
0100
0000
0000
0010
0000
0001
0000
0000
0001
,
0010
0000
0010
0200
0000
0000
2300
0000
0000
3020
0000
0000
,
0032
0203
2300
3002
,
0023
0000
0000
0031
0000
0000
0100
0000
1000
0000
0000
1000
,
0100
0000
0100
0001
0000
0000
0010
0000
1000
0000
0000
1000
,
0010
0000
0010
0002
0000
0000
0023
0000
0000
2030
0000
0000
,
3200
0302
0023
0230
,
2300
0000
0000
3100
0000
0000
1000
0000
0010
0000
0000
0010
,
1000
0000
1000
0100
0000
0000
0010
0000
0001
0000
0000
0001
,
0010
0000
0010
0200
0000
0000
2300
0000
0000
3020
0000
0000
,
0032
0203
2300
3002
,
0023
0000
0000
0031
0000
0000
0100
0000
1000
0000
0000
1000
,
0100
0000
0100
0001
0000
0000
0010
0000
1000
0000
0000
1000
,
0010
0000
0010
0002
0000
0000
0000
0000
0000
0000
0000
0000
,
0000
0000
0000
0000
,
0000
0000
0000
0000
,
0000
0000
0000
0000
,
0000
0003
0000
0000
;

//---------------dance-single - ----------------
#NOTES:
     dance-single:
     :
     Easy:
     4:
     0.313154,0.371363,0.052371,0.187038,0.093519,293.000000,286.000000,7.000000,25.000000,0.000000,0.000000,0.313154,0.371363,0.052371,0.187038,0.093519,293.000000,286.000000,7.000000,25.000000,0.000000,0.000000:
0000
0000
0000
0000
,
0000
0000
0000
0000
,
0000
0010
0000
0100
,
0000
0010
0000
1001
,
0000
0001
0000
1001
,
0000
1000
0000
1001
,
0001
1000
1000
0010
,
0010
1000
1000
0100
,
0100
0010
0010
0001
,
0001
0100
0010
0100
,
0001
1000
1000
0100
,
0100
0010
0010
0100
,
0100
1000
1000
0001
,
0001
0100
0100
0001
,
0001
1000
1000
0010
,
0010
1000
1000
0001
,
0001
0010
0010
0001
,
0001
0100
0010
0100
,
0001
0010
0010
0100
,
0100
1000
1000
0010
,
0010
0100
0100
0010
,
0010
1000
1000
0001
,
0001
0010
0100
1000
,
1000
0100
0010
0001
,
0002
0000
0000
0003
,
2000
0000
0000
3000
,
0010
0100
0001
0100
,
0010
1000
0010
0100
,
0002
0000
0000
0003
,
2000
0000
0000
3000
,
0100
1000
0010
1000
,
0100
1000
0010
1000
,
0200
0000
0000
0300
,
0020
0000
0000
0030
,
0001
0100
0001
0010
,
0001
0100
0001
0010
,
0200
0000
0000
0300
,
0020
0000
0000
0030
,
0001
0100
0010
0100
,
0001
0010
0100
0010
,
0001
0000
0000
0000
0000
0000
0001
0000
0000
0000
2000
0000
0000
0000
0000
3000
0000
0000
0000
0000
0000
0000
0000
0000
,
1000
0000
0000
0000
0000
0000
1000
0000
0000
0000
0020
0000
0000
0000
0000
0030
0000
0000
0000
0000
0000
0000
0000
0000
,
1000
0100
0010
0100
,
1000
0010
0100
0010
,
1000
0000
0000
0000
0000
0000
1000
0000
0000
0000
0002
0000
0000
0000
0000
0003
0000
0000
0000
0000
0000
0000
0000
0000
,
0001
0000
0000
0000
0000
0000
0001
0000
0000
0000
0020
0000
0000
0000
0000
0030
0000
0000
0000
0000
0000
0000
0000
0000
,
0001
0100
0010
0100
,
0001
0010
0100
0010
,
0001
0000
0000
0000
0000
0000
0001
0000
0000
0000
2000
0000
0000
0000
0000
3000
0000
0000
0000
0000
0000
0000
0000
0000
,
1000
0000
0000
0000
0000
0000
1000
0000
0000
0000
0020
0000
0000
0000
0000
0030
0000
0000
0000
0000
0000
0000
0000
0000
,
1000
0100
0010
0100
,
1000
0010
0100
0010
,
1000
0000
0000
0000
0000
0000
1000
0000
0000
0000
0002
0000
0000
0000
0000
0003
0000
0000
0000
0000
0000
0000
0000
0000
,
0001
0000
0000
0000
0000
0000
0001
0000
0000
0000
0020
0000
0000
0000
0000
0030
0000
0000
0000
0000
0000
0000
0000
0000
,
0000
0100
1000
0010
,
0010
0000
0000
0100
0000
0000
0000
0000
0001
0000
0000
0001
,
0000
0000
0001
0000
0000
0000
0010
0000
0000
0001
0000
0000
,
0100
0000
0000
0010
0000
0000
0000
0000
1000
0000
0000
1000
,
0000
0000
1000
0000
0000
0000
0100
0000
0000
1000
0000
0000
,
0001
0000
0000
0010
0000
0000
0000
0000
0100
0000
0000
0100
,
0000
0000
0100
0000
0000
0000
1000
0000
0000
0010
0000
0000
,
0100
0001
0010
0100
,
1000
0001
1000
1001
,
1000
0010
1000
0100
,
0100
1000
0001
1001
,
0001
0100
0001
0010
,
0010
0001
1000
1001
,
1000
0010
1000
0100
,
0100
1000
0001
1001
,
0001
0100
0001
0010
,
0010
0100
1000
0001
,
0010
0010
0001
1000
,
0100
0000
0000
0000
0000
0000
1000
0000
0000
0000
0000
0000
1000
0000
0000
0000
0002
0000
0000
0000
0000
0003
0000
0000
,
0000
0000
0000
0000
0000
0000
0001
0000
0000
0000
0000
0000
0001
0000
0000
0000
0200
0000
0000
0000
0000
0300
0000
0000
,
0000
0100
0001
1000
,
0010
0010
1000
0001
,
0100
0000
0000
0000
0000
0000
0001
0000
0000
0000
0000
0000
0001
0000
0000
0000
2000
0000
0000
0000
0000
3000
0000
0000
,
0000
0000
0000
0000
0000
0000
1000
0000
0000
0000
0000
0000
1000
0000
0000
0000
0200
0000
0000
0000
0000
0300
0000
0000
,
0000
0100
1000
0001
,
0010
0010
0001
1000
,
0100
0000
0000
0000
0000
0000
1000
0000
0000
0000
0000
0000
1000
0000
0000
0000
0002
0000
0000
0000
0000
0003
0000
0000
,
0000
0000
0000
0000
0000
0000
0001
0000
0000
0000
0000
0000
0001
0000
0000
0000
0200
0000
0000
0000
0000
0300
0000
0000
,
0000
0100
0001
1000
,
0010
0010
1000
0001
,
0100
0000
0000
0000
0000
0000
0001
0000
0000
0000
0000
0000
0001
0000
0000
0000
2000
0000
0000
0000
0000
3000
0000
0000
,
0000
0000
0000
0000
0000
0000
1000
0000
0000
0000
0000
0000
1000
0000
0000
0000
0200
0000
0000
0000
0000
0300
0000
0000
,
0000
0020
0000
0000
,
0000
0000
0000
0000
,
0000
0000
0000
0000
,
0000
0000
0000
0000
,
0000
0030
0000
0000
;

//---------------dance-single - ----------------
#NOTES:
     dance-single:
     :
     Beginner:
     2:
     0.173143,0.193584,0.000000,0.000000,0.000000,162.000000,162.000000,0.000000,0.000000,0.000000,0.000000,0.173143,0.193584,0.000000,0.000000,0.000000,162.000000,162.000000,0.000000,0.000000,0.000000,0.000000:
// measure 0
0000
0000
0000
0000
,  // measure 1
0000
0000
0000
0000
,  // measure 2
0000
1000
0000
0001
,  // measure 3
0000
1000
0000
0001
,  // measure 4
0000
1000
0000
0001
,  // measure 5
0000
1000
0000
0001
,  // measure 6
1000
0000
0000
0000
,  // measure 7
0010
0000
0000
0000
,  // measure 8
0100
0000
0000
0000
,  // measure 9
0001
0000
0010
0000
,  // measure 10
0001
0000
0000
0000
,  // measure 11
0100
0000
0000
0000
,  // measure 12
0001
0000
0000
0000
,  // measure 13
1000
0000
0000
0000
,  // measure 14
0010
0000
0000
0000
,  // measure 15
0100
0000
0000
0000
,  // measure 16
0010
0000
0000
0000
,  // measure 17
1000
0000
0100
0000
,  // measure 18
0010
0000
0000
0000
,  // measure 19
0001
0000
0000
0000
,  // measure 20
0100
0000
0000
0000
,  // measure 21
0010
0000
0000
0000
,  // measure 22
1000
0000
0010
0000
,  // measure 23
1000
0000
0100
0000
,  // measure 24
1000
0000
1000
0000
,  // measure 25
0100
0000
0100
0000
,  // measure 26
1000
0000
0001
0000
,  // measure 27
0100
0000
0001
0000
,  // measure 28
0100
0000
0100
0000
,  // measure 29
0001
0000
0001
0000
,  // measure 30
0100
0000
0010
0000
,  // measure 31
1000
0000
0010
0000
,  // measure 32
1000
0000
1000
0000
,  // measure 33
0010
0000
0010
0000
,  // measure 34
0100
0000
0001
0000
,  // measure 35
0010
0000
0001
0000
,  // measure 36
0010
0000
0010
0000
,  // measure 37
0001
0000
0001
0000
,  // measure 38
0010
0010
0010
0000
,  // measure 39
0001
0000
0010
0000
,  // measure 40
0001
0000
1000
0000
,  // measure 41
0010
0000
1000
0000
,  // measure 42
0100
0100
0100
0000
,  // measure 43
1000
0000
0100
0000
,  // measure 44
1000
0000
0001
0000
,  // measure 45
0100
0000
0001
0000
,  // measure 46
0010
0010
0010
0000
,  // measure 47
0001
0000
0010
0000
,  // measure 48
0001
0000
1000
0000
,  // measure 49
0010
0000
1000
0000
,  // measure 50
0100
0100
0100
0000
,  // measure 51
1000
0000
0100
0000
,  // measure 52
1000
0000
0001
0000
,  // measure 53
0100
0000
0001
0000
,  // measure 54
0000
0000
0000
1000
,  // measure 55
0000
0100
0000
0010
,  // measure 56
0000
0010
0000
0001
,  // measure 57
0000
0100
0000
0010
,  // measure 58
0000
0010
0000
1000
,  // measure 59
0000
0100
0000
0010
,  // measure 60
0000
0010
0000
0001
,  // measure 61
0000
0100
0000
0010
,  // measure 62
0000
0010
0000
0100
,  // measure 63
0000
0010
0000
1000
,  // measure 64
0000
1000
0000
0100
,  // measure 65
0000
0010
0000
0001
,  // measure 66
0000
0001
0000
0100
,  // measure 67
0000
0010
0000
1000
,  // measure 68
0000
1000
0000
0100
,  // measure 69
0000
0010
0000
0001
,  // measure 70
0000
0001
0001
0001
,  // measure 71
0000
1000
0000
0010
,  // measure 72
0000
1000
0000
0001
,  // measure 73
0000
0010
0000
0001
,  // measure 74
0000
0100
0100
0100
,  // measure 75
0000
0001
0000
0100
,  // measure 76
0000
0001
0000
1000
,  // measure 77
0000
0100
0000
1000
,  // measure 78
0000
0010
0010
0010
,  // measure 79
0000
1000
0000
0010
,  // measure 80
0000
1000
0000
0001
,  // measure 81
0000
0010
0000
0001
,  // measure 82
0000
0100
0100
0100
,  // measure 83
0000
0001
0000
0100
,  // measure 84
0000
0001
0000
1000
,  // measure 85
0000
0100
0000
1000
,  // measure 86
0000
1000
0000
0000
;
