#TITLE:Delhi;
#SUBTITLE:;
#ARTIST:KSHMR;
#TITLETRANSLIT:;
#SUBTITLETRANSLIT:;
#ARTISTTRANSLIT:;
#CREDIT:;
#BANNER:Delhi.png;
#BACKGROUND:Delhi-bg.png;
#LYRICSPATH:;
#CDTITLE:cdtitle.png;
#MUSIC:Delhi.ogg;
#OFFSET:-0.145;
#SAMPLESTART:32.000;
#SAMPLELENGTH:13.000;
#SELECTABLE:YES;
#DISPLAYBPM:64.000:128.000;
#BPMS:0.000=128.000,26.000=64.000,29.000=32.000,30.000=128.000,94.000=64.000,102.000=128.000,232.000=127.524,234.000=126.449,236.000=125.130,238.000=124.095,240.000=122.699,242.000=121.704,244.000=120.361,246.000=119.284,248.000=117.994,250.000=116.959,252.000=115.607,254.000=114.504,256.000=113.422,258.000=112.360,259.000=112.149,260.000=111.111;
#STOPS:;
#BGCHANGES:;

//---------------dance-single - ----------------
#NOTES:
     dance-single:
     :
     Hard:
     8:
     0.524,0.556,0.400,0.237,0.133:
0000
0000
0000
0000
,
2000
0000
3100
1000
0010
0000
0010
0100
,
0002
0003
0000
0000
,
2000
0000
0000
0000
3100
0000
1000
0000
0010
1000
0010
0000
0100
0000
0001
0000
,
2000
0000
0000
0000
3000
0000
0001
0010
0100
0000
0000
0000
0020
0000
0000
0000
,
0200
0000
0330
0000
0000
0000
0100
0010
0002
0000
0000
0000
0003
0000
0100
0010
,
1000
0001
1000
0010
M200
0302
0023
0000
,
0000
0000
0000
0000
M001
0000
0030
0000
10M1
0000
0000
1000
0000
0000
1000
0000
,
0000
0000
0000
0000
1000
0000
0001
0000
0010
0000
0000
0010
0000
0000
0010
0000
,
0000
0000
0000
0000
0010
0000
0001
0000
0100
0000
0000
0100
0000
0000
0100
0000
,
0000
0000
0000
0000
1000
0000
1000
0000
0002
0000
0000
0003
0200
0000
0000
0300
,
2000
0000
0000
3000
0020
0000
0000
0030
0001
0000
0000
0001
0000
0000
0001
0000
,
0000
0000
0000
0000
0001
0000
1000
0000
0010
0000
0000
0010
0000
0000
0010
0000
,
0000
0000
0000
0000
0010
0000
1000
0000
0100
0000
0000
0100
0000
0000
0100
0000
,
0000
0000
0000
0000
0001
0000
0001
0000
2000
0000
0000
3000
0200
0000
0000
0300
,
0002
0000
0000
0003
0020
0000
0000
0030
0110
0000
0000
0011
0000
0000
0011
0000
,
0000
0000
0000
0000
0010
0000
0001
0000
0101
0000
0000
1001
0000
0000
1001
0000
,
0000
0000
0000
0000
1000
0000
0001
0000
0101
0000
0000
0110
0000
0000
0110
0000
,
0000
0000
0100
0010
1010
0000
0101
0000
,
1001
0000
0000
0000
1010
0000
0000
0000
0110
0000
0000
1010
0000
0000
1010
0000
,
0000
0000
0000
0000
0010
0000
1000
0000
1100
0000
0000
0011
0000
0000
1100
0000
,
0000
0000
0000
0000
1000
0000
0100
0000
0110
0000
0000
0011
0000
0000
0011
0000
,
0000
0000
0010
0001
1001
0000
0101
0000
,
0110
0000
0000
0000
1010
0000
0000
0000
10M1
0000
0001
0010
0100
0000
0100
0010
,
0001
0000
0001
0010
0100
0000
0100
0010
0001
0000
1000
0010
0100
0000
0100
0010
,
1000
0000
1000
0010
0100
0000
0100
0010
100M
0000
0000
0000
0002
0000
0000
0000
,
0103
2000
3100
0002
,
0013
0000
0000
0000
1000
0000
0010
0100
0010
0000
0000
0000
2000
0000
0000
0000
,
3010
0002
0013
2000
,
3100
0000
0000
0000
0001
0000
0100
0010
0100
0000
0010
0000
1000
0000
0100
0000
,
0010
0000
0100
0000
1000
0000
0010
0100
0010
0000
0100
0000
0001
0000
1000
0000
,
0001
0000
0100
0000
0010
0000
1000
0100
0010
0100
0010
0100
0010
0100
0010
0100
,
0010
0100
0010
0100
0010
0100
0010
0100
0020
0000
0000
0000
0000
0000
0030
0000
,
0011
0001
0200
0300
1001
0001
0100
0010
,
1000
0100
0010
0001
0100
0010
1000
0100
,
0010
0001
0100
0000
0100
0001
0010
0100
,
1000
0010
0100
0001
0010
0100
1000
0010
,
0100
0001
1001
0000
1000
0001
0010
0001
,
1000
0001
0010
0001
1000
0001
0100
0001
,
1000
0001
0010
0000
0001
1000
0010
1000
,
0001
1000
0010
1000
1001
0001
0101
0100
,
0110
0010
1010
0000
1001
1000
0100
0010
,
0100
1000
0010
0100
0010
1000
0100
0010
,
0100
1000
0010
0000
0010
0100
0001
0010
,
0100
0010
0001
0100
0010
0100
0001
0010
,
0000
1000
1001
1001
0001
0010
0100
0010
,
0001
0100
0010
0100
0001
0010
0100
0010
,
0001
0100
0010
0000
0010
1000
0100
0010
,
0100
1000
0010
0100
0110
0010
1010
1000
,
1001
0001
0101
0000
1010
0010
0100
0000
,
0101
0100
0010
0000
1010
0010
0100
0000
,
0101
0100
0010
0000
1000
0100
1000
0001
,
1000
0010
1000
0100
0000
0100
1000
0001
,
1000
0010
1000
1000
1100
0100
0010
0000
,
0011
0010
0100
0000
1100
0100
0010
0000
,
0011
0010
0100
0000
0001
0100
0001
1000
,
0001
0010
0001
0100
0000
0100
0001
1000
,
0001
0010
0001
0001
1001
1000
0100
0000
,
1001
0001
0100
0000
1001
1000
0100
0000
,
1001
0001
0100
0000
0100
0001
0010
0100
,
1000
0010
0100
0001
0000
1000
0100
0010
,
0100
1000
0010
0010
2000
0000
3001
0000
,
0020
0130
2000
3010
,
0200
0301
2000
3100
,
0002
0103
1000
0100
,
0001
0100
0000
0000
;

//---------------dance-single - ----------------
#NOTES:
     dance-single:
     :
     Medium:
     5:
     0.370,0.411,0.244,0.222,0.000:
0000
0000
0000
0000
,
0002
1000
0010
0010
,
0200
0303
0000
0000
,
0002
0000
1000
0000
0010
0000
0100
0100
,
0200
0303
2000
3020
,
0230
0300
0002
0003
,
0001
1000
0001
1000
001M
0100
0002
0000
,
0000
0000
1000
0003
1M01
0000
0000
1000
,
0000
0000
1000
0100
0010
0000
0000
0010
,
0000
0000
0010
0100
1000
0000
0000
1000
,
0000
0000
0010
0100
0002
0000
0203
0000
,
0320
0000
2030
0000
3001
0000
0000
0001
,
0000
0000
0001
0100
0010
0000
0000
0010
,
0000
0000
0010
0100
0001
0000
0000
0001
,
0000
0000
0010
0100
2000
0000
3020
0000
,
0230
0302
1003
0001
,
0100
0000
0100
0100
0001
0000
0010
0000
,
0010
0000
0100
0100
1000
0000
0001
0000
,
0001
0000
0100
0100
0101
0000
0110
0000
,
0101
1001
1000
0001
,
0100
0000
0100
0100
0001
0000
0010
0000
,
0010
0000
0100
0100
1000
0000
0001
0000
,
0001
0000
0100
0100
0101
0000
0110
0000
,
0101
0000
1001
0000
1M01
1000
0010
0001
,
0010
1000
0010
0001
0100
1000
0100
0001
,
0100
1000
0010
0100
M101
0000
2000
0000
,
3100
0200
1300
2000
,
3100
0000
0010
0100
0010
0000
0002
0000
,
0103
0200
0301
0002
,
0103
0000
0010
0100
0010
0000
1000
0000
,
1000
0001
0001
1000
,
1000
0010
0020
0000
,
0000
0000
0000
0030
1010
0000
0000
0000
,
1000
0010
0100
0000
1001
0000
0001
0000
,
0010
0010
0100
0000
0010
0000
0001
0000
,
0100
0100
0010
0000
0100
0000
0001
0000
,
0010
0010
0100
0000
0010
0000
0001
0000
,
0100
1010
1000
0100
,
0010
0010
0100
0000
1000
0000
0010
0000
,
0100
0100
0010
0000
1000
0000
0100
0000
,
0010
0010
0100
0000
1100
0000
0101
0000
,
1000
0100
0001
0000
1001
0000
0100
0000
,
0001
0001
1000
0000
0001
0000
0100
0000
,
1000
1000
0001
0000
1000
0000
0100
0000
,
0001
0001
1000
0000
0001
0000
0100
0000
,
0000
0010
0100
0010
0010
0000
1000
0000
,
0001
0001
1000
0000
0010
0000
0001
0000
,
1000
1000
0001
0000
0010
0000
1000
0000
,
0001
0001
1000
0000
1010
0000
1010
0000
,
1000
0001
1000
0000
1100
0000
0010
0000
,
0011
0100
1100
0010
,
0011
0100
1100
0001
,
0100
0000
0001
1000
0001
0000
0100
0000
,
1000
0000
0010
1000
1010
0000
0100
0000
,
0101
0010
1010
0100
,
0101
0100
1010
1000
,
0100
0000
1000
0001
1000
0000
0100
0000
,
0001
0000
0010
0001
0011
0000
0010
0000
,
1001
0100
1001
0010
,
1001
0100
0010
0001
,
0010
0100
1000
0010
,
0100
0001
0002
1003
,
2000
3001
0020
0130
,
0200
0310
0002
1003
,
2000
3001
1000
0010
,
0100
0001
0000
0000
;

//---------------dance-single - ----------------
#NOTES:
     dance-single:
     :
     Easy:
     4:
     0.294,0.338,0.215,0.222,0.000: // measure 1
0000
0000
0000
0000
,  // measure 2
0020
1030
0100
0010
,  // measure 3
0002
0003
0000
0000
,  // measure 4
2000
3001
0010
0100
,  // measure 5
2000
3000
2000
3020
,  // measure 6
0230
0300
0002
0003
,  // measure 7
0010
0100
100M
0002
,  // measure 8
0000
0000
0000
0003
1M01
0000
0000
0000
,  // measure 9
0000
0000
1000
1000
1000
0000
0000
0000
,  // measure 10
0000
0000
0001
0001
0001
0000
0000
0000
,  // measure 11
0000
0000
1000
1000
2000
0000
3200
0000
,  // measure 12
2300
3200
0310
0000
,  // measure 13
0000
0000
0010
0010
0010
0000
0000
0000
,  // measure 14
0000
0000
0100
0100
0100
0000
0000
0000
,  // measure 15
0000
0000
0010
0010
0020
0000
0230
0000
,  // measure 16
0320
0230
0301
0001
,  // measure 17
0001
0100
1000
1000
,  // measure 18
1000
0100
0001
0001
,  // measure 19
0001
0100
0110
0110
,  // measure 20
1001
1001
1000
1000
,  // measure 21
1000
0010
0001
0001
,  // measure 22
0001
0010
1000
1000
,  // measure 23
1000
0010
0110
0110
,  // measure 24
1001
1001
1M01
1000
,  // measure 25
0100
1000
0001
0100
,  // measure 26
0001
0010
M001
2000
,  // measure 27
3000
0002
0003
2000
,  // measure 28
3000
0010
0010
2000
,  // measure 29
3000
0002
0003
2000
,  // measure 30
3000
0100
0100
0010
,  // measure 31
0010
0001
0001
0100
,  // measure 32
0100
0010
0020
0000
,  // measure 33
0000
0030
0110
0000
,  // measure 34
0010
0100
1001
0010
,  // measure 35
1000
0001
1000
0010
,  // measure 36
0001
1000
0001
0010
,  // measure 37
1000
0001
1000
0010
,  // measure 38
0100
0000
0100
0001
,  // measure 39
1000
0001
0100
1000
,  // measure 40
0001
1000
0100
0001
,  // measure 41
1000
0001
0101
0101
,  // measure 42
0110
0110
1001
0001
,  // measure 43
0010
0100
0010
0001
,  // measure 44
0100
0010
0100
0001
,  // measure 45
0010
0100
0010
0001
,  // measure 46
0000
0001
1000
0100
,  // measure 47
0010
0100
1000
0010
,  // measure 48
0100
0010
1000
0100
,  // measure 49
0010
0100
1000
1000
,  // measure 50
1000
1000
0110
0000
,  // measure 51
1010
0000
1100
0000
,  // measure 52
1001
0000
0001
0010
,  // measure 53
0100
1000
0010
0100
,  // measure 54
0001
1000
1100
0000
,  // measure 55
1001
0000
0101
0000
,  // measure 56
0110
0000
1000
0100
,  // measure 57
0010
0001
0100
0010
,  // measure 58
1000
0000
1001
0000
,  // measure 59
0011
0000
0110
0000
,  // measure 60
1100
0000
0010
0001
,  // measure 61
1000
0001
0100
0001
,  // measure 62
1000
0001
0020
0130
,  // measure 63
0200
0310
0020
0130
,  // measure 64
0200
0310
0020
0130
,  // measure 65
0200
0310
0001
1000
,  // measure 66
0001
1000
0000
0000
;
