#TITLE:Dancing☆Samurai;
#SUBTITLE:-english cover-;
#ARTIST:mathru feat. JubyPhonic;
#TITLETRANSLIT:;
#SUBTITLETRANSLIT:;
#ARTISTTRANSLIT:;
#GENRE:;
#CREDIT:;
#BANNER:[Passport] - Dancing Samurai -english cover-.png;
#BACKGROUND:[Passport] - Dancing Samurai -english cover--bg.png;
#LYRICSPATH:;
#CDTITLE:;
#MUSIC:[Passport] - Dancing Samurai -english cover-.ogg;
#OFFSET:-1.781353;
#SAMPLESTART:10.268079;
#SAMPLELENGTH:13.521125;
#SELECTABLE:YES;
#BPMS:0.000000=142.000000
,132.000000=71.000000
,140.000000=142.000000
;
#STOPS:
;
#BGCHANGES:0.250=[Passport] - Dancing Samurai -english cover-.avi=1.000=1=0=1===CrossFade==,
99999=-nosongbg-=1.000=0=0=0 // don't automatically add -songbackground-
;
#KEYSOUNDS:;
#ATTACKS:;

//---------------dance-single - ----------------
#NOTES:
     dance-single:
     :
     Hard:
     9:
     0.591704,0.617462,0.229635,0.212625,0.250897,487.000000,460.000000,27.000000,25.000000,0.000000,0.000000,0.591704,0.617462,0.229635,0.212625,0.250897,487.000000,460.000000,27.000000,25.000000,0.000000,0.000000:
0000
0000
0000
0000
,
0000
0000
0000
0000
,
0000
0000
0000
0000
,
0000
0000
0000
0000
,
0000
0000
0000
0000
,
1000
0010
0100
0001
,
1000
0000
0100
0000
0010
0000
0000
0000
0001
0010
0000
0001
1000
0000
0001
0000
,
0100
0000
0010
0100
0010
0000
1000
0010
,
1000
0000
0100
0000
0001
0000
0100
0000
1000
0000
0000
1000
0010
0000
0100
0000
,
0001
0010
0100
1000
,
0001
0000
0100
0000
0010
0000
0000
0000
1000
0010
0000
1000
0001
0000
1000
0000
,
0100
0000
0100
0000
0010
0000
0100
0000
0010
0001
0000
0001
0010
0000
0001
0000
,
1000
0010
0100
0001
1000
0000
1001
0000
,
0001
0000
0000
0000
1001
0000
1000
0100
1000
0000
0100
0000
0010
0000
0001
0000
,
0100
0000
0000
0000
0101
0000
0001
0100
0001
0000
0100
0000
0010
0000
1000
0000
,
0100
0000
0000
0000
1100
0000
1000
0100
0010
0000
0001
0000
2000
0000
0000
0000
,
3001
0000
0010
0000
0100
0000
1000
0000
0002
0000
0000
0000
1003
0001
1000
0001
,
1000
0100
1000
0000
0001
0010
0001
0000
,
1000
0010
0100
0001
1000
0000
1001
0000
,
0001
0100
0001
0000
1000
0010
1000
0000
,
0001
0010
0100
1000
0001
0000
1001
0000
,
1000
0100
0010
0010
0100
0010
0001
0000
,
1000
0010
0100
0100
0001
1000
0001
0000
,
1000
0100
1000
1000
0001
1000
0001
0001
,
0200
0000
0320
0000
1030
0100
0010
0001
,
2001
3100
0120
0031
,
0012
0000
0100
0000
1003
0001
0001
1000
,
1001
0001
0100
0010
0110
0010
1000
0100
,
1200
0320
0032
2003
,
3001
0000
0100
0000
0010
0000
0100
0000
1000
0000
0100
0010
0100
0000
0001
0000
,
0101
0000
0000
1001
0000
0000
1100
0000
0000
0000
1000
0100
0010
0001
1000
0010
,
0100
0001
0100
0001
1000
0001
1000
0001
,
2000
0000
3200
0000
0320
0032
2003
3020
,
0130
0001
1000
1000
0001
0010
0100
0100
,
1000
0100
1000
0000
0001
0100
0001
0000
0100
0000
0010
0000
1000
0000
0001
1000
,
0001
0100
0010
0100
0001
0100
0010
0010
,
1000
0100
0010
0100
1000
0100
0010
0010
,
0001
0010
0001
0001
1000
0010
1000
1000
,
0001
0010
0100
1000
0001
0000
1001
0000
,
1010
0110
0101
1001
,
1000
0000
0001
0000
0010
0000
0000
0000
0100
0010
0000
0001
1000
0000
0001
0000
,
0100
0000
0000
0100
0010
0000
0100
0000
0010
0000
0000
0010
1000
0000
0010
0000
,
1000
0000
0100
0000
0001
0000
0100
0000
0010
0000
0001
0010
0100
0000
1000
0000
,
1100
0110
0011
1001
,
1000
0000
0010
0000
0100
0000
0000
0000
0010
0100
0000
0001
1000
0000
1000
0000
,
0001
0000
0010
0000
0100
0000
1000
0000
0010
0100
0000
0100
0001
0000
0010
0000
,
0001
0000
0100
0000
1000
0000
0100
0000
0010
0000
0000
0000
1000
0001
1000
0001
,
1000
0000
0100
0000
0001
0000
0100
0000
0010
0000
0000
0000
0001
1000
0001
1000
,
0001
0000
0100
0000
0010
0000
1000
0000
0001
0000
0000
0000
1000
0001
1000
0001
,
1000
0000
0000
1100
0000
0000
0110
0000
0000
0000
0011
0000
0001
1000
0001
1000
,
0002
0000
0000
0000
0103
0000
0010
1000
0010
0000
1000
0000
0001
0000
0001
0000
,
2000
0000
0000
0000
3100
0000
1000
0100
0010
0000
0001
0000
1000
0000
1000
0000
,
0020
0000
0000
0000
0130
0000
0010
0100
0001
0000
1000
0000
0100
0000
0100
0000
,
1000
0100
0010
0100
0001
0100
0010
0100
,
2000
0000
0000
0000
3100
0000
1000
0100
0010
0000
0001
0010
0001
0000
1000
0000
,
0002
0000
0000
0000
1003
0000
0001
0100
0010
0000
1000
0010
1000
0000
0001
0000
,
2000
0000
0000
0000
3100
0000
1000
0001
1000
0000
0010
0100
0010
0000
1000
0000
,
0001
0100
0010
0100
1000
0100
0010
0100
,
0001
0000
0100
0000
0010
0000
1000
0010
0000
1000
0001
0000
1000
0000
1000
0000
,
0001
0000
0010
0000
0100
0000
0010
0100
0000
1000
0001
0000
1000
0000
1000
0000
,
0001
0000
0100
0000
0010
0000
1000
0010
0000
1000
0001
0000
1000
0000
1000
0000
,
0001
0010
1000
0010
0001
0100
1000
0100
,
0001
0000
0100
0000
0010
0000
1000
0010
0000
1000
0001
0000
0010
0000
0010
0000
,
0100
0000
1000
0000
0001
0000
0100
0001
0000
1000
0001
0000
0010
0000
0010
0000
,
0100
0000
1000
0000
0001
0000
0100
0010
0000
1000
0001
0000
1000
0000
1000
0000
,
0001
0010
1000
0010
0002
0000
0203
0000
,
0300
0000
0000
0000
;

//---------------dance-single - ----------------
#NOTES:
     dance-single:
     :
     Medium:
     7:
     0.391230,0.477130,0.144585,0.229635,0.008505,322.000000,305.000000,17.000000,27.000000,0.000000,0.000000,0.391230,0.477130,0.144585,0.229635,0.008505,322.000000,305.000000,17.000000,27.000000,0.000000,0.000000:
0000
0000
0000
0000
,
0000
0000
0000
0000
,
0000
0000
0000
0000
,
0000
0000
0000
0000
,
0000
0000
0000
0000
,
0001
0010
0100
0100
,
1000
0010
0100
0100
,
0002
0013
0020
0130
,
0100
1000
0100
0010
0001
0000
1000
0001
,
1000
0001
0010
0010
,
0001
1000
0010
0010
,
0200
0301
0002
1003
,
1000
0100
0010
0001
2000
0000
3020
0000
,
0230
0000
0300
0010
0100
0001
1000
0100
,
0020
0000
0030
0100
0010
0001
1000
0010
,
0200
0000
0300
0010
0100
0001
2000
0000
,
3001
0010
0100
1000
0002
0000
0003
0000
,
1000
0100
0001
0100
,
1000
0100
1000
0100
1000
0000
0000
0000
,
0001
0100
1000
0100
,
0001
0100
0001
0100
0001
0000
0000
0000
,
1000
0010
0001
0010
,
1000
0010
1000
0010
1000
0000
0000
0000
,
0001
0010
1000
0010
,
0001
0010
0100
1000
,
2100
0000
3010
0000
0100
0010
0100
0000
,
0102
0000
0013
0000
1000
0001
1000
0000
,
0100
0010
0100
0000
1000
0001
1000
0000
,
0010
0010
0100
0100
,
0001
0100
0010
0000
0100
0010
1000
0000
,
0001
0000
0000
1000
0000
0000
1001
0000
0000
0000
0000
0000
0001
0000
1000
0000
,
0001
0001
0010
0010
,
0100
0000
1000
0000
0010
0100
0001
1000
,
0100
0100
0100
0000
0010
0010
0010
0000
,
0001
0000
0001
0000
1000
1000
1000
0000
,
0001
0100
0010
0100
,
1000
0100
0010
0100
,
0001
0010
1000
0010
,
0001
0010
0100
1000
0002
0000
0203
0000
,
0310
1000
1010
1001
,
0001
0010
0011
0110
,
0200
0310
0020
0130
,
0200
0000
2300
0000
3001
0100
1000
0100
,
0001
0010
0011
0110
,
0100
1000
1100
1001
,
0002
1003
2000
3001
,
1000
0010
1000
0010
2000
0000
3000
0000
,
0001
0010
0001
0010
0002
0000
0003
0000
,
1000
0100
1000
0100
2000
0000
3000
0000
,
0001
0000
0000
0100
0000
0000
0002
0000
0000
0000
0003
0000
0000
0000
0000
0000
,
1000
0000
0010
0000
0100
0010
0100
0000
,
0001
0000
0010
0000
0100
0010
0100
0000
,
1000
0000
0001
0000
0100
0010
0100
0000
,
0010
1000
0010
1000
0001
1000
0001
1000
,
0100
0000
0010
0000
0001
1000
0010
0000
,
0100
0000
0001
0000
1000
0100
0010
0000
,
0001
0000
1000
0000
0010
0100
0001
0000
,
1000
0100
1000
0100
0010
0001
0010
0001
,
1000
0010
0100
0000
0010
0000
0110
0000
,
0100
0001
0010
0000
0100
0000
0110
0000
,
0010
0100
1000
0000
0001
0000
1001
0000
,
1000
0010
0100
0001
1000
0100
0010
0001
,
1000
0100
0010
0001
1000
0000
1001
0000
,
0001
0100
0010
1000
0001
0000
1001
0000
,
1000
0100
1000
0010
1000
0000
1001
0000
,
0001
0010
0100
0010
0002
0000
2003
0000
,
3000
0000
0000
0000
;

//---------------dance-single - ----------------
#NOTES:
     dance-single:
     :
     Easy:
     5:
     0.225990,0.279602,0.017010,0.127575,0.000000,186.000000,184.000000,2.000000,15.000000,0.000000,0.000000,0.225990,0.279602,0.017010,0.127575,0.000000,186.000000,184.000000,2.000000,15.000000,0.000000,0.000000:
// measure 0
0000
0000
0000
0000
,  // measure 1
0000
0000
0000
0000
,  // measure 2
0000
0000
0000
0000
,  // measure 3
0000
0000
0000
0000
,  // measure 4
0000
0000
0000
0000
,  // measure 5
1000
0010
1000
1000
,  // measure 6
0001
0010
0001
0001
,  // measure 7
1000
0000
1000
0000
,  // measure 8
0001
1000
0001
0000
,  // measure 9
1000
0100
1000
1000
,  // measure 10
0001
0100
0001
0001
,  // measure 11
0100
0000
0010
0000
,  // measure 12
1000
0001
1000
0000
,  // measure 13
0200
0300
0100
0100
,  // measure 14
0020
0030
0010
0010
,  // measure 15
0002
0003
0001
0001
,  // measure 16
1000
0001
2000
3000
,  // measure 17
0010
0000
0010
0000
,  // measure 18
0010
1000
0010
0000
,  // measure 19
1000
0000
1000
0000
,  // measure 20
1000
0100
1000
0000
,  // measure 21
0100
0000
0100
0000
,  // measure 22
0010
0100
0010
0000
,  // measure 23
0001
0000
0001
0000
,  // measure 24
0010
0001
0010
0001
,  // measure 25
2000
0000
0010
0010
,  // measure 26
3020
0000
0100
0100
,  // measure 27
0230
0301
0002
1003
,  // measure 28
2000
3002
0023
0230
,  // measure 29
1300
1000
1000
1000
,  // measure 30
1001
0000
0000
0000
,  // measure 31
0001
0001
0001
0001
,  // measure 32
0001
0100
0010
1000
,  // measure 33
0001
0000
0001
0000
,  // measure 34
0010
0010
0010
0000
,  // measure 35
0100
0000
0100
0000
,  // measure 36
1000
0000
1000
0000
,  // measure 37
0001
0001
0100
0100
,  // measure 38
0010
1000
0001
0000
,  // measure 39
0010
0100
0010
0010
,  // measure 40
0001
0100
0010
0010
,  // measure 41
1000
1000
0010
0010
,  // measure 42
1000
0001
1000
0000
,  // measure 43
0001
0010
0100
0100
,  // measure 44
0010
0100
1000
1000
,  // measure 45
0001
0010
0001
1000
,  // measure 46
0010
0100
0010
0000
,  // measure 47
1000
0001
1000
0000
,  // measure 48
0100
0010
0100
0000
,  // measure 49
0220
0000
0000
0000
0000
0330
0000
0000
,  // measure 50
0010
0000
0001
0000
,  // measure 51
1000
0000
0010
0000
,  // measure 52
0100
0000
0001
0000
,  // measure 53
1000
1000
1000
1000
,  // measure 54
1000
0000
0100
0000
,  // measure 55
1000
0000
0010
0000
,  // measure 56
0100
0000
0001
0000
,  // measure 57
0010
0010
0010
0010
,  // measure 58
0010
0100
0010
0000
,  // measure 59
0001
1000
0001
0000
,  // measure 60
0100
0010
0100
0000
,  // measure 61
0010
0010
0010
0010
,  // measure 62
0010
1000
0010
0000
,  // measure 63
1000
0001
1000
0000
,  // measure 64
0001
0010
0001
0000
,  // measure 65
0010
0010
0020
0030
;

//---------------dance-single - ----------------
#NOTES:
     dance-single:
     :
     Beginner:
     2:
     0.104490,0.167123,0.008505,0.000000,0.000000,86.000000,85.000000,1.000000,0.000000,0.000000,0.000000,0.104490,0.167123,0.008505,0.000000,0.000000,86.000000,85.000000,1.000000,0.000000,0.000000,0.000000:
0000
0000
0000
0000
,
0000
0000
0000
0000
,
0000
0000
0000
0000
,
0000
0000
0000
0000
,
0000
0000
0000
0000
,
0001
0000
0000
0000
,
0001
0000
0000
0000
,
0010
0000
0010
0000
,
0010
0000
0000
0000
,
0100
0000
0000
0000
,
0100
0000
0000
0000
,
1000
0000
1000
0000
,
1000
0000
0000
0000
,
0010
0000
0000
0000
,
0010
0000
0000
0000
,
0100
0000
0000
0000
,
0100
0000
0000
0000
,
0001
0000
0000
0000
,
0001
0000
0000
0000
,
1000
0000
1000
0000
,
1000
0000
0000
0000
,
0100
0000
0000
0000
,
0100
0000
0000
0000
,
0010
0000
0010
0000
,
0010
0000
0000
0000
,
0001
0000
0000
0000
,
1000
0000
0000
0000
,
0010
0000
0010
0000
,
0010
0000
0000
0000
,
0100
0000
0100
0000
,
0100
0000
0000
0000
,
0001
0000
0000
0000
,
0001
0000
0000
0000
,
1000
0000
1000
0000
,
0100
0000
0100
0000
,
0010
0000
0010
0000
,
0010
0000
0010
0000
,
0001
0000
0001
0000
,
0001
0000
0001
0000
,
1000
0000
0000
0000
,
1000
0000
1000
0000
,
0010
0000
0000
0000
,
0010
0000
0010
0000
,
0100
0000
0000
0000
,
0100
0000
0100
0000
,
0001
0000
0000
0000
,
0001
0000
0001
0000
,
1000
0000
1000
0000
,
0100
0000
0100
0000
,
0110
0000
0000
0000
,
0010
0000
0000
0000
,
0001
0000
0000
0000
,
1000
0000
0000
0000
,
0010
0000
0010
0000
,
0010
0000
0000
0000
,
0100
0000
0000
0000
,
0001
0000
0000
0000
,
1000
0000
1000
0000
,
1000
0000
0000
0000
,
0100
0000
0000
0000
,
1000
0000
1000
0000
,
0001
0000
0001
0000
,
0100
0000
0000
0000
,
0010
0000
0000
0000
,
0100
0000
0100
0000
,
0010
0000
0010
0000
;
