#TITLE:Belt Parkway Nights;
#SUBTITLE:;
#ARTIST:DJBor;
#TITLETRANSLIT:;
#SUBTITLETRANSLIT:;
#ARTISTTRANSLIT:;
#GENRE:;
#CREDIT:;
#BANNER:[Passport] - Belt Parkway Nights.png;
#BACKGROUND:[Passport] - Belt Parkway Nights-bg.png;
#LYRICSPATH:;
#CDTITLE:;
#MUSIC:Belt Parkway Nights.ogg;
#OFFSET:-0.050000;
#SAMPLESTART:72.449997;
#SAMPLELENGTH:12.100000;
#LASTBEATHINT:264.662262;
#SELECTABLE:YES;
#BPMS:0.000000=159.000000
,58.000000=79.500000
,60.000000=159.000000
,122.000000=79.500000
,136.000000=159.000000
,200.000000=79.500000
,202.000000=159.000000
;
#STOPS:29.500000=0.755000,
116.000000=0.755000,
258.000000=0.775000
;
#BGCHANGES:;
#KEYSOUNDS:;
#ATTACKS:;

//---------------dance-single - ----------------
#NOTES:
     dance-single:
     :
     Beginner:
     2:
     0.180954,0.240577,0.063789,0.118466,0.000000,139.000000,132.000000,7.000000,13.000000,9.000000,0.000000,0.180954,0.240577,0.063789,0.118466,0.000000,139.000000,132.000000,7.000000,13.000000,9.000000,0.000000:
0000
0000
0000
0000
,
0000
0000
0000
0000
,
0000
0000
0000
0000
,
0000
0000
0000
0000
,
1000
0000
0010
0000
,
0100
0000
0001
0000
,
0010
0000
0100
0000
,
1000
0000
0000
000M
0000
0000
0000
0000
,
1000
0000
0001
0000
,
0001
0000
0100
0000
,
0100
0000
0010
0000
,
0010
0000
1000
0000
,
0100
0000
0001
0000
,
0100
0000
1000
0000
,
0010
0000
M200
0000
,
M301
0000
0010
0000
,
0100
0000
2000
3000
,
1000
0000
0010
0000
,
0100
0000
0001
0001
,
0001
0000
1000
0000
,
0100
0000
0010
0000
,
0100
0000
1000
0000
,
0001
0000
0100
0100
,
0100
0000
0010
0000
,
1000
0000
0001
0000
,
0100
0000
0001
0000
,
1000
0000
0010
0010
,
0010
0000
1000
0000
,
0001
0000
0010
0000
,
010M
1001
0000
0000
,
0010
0000
M200
0000
,
0301
1000
0200
0000
,
1300
0001
0020
0000
,
0031
1000
0020
0000
,
013M
0000
0000
0000
,
1001
0000
0000
0200
,
0000
0000
0310
0000
,
1001
0000
0000
0020
,
0000
0000
0130
0000
,
0001
0000
0000
2000
,
0000
0000
3001
0000
,
0100
0000
0010
0010
,
0000
0100
0100
0000
,
0001
0000
0010
0010
,
0000
0100
0100
0000
,
1000
0000
0010
0010
,
0000
0100
0100
0000
,
0001
0000
1000
1000
,
0000
0001
0001
0000
,
0100
0000
0010
0000
,
1M01
0000
10M0
0000
,
0010
0000
0100
0000
,
0001
0000
0001
0000
,
0010
0000
0100
0000
,
1000
1000
1000
0000
,
0001
0000
0100
0000
,
0010
0000
0100
0000
,
0001
0000
1000
0000
,
0010
0010
0010
0000
,
1000
0000
0001
0000
,
0100
0000
0100
0000
,
0010
0000
1000
0000
,
0001
0001
0001
0000
,
0010
0000
0100
0000
,
1000
0000
10M1
0220
,
0000
0330
2002
0000
,
3003
0000
0000
0000
;

//---------------dance-single - ----------------
#NOTES:
     dance-single:
     :
     Easy:
     4:
     0.322853,0.330794,0.246045,0.264271,0.000000,248.000000,221.000000,27.000000,29.000000,9.000000,0.000000,0.322853,0.330794,0.246045,0.264271,0.000000,248.000000,221.000000,27.000000,29.000000,9.000000,0.000000:
0000
0000
0000
0000
,
0000
0000
0000
0000
,
0000
0000
0000
0000
,
0000
0000
0000
0000
,
1000
0100
1000
0000
,
0001
0100
0010
1000
,
0001
0100
0010
0000
,
0010
0000
0000
10M1
0100
0000
0001
0000
,
0020
0030
0100
0010
,
0001
1000
0100
1000
,
0020
0000
1030
0010
,
0110
0110
0001
1000
,
0020
0000
0130
0010
,
1000
0001
0100
0001
,
0010
0000
0100
0000
200M
0000
0000
3000
,
0M01
0100
0010
1000
,
1000
0010
0200
0000
,
0301
0010
0100
1000
,
1000
0100
0011
1001
,
1000
0010
0100
0001
,
0001
0100
0020
0000
,
1030
0100
0010
0001
,
0001
0010
1100
1001
,
0010
0001
0010
0100
,
1000
0001
0200
0000
,
0310
1000
0010
0100
,
0001
1000
1010
0011
,
0001
0100
0010
1000
,
0100
1000
0020
0030
,
1M01
0220
0000
0330
,
2002
0003
32M0
1000
,
1000
1000
0320
0100
,
0100
0100
0032
1000
,
1000
0000
1000
0000
0203
0000
0010
0300
,
100M
0001
0010
0100
,
1001
0010
0010
2000
,
0000
3100
0010
0001
,
1001
0001
0010
0002
,
0000
0103
0010
1000
,
0100
0000
0000
0010
0000
0000
1001
0000
,
0000
0010
1000
0001
,
0010
0000
0000
0100
0000
0000
1001
0000
,
0000
0010
0001
1000
,
0100
0010
0001
0002
,
1003
0010
0110
0010
,
1000
0001
0010
0020
,
0130
1000
1001
0001
,
0100
0000
0000
0001
0000
0000
0020
0000
,
0000
0130
1000
0001
,
0100
0001
1000
0010
,
M200
0000
0000
0301
10M0
0000
0100
0000
,
0010
0001
0001
0100
,
0020
0000
1030
0010
,
0100
0001
0001
0010
,
1100
1001
0001
0100
,
0010
1000
1000
0100
,
0020
0000
0031
0010
,
0100
1000
1000
0010
,
1001
0011
0010
0100
,
0010
0001
1000
0001
,
0200
0000
0301
1000
,
0001
0010
0100
1000
,
1010
0011
0001
0100
,
1000
0100
0001
0010
,
1000
0010
011M
2002
,
0000
3003
0220
0000
,
0330
0000
0000
0000
;

//---------------dance-single - ----------------
#NOTES:
     dance-single:
     :
     Medium:
     6:
     0.432206,0.631516,0.246045,0.364511,0.018226,332.000000,305.000000,27.000000,40.000000,9.000000,0.000000,0.432206,0.631516,0.246045,0.364511,0.018226,332.000000,305.000000,27.000000,40.000000,9.000000,0.000000:
0000
0000
0000
0000
,
0000
0000
0000
0000
,
0000
0000
0000
0000
,
0000
0000
0000
0000
,
0100
0000
1000
0000
0020
0000
0000
0130
,
0000
0001
0000
0010
0001
0000
1001
0000
,
0100
0000
0001
0000
0020
0000
0030
0110
,
0000
0001
1000
010M
0100
0000
1000
0000
,
0020
0000
0000
0130
0000
0001
0000
0010
,
0001
1001
0001
0100
,
0020
0000
0000
1030
0000
0100
0000
0010
,
0011
0000
1100
0000
0100
1000
0100
0000
,
0010
0001
0010
0000
0001
0100
0001
0000
,
1000
0010
1000
0000
0100
0010
0100
0010
,
0001
1000
0001
2000
00M0
0000
0000
3000
,
10M1
0000
0000
0100
0010
0000
1000
0100
,
0000
0100
0000
1000
0020
0000
0030
0000
,
0110
0000
0000
0001
1000
0000
0100
0001
,
0000
0001
0000
0100
0010
0000
0110
0000
,
1001
0000
0000
0010
0100
0000
0001
0010
,
0000
0010
0000
0001
2000
0000
0000
3000
,
0110
0000
0000
1000
0001
0000
0010
1000
,
0000
1000
0000
0010
0002
0000
2003
0000
,
3010
0000
0010
1000
0010
0000
0100
0001
,
0000
1000
0010
1000
0200
0000
0000
0000
,
0310
0000
0010
0001
0010
0000
0100
1000
,
0000
0001
1000
0010
0010
0000
1001
0000
,
0001
0000
0001
0100
0010
0000
1000
0100
,
0000
0100
0010
0001
2000
0000
0000
0000
,
30M1
0220
0000
0330
,
2002
0000
3000
0000
20M3
0100
0100
3100
,
0020
0001
0001
0031
0200
0010
0010
0310
,
0002
1000
1000
1003
0100
0020
0001
0031
,
0100
0000
0020
0000
1000
0000
1030
0000
0100
0010
0100
0010
0001
1000
0001
1000
,
0M01
0010
0001
0100
0010
1000
0001
0000
,
1001
0000
0010
0010
0010
1000
0002
0000
,
0003
0000
0100
0100
0001
0010
0100
1000
,
0000
0000
0001
0001
1000
0010
0200
0000
,
0000
0000
0301
0010
0100
1000
0100
0010
,
0001
0000
0100
0010
0000
1000
0002
0000
,
0003
0000
0010
0100
0010
0000
0001
0000
,
0200
0000
0000
0310
1000
0010
0200
0000
,
0000
0301
0010
0100
2000
0000
0000
0000
,
3001
0000
0010
0100
0010
0100
0020
0000
,
0000
0000
0031
0100
0010
0000
1001
0000
,
1000
0000
0100
0010
0100
0010
0200
0000
,
0000
0000
1300
0001
0100
0001
1000
0010
,
0200
0000
0000
0301
1000
0000
0220
0000
,
0330
0000
0010
1000
0100
0000
0010
0001
,
0100
0000
0100
0001
0000
0001
0010
0000
,
M110
0000
0000
1001
0M10
0000
0000
1000
,
0010
0000
0100
0001
0000
0001
0000
1000
,
0200
0000
0000
0000
0310
0000
0000
0001
,
0010
0000
0100
1000
0000
1000
0000
0001
,
0011
0000
1100
0000
1001
0000
0000
1000
,
0010
0000
0100
0001
0000
0010
0000
0001
,
2000
0000
0000
0000
3001
0000
0000
0001
,
0100
0000
0010
1000
0000
0100
0000
1000
,
1010
0000
0101
0000
0010
0000
1000
0010
,
0100
0000
0001
0100
0000
0100
0001
1000
,
0020
0000
0000
0000
1030
0000
0100
1000
,
0001
0000
0010
0001
0000
0001
0100
0010
,
1001
0000
0110
0000
1000
0000
0100
0010
,
0001
0000
0001
1000
0000
1000
0010
0100
,
0002
0000
1M03
0220
,
0000
0330
2002
0000
,
3003
0000
0000
0000
;

//---------------dance-single - ----------------
#NOTES:
     dance-single:
     :
     Hard:
     9:
     0.626178,0.932237,0.355398,0.355398,0.341729,481.000000,442.000000,39.000000,39.000000,9.000000,0.000000,0.626178,0.932237,0.355398,0.355398,0.341729,481.000000,442.000000,39.000000,39.000000,9.000000,0.000000:
// measure 0
0000
0000
0000
0000
,  // measure 1
0000
0000
0000
0000
,  // measure 2
0000
0000
0000
0000
,  // measure 3
0000
0000
0000
0000
,  // measure 4
1100
0000
0101
0001
0010
0100
1000
0100
,  // measure 5
0011
0000
0000
0000
1010
0000
1000
0000
0100
0000
0010
0000
0001
0010
0001
0010
,  // measure 6
0100
0000
1001
1000
0010
0100
0001
0010
,  // measure 7
0000
0001
0100
0000
0010
0100
002M
0000
1030
0000
0000
0000
0011
0000
0000
0000
,  // measure 8
0001
0100
0010
1000
0100
0001
0100
1000
,  // measure 9
0001
0110
1001
1010
,  // measure 10
1000
0010
0100
0001
0010
1000
0010
0001
,  // measure 11
0011
0000
1001
0000
0000
1100
0000
0000
0110
0000
0000
0000
1001
0000
0000
0000
,  // measure 12
1000
0100
0001
1000
0010
0001
0100
0010
,  // measure 13
1000
0000
1001
0000
0001
0001
0100
0100
,  // measure 14
0010
0000
0010
0000
1000
0000
2000
0000
00M0
3200
0000
0320
0031
0000
0200
0000
,  // measure 15
M320
0000
0000
1030
0000
0000
0100
0000
0011
0000
0000
0000
0001
0000
1000
0000
,  // measure 16
0000
1000
0000
0001
0021
0100
0100
0100
,  // measure 17
0031
0000
0000
0100
0000
0000
0010
0000
1100
0000
0000
0000
1000
0000
0001
0000
,  // measure 18
0000
0000
0001
0000
1000
0000
0010
0000
0110
0000
0000
0100
0001
0000
1000
0001
,  // measure 19
0020
0000
0000
0031
0000
0000
0100
0000
1010
0000
0000
0000
0010
0000
0100
0000
,  // measure 20
0000
0100
0000
0010
2010
0001
0001
0001
,  // measure 21
3010
0000
0000
0100
0000
0000
0001
0000
0101
0000
0000
0000
0100
0000
0010
0000
,  // measure 22
0000
0000
1000
0000
0001
0000
0010
0000
0001
0100
0001
0100
0001
1000
0001
1000
,  // measure 23
0010
0000
0000
0010
0000
0000
1000
0000
0020
0000
0000
0000
0130
0000
0001
0000
,  // measure 24
0000
0001
0000
0100
2001
0001
0001
3002
,  // measure 25
0013
0000
0000
0010
0000
0000
0001
0000
0020
0000
0000
0000
0130
0000
1000
0000
,  // measure 26
0000
0000
1000
0000
0001
0000
0010
0000
0110
0000
0000
0001
1000
0000
0100
0010
,  // measure 27
0001
0000
0000
0001
0000
0000
1000
0000
0002
0000
0000
0000
0103
0000
0010
0000
,  // measure 28
0000
0010
0000
0100
2010
0001
0001
0001
,  // measure 29
30M1
0000
0000
0000
0010
0000
0000
0001
0000
0000
1000
0000
0000
0100
0000
0000
,  // measure 30
2002
0000
0000
0000
0000
0000
3003
0000
0M10
0000
0010
0001
0010
0100
1000
0000
,  // measure 31
0010
0000
0000
0000
0010
0000
1000
0000
0010
0000
0100
0000
0001
0000
1000
0001
0100
0000
0000
0000
0100
0000
0001
0000
0100
0000
0010
0000
1000
0000
0000
0000
,  // measure 32
0100
0000
0000
0000
0100
0000
1000
0000
0100
0000
0010
0000
0001
0000
1000
0001
1000
0000
0000
0000
1000
0000
0010
0000
1000
0000
0001
0000
0100
0000
0000
0000
,  // measure 33
0001
0000
0000
0000
0001
0000
0010
0000
0001
0000
1000
0000
0100
0000
0010
0100
0010
0000
0001
0000
0100
0000
0010
0000
1000
0000
0100
0000
0010
0000
0010
0000
,  // measure 34
010M
1000
0001
0100
0010
2000
0002
3003
,  // measure 35
1001
0000
0010
0010
0010
1000
0002
0000
,  // measure 36
0000
0103
1000
0100
0010
1000
0001
0010
,  // measure 37
0100
0000
1000
1000
0001
0010
0200
0000
,  // measure 38
0000
0000
0300
0000
1000
0000
0010
0000
0001
0000
0010
0000
1000
0001
1000
0000
,  // measure 39
0100
1000
0001
0020
0000
0031
2000
0000
,  // measure 40
0000
0000
3010
0000
0100
0001
0010
0000
0100
0000
1000
0000
0001
0000
0010
0001
,  // measure 41
0200
0000
0000
0310
1000
0010
0200
0000
,  // measure 42
0000
0000
0301
0000
0010
0000
0100
0000
1000
0100
0000
0010
0001
0000
1000
0000
,  // measure 43
0001
0000
0010
0100
0010
0001
2000
0000
,  // measure 44
0000
0000
3100
0000
1000
0000
0001
0000
0010
0000
0001
0000
0100
0010
0100
0000
,  // measure 45
0002
0000
0013
0100
1000
0010
0200
0000
,  // measure 46
0000
0000
0300
0000
0001
0000
0100
0000
0010
0000
1000
0000
0001
0010
0001
0010
,  // measure 47
0100
0000
0100
1000
0001
0100
0020
0000
,  // measure 48
0000
0000
0000
0000
1030
0000
0100
0000
0010
0000
0001
0000
1000
0001
1000
0000
,  // measure 49
0100
0100
1000
0010
0010
0100
0001
0001
,  // measure 50
10M0
0100
1000
0100
0010
0001
0100
0000
101M
0000
0000
0001
0000
0000
0100
0000
,  // measure 51
1010
0000
0100
0001
0000
0001
0000
0010
,  // measure 52
0012
0000
1000
0000
1000
0000
1000
0000
1003
0000
0000
0100
0000
0000
1000
0000
,  // measure 53
0011
0000
0100
1000
0000
1000
0001
0010
,  // measure 54
0110
0000
0000
0001
0100
0000
0010
1000
0100
0000
0000
1000
0000
0000
0010
0000
,  // measure 55
0101
0000
0010
1000
0000
1000
0000
0100
,  // measure 56
2100
0000
0001
0000
0001
0000
0001
0000
3001
0000
0000
0010
0000
0000
0001
0000
,  // measure 57
1100
0000
0010
0001
0000
0001
1000
0010
,  // measure 58
1000
0100
1000
0100
1000
0001
1000
0001
0010
0000
0000
0010
0000
0000
0001
0000
,  // measure 59
0020
0000
0130
1000
0000
1000
0000
0010
,  // measure 60
1002
0000
1000
0000
1000
0000
2003
0000
3010
0000
0000
0010
0000
0000
1000
0000
,  // measure 61
0020
0000
0130
0001
0000
0001
1000
0010
,  // measure 62
0110
0000
0000
1000
0100
0000
0010
0001
1000
0000
0000
0001
0000
0000
1000
0000
,  // measure 63
0002
0000
0103
0010
0000
0010
0000
0100
,  // measure 64
2010
0000
0001
0000
0001
0000
0001
0000
30M1
0000
0000
0000
0100
0000
0000
0001
,  // measure 65
0000
0000
1000
0000
0000
0010
0000
0000
0220
0000
0000
0000
0000
0000
0000
0000
,  // measure 66
0330
0000
0000
0000
;
