#TITLE:American Idiot;
#SUBTITLE:;
#ARTIST:Green Day;
#TITLETRANSLIT:;
#SUBTITLETRANSLIT:;
#ARTISTTRANSLIT:;
#GENRE:;
#CREDIT:mf32892;
#BANNER:[Passport] - American Idiot-bn.png;
#BACKGROUND:[Passport] - American Idiot-jacket.jpg;
#LYRICSPATH:;
#CDTITLE:cdtitle.png;
#MUSIC:[Passport] - American Idiot.ogg;
#OFFSET:-0.283425;
#SAMPLESTART:28.650000;
#SAMPLELENGTH:18.064514;
#SELECTABLE:YES;
#BPMS:0.000000=186.000000
;
#STOPS:
;
#BGCHANGES:;
#KEYSOUNDS:;
#ATTACKS:;

//---------------dance-single - Tweaking----------------
#NOTES:
     dance-single:
     :
     Hard:
     9:
     0.688369,0.645662,0.270288,0.111843,0.009320,476.000000,29.000000,12.000000,0.000000,0.000000,0.000000,0.688369,0.645662,0.270288,0.111843,0.009320,476.000000,29.000000,12.000000,0.000000,0.000000,0.000000:
// measure 0
0000
0000
0000
0000
,  // measure 1
0000
0000
0000
0010
,  // measure 2
1001
0001
0010
0100
0000
1000
0001
0100
,  // measure 3
0000
0100
0010
0000
1000
0100
0010
0000
,  // measure 4
0001
1000
0010
0100
0000
0100
0001
1000
,  // measure 5
0000
0100
0010
0000
0001
1000
0020
0000
,  // measure 6
0130
0100
0100
0100
,  // measure 7
0100
0100
0100
2001
,  // measure 8
3100
0100
0010
0001
0000
1000
0001
0100
,  // measure 9
0000
0100
0010
0000
1000
0001
0010
0000
,  // measure 10
0100
0100
0100
0100
,  // measure 11
0100
0100
0100
1002
,  // measure 12
0103
0100
0010
1000
0000
0001
1000
0100
,  // measure 13
0000
0100
0010
0000
0001
1000
0010
0000
,  // measure 14
0100
0100
0100
0100
,  // measure 15
0100
0100
0100
2001
,  // measure 16
3100
0100
0010
0001
0000
1000
0010
0100
,  // measure 17
0000
0100
0010
0000
1000
0001
0010
0000
,  // measure 18
0100
0100
0100
0100
,  // measure 19
0100
0100
0100
1002
,  // measure 20
0103
0100
0010
1000
0000
0001
0010
0100
,  // measure 21
0000
0100
0010
0000
0001
1000
0010
0000
,  // measure 22
0110
0000
1000
0100
0010
0001
1000
0010
,  // measure 23
0000
0010
0100
1000
0100
0001
1000
0000
,  // measure 24
1001
0000
0001
0010
0100
0010
0001
0100
,  // measure 25
0000
0100
0010
1000
0100
0010
0001
0000
,  // measure 26
1001
0000
1000
0010
0001
0010
0100
0001
,  // measure 27
0000
0010
0100
1000
0001
0100
0010
0000
,  // measure 28
2001
0000
3010
1000
0100
0010
0001
1000
,  // measure 29
0000
1000
0100
1000
0001
0100
0010
0000
,  // measure 30
1001
0000
0001
0010
1000
0010
0001
1000
,  // measure 31
0000
1000
0010
1000
0100
0010
0001
0000
,  // measure 32
1001
0000
1000
0010
0001
0010
1000
0001
,  // measure 33
0000
0001
0010
0100
1000
0001
0100
0000
,  // measure 34
0110
0000
0010
1000
0100
1000
0100
0010
,  // measure 35
0000
0001
1000
0010
0100
0001
1000
0000
,  // measure 36
0001
0000
0100
0000
0001
0000
0100
0000
0001
0000
0100
0000
0010
0000
1000
0100
,  // measure 37
1000
0100
1000
0100
1000
0001
0010
0000
,  // measure 38
1000
0100
1000
0001
0000
0001
0010
0100
,  // measure 39
0000
0010
0001
0000
1000
0001
0100
0000
,  // measure 40
0001
0100
0010
1000
0000
0100
1000
0001
,  // measure 41
0000
0001
0010
0000
0100
0010
0001
0000
,  // measure 42
0100
0100
0100
0100
,  // measure 43
0100
0100
0100
2001
,  // measure 44
3100
0100
0010
0001
0000
0001
0100
1000
,  // measure 45
0000
0100
0002
0000
0013
0100
0010
0000
,  // measure 46
0100
0100
0100
0100
,  // measure 47
0100
0100
0100
1002
,  // measure 48
0103
0100
0010
1000
0000
1000
0100
0001
,  // measure 49
0000
0100
1000
0000
0010
0100
0010
0000
,  // measure 50
0100
0000
1001
0000
0100
0000
1001
0001
,  // measure 51
0100
0001
1001
0001
0100
0001
2001
0000
,  // measure 52
3100
0100
0010
0001
0000
0001
0100
1000
,  // measure 53
0000
0100
0001
0000
0010
0100
0010
0000
,  // measure 54
0100
0000
1001
0000
0100
1000
1001
1000
,  // measure 55
0100
1000
1001
0000
0100
1000
1002
0000
,  // measure 56
0103
0100
0010
1000
0000
1000
0100
0001
,  // measure 57
0000
0100
1000
0000
0010
0100
0010
0000
,  // measure 58
0110
0000
0001
0100
0010
1000
0001
0010
,  // measure 59
0000
0010
0100
0001
0100
1000
0001
0000
,  // measure 60
1001
0000
1000
0010
0100
0010
1000
0100
,  // measure 61
0000
0100
0010
0001
0100
0010
1000
0000
,  // measure 62
1001
0000
0001
0010
1000
0010
0100
1000
,  // measure 63
0000
0010
0100
0001
1000
0100
0010
0000
,  // measure 64
1002
0000
0013
0001
0100
0010
1000
0001
,  // measure 65
0000
0001
0100
0001
1000
0100
0010
0000
,  // measure 66
1001
0000
1000
0010
0001
0010
1000
0001
,  // measure 67
0000
0001
0010
0001
0100
0010
1000
0000
,  // measure 68
1001
0000
0001
0010
1000
0010
0001
1000
,  // measure 69
0000
1000
0010
0100
0001
1000
0100
0000
,  // measure 70
0110
0000
0010
0001
0100
0001
0100
0010
,  // measure 71
0000
1000
0001
0010
0100
1000
0001
0000
,  // measure 72
1000
0000
0100
0000
1000
0000
0100
0000
1000
0000
0100
0000
0010
0000
0001
0100
,  // measure 73
0001
0100
0001
0100
0001
1000
0010
0000
,  // measure 74
1000
0100
0010
0001
0000
0001
1000
0010
,  // measure 75
0000
0100
0001
0000
0010
0100
1000
0000
,  // measure 76
0001
0100
0010
1000
0000
1000
0100
0010
,  // measure 77
0000
0010
0001
0000
1000
0010
0100
0000
,  // measure 78
0001
0010
0100
1000
0000
1000
0001
0100
,  // measure 79
0000
0100
0010
0000
1000
0100
0010
0000
,  // measure 80
0100
0100
0100
0100
,  // measure 81
0100
0010
0001
0100
0010
0000
0000
0000
;

//---------------dance-single - ----------------
#NOTES:
     dance-single:
     :
     Medium:
     7:
     0.573862,0.493741,0.363491,0.167765,0.000000,374.000000,39.000000,18.000000,0.000000,0.000000,0.000000,0.573862,0.493741,0.363491,0.167765,0.000000,374.000000,39.000000,18.000000,0.000000,0.000000,0.000000:
0000
0000
0000
0000
,
0000
0000
0000
0010
,
1001
0000
0001
0100
0000
0010
1000
0010
,
0000
1000
0001
0000
0100
0000
1001
0000
,
1001
0000
1000
0010
0000
0100
0001
0100
,
0000
0001
1000
0000
0010
0000
1001
0000
,
1000
1000
1000
1000
,
1000
1000
0010
1002
,
0013
0000
0010
0100
0000
1000
0100
1000
,
0000
0100
0010
0000
0001
0000
1001
0000
,
0100
0100
0100
0100
,
0100
0100
0010
2001
,
3100
0000
0100
0010
0000
0001
1000
0001
,
0000
0100
0001
0000
0100
0000
0110
0000
,
0001
0001
0001
0001
,
0001
0001
0010
2001
,
3100
0000
0100
0010
0000
0001
0010
0001
,
0000
0010
0100
0000
1000
0000
1001
0000
,
0010
0010
0010
0010
,
0010
0010
0100
1002
,
0103
0000
0100
0010
0000
1000
0001
1000
,
0000
0100
1000
0000
0100
0000
0110
0000
,
1000
0000
1000
0001
1000
0001
0000
0010
,
0000
0010
0000
0100
0010
0000
1001
0000
,
1000
0000
0001
0100
0001
0000
0100
0010
,
0000
0010
0100
0000
0001
1000
0001
0000
,
0010
0000
0010
0100
0010
0100
1000
0100
,
0000
1000
0000
0001
0000
0100
0001
0000
,
0200
0000
0000
0310
2000
0000
0000
3100
,
0000
0100
0000
0100
1000
0001
1000
0001
,
0100
0000
0010
1000
0010
1000
0000
0100
,
0000
0100
0000
0010
0001
0000
1001
0000
,
1000
0000
0001
0000
0001
0000
0100
0010
,
0000
1000
0010
1000
0010
0200
0000
0301
,
1000
0000
1000
0000
0100
1000
0000
0010
,
0000
0100
0000
0001
0000
2000
0000
0000
,
3001
0000
0000
0011
,
1000
0000
0000
2010
,
3001
0000
1000
0100
0000
1000
0001
1000
,
0000
0001
0100
0000
0010
0000
1001
0000
,
1000
0000
0001
0100
0000
0001
1000
0001
,
0000
0010
0100
0000
1000
0000
1001
0000
,
0001
0001
0001
0001
,
0001
0001
0100
2001
,
3100
0000
0100
0010
0000
0001
0010
0001
,
0000
0010
0100
0000
1000
0000
1001
0000
,
0010
0010
0010
0010
,
0010
0010
0100
1002
,
0013
0000
0010
0100
0000
1000
0001
1000
,
0000
0010
1000
0000
0010
0000
0110
0000
,
1000
1010
1000
1010
,
1000
1010
1000
1002
,
0013
0000
0010
0100
0000
1000
0100
1000
,
0000
0100
0010
0000
0001
0000
1001
0000
,
0100
0110
0010
0110
,
0100
0110
0010
2001
,
3010
0000
0010
0100
0000
0001
1000
0001
,
0000
0010
0001
0000
0010
0000
0110
0000
,
0001
0000
0001
1000
0001
1000
0000
0100
,
0000
0100
0000
0010
0100
0000
1001
0000
,
0001
0000
1000
0010
1000
0000
0010
0100
,
0000
0100
0010
0000
1000
0001
1000
0000
,
0100
0000
0100
0010
0100
0010
0001
0010
,
0000
0001
0000
1000
0000
0010
1000
0000
,
0020
0000
0000
0130
0002
0000
0000
0013
,
0000
0010
0000
0010
0001
1000
0001
1000
,
0010
0000
0100
0001
0100
0001
0000
0010
,
0000
0010
0000
0100
1000
0000
1001
0000
,
0001
0000
1000
0000
1000
0000
0010
0100
,
0000
0001
0100
0001
0100
0020
0000
1030
,
0001
0000
0001
0000
0010
0001
0000
0100
,
0000
0010
0000
1000
0000
0002
0000
0000
,
1003
0000
0000
1100
,
0001
0000
0000
0102
,
1003
0000
0100
1000
0000
0001
1000
0001
,
0000
1000
0100
0000
0010
0000
1001
0000
,
0001
0000
0010
0100
0000
1000
0001
1000
,
0000
0010
0100
0000
0010
0000
1001
0000
,
1000
0010
1000
0010
0000
0100
0001
0100
,
0000
0010
0100
0000
0010
0000
1001
0000
,
0010
0010
0010
0010
,
0000
0100
0001
0100
1000
0000
0000
0000
;

//---------------dance-single - ----------------
#NOTES:
     dance-single:
     :
     Easy:
     5:
     0.374142,0.379801,0.205046,0.121164,0.000000,246.000000,22.000000,13.000000,0.000000,0.000000,0.000000,0.374142,0.379801,0.205046,0.121164,0.000000,246.000000,22.000000,13.000000,0.000000,0.000000,0.000000:
0000
0000
0000
0000
,
0000
0000
0000
0001
,
1001
0001
0000
1000
,
0000
0010
0000
0100
,
0110
0010
0000
1000
,
0000
0001
0000
1002
,
0103
0100
0100
0100
,
0100
0100
0100
0020
,
1030
1000
0000
0001
,
0000
1000
0001
0001
,
0010
0010
0010
0010
,
0010
0010
0010
0002
,
1003
1000
0000
0001
,
0000
1000
0001
1000
,
0001
0001
0001
0001
,
0001
0001
0001
0200
,
0310
0010
0000
1000
,
0000
0001
1000
0001
,
1000
1000
1000
1000
,
1000
1000
1000
0020
,
0130
0100
0000
0001
,
0000
1000
0001
1000
,
0100
0100
0100
0000
,
0010
0001
0010
0100
,
1000
1000
0010
0000
,
0100
0001
0100
0000
,
0010
0010
0010
0000
,
1000
0001
1000
0100
,
0020
0000
0031
0000
,
1000
0000
0001
0100
,
0010
0010
0010
0000
,
1000
0001
1000
0100
,
0010
0010
0001
0000
,
0100
0010
1000
0000
,
0100
1000
0001
0010
,
0100
1000
0100
0010
,
0001
0000
0000
1001
,
0000
0000
0000
0110
,
1001
1000
0000
0010
,
0000
0100
0000
0001
,
0101
0001
0000
1000
,
0000
0001
0000
2001
,
3010
0010
0010
0010
,
0010
0010
0010
0200
,
0301
0001
0000
1000
,
0000
0001
1000
1000
,
0100
0100
0100
0100
,
0100
0100
0100
2000
,
3001
0001
0000
1000
,
0000
0001
1000
0001
,
1000
1010
0000
0101
,
0000
0011
0000
1200
,
0310
0010
0000
0001
,
0000
1000
0001
1000
,
0001
0101
0000
1010
,
0000
1100
0000
0021
,
0130
0100
0000
1000
,
0000
0001
1000
0001
,
0010
0010
0010
0000
,
0100
1000
0100
0010
,
0001
0001
0100
0000
,
0010
1000
0010
0000
,
0100
0100
0100
0000
,
0001
1000
0001
0010
,
0200
0000
1300
0000
,
0001
0000
1000
0010
,
0100
0100
0100
0000
,
0001
1000
0001
0010
,
0100
0100
1000
0000
,
0010
0100
0001
0000
,
0010
0001
1000
0100
,
0010
0001
0010
0100
,
1000
0000
0000
1001
,
0000
0000
0000
0110
,
1000
1000
0000
0001
,
0000
0010
0100
0110
,
1000
0001
0000
1000
,
0000
0010
0100
0110
,
0001
1000
0000
0100
,
0000
0010
0100
0110
,
2000
0000
0000
0000
,
3000
0100
1001
0000
;
