#TITLE:America's Sweetheart;
#SUBTITLE:;
#ARTIST:Elle King;
#TITLETRANSLIT:;
#SUBTITLETRANSLIT:;
#ARTISTTRANSLIT:;
#GENRE:;
#CREDIT:;
#BANNER:America's Sweetheart-banner.png;
#BACKGROUND:America's Sweetheart-bg.png;
#LYRICSPATH:;
#CDTITLE:;
#MUSIC:America's Sweetheart.mp3;
#OFFSET:-0.427000;
#SAMPLESTART:44.500000;
#SAMPLELENGTH:11.959999;
#SELECTABLE:YES;
#BPMS:0.000000=128.000000
,160.000000=64.000000
,168.000000=128.000000
;
#STOPS:182.000000=0.469000
;
#BGCHANGES:7.000=America's Sweetheart.avi=1.000=1=0=0=StretchNoLoop==CrossFade==,
99999=-nosongbg-=1.000=0=0=0 // don't automatically add -songbackground-
;
#KEYSOUNDS:;
#ATTACKS:;

//---------------dance-single - ----------------
#NOTES:
     dance-single:
     :
     Hard:
     7:
     0.369015,0.525873,0.239033,0.107951,0.092529,335.000000,304.000000,31.000000,14.000000,0.000000,0.000000,0.369015,0.525873,0.239033,0.107951,0.092529,335.000000,304.000000,31.000000,14.000000,0.000000,0.000000:
0000
0000
0000
0000
,
0000
0000
0000
0000
,
0000
0000
0000
0000
,
0000
0000
0000
0000
,
0000
0001
0010
0001
0100
1000
0100
0001
,
1000
0000
0001
0010
0000
0000
0000
0000
,
0000
0100
1000
0010
1000
0100
0001
0100
,
1000
0000
0010
0100
0000
0001
0010
0000
,
0000
0100
1000
0001
0010
0100
0010
0001
,
1000
0100
1000
0000
,
0000
0001
1000
0001
0010
0100
1000
0010
,
1000
0100
0010
1001
,
0000
0001
1000
0100
1000
0010
0100
0001
,
0010
0000
0001
0100
0000
0000
0000
0000
,
0000
0010
0100
1000
0100
0001
0010
0001
,
0100
0000
0010
0100
0000
0001
0100
0000
,
0000
0010
1000
0100
1000
0010
0100
0010
,
1000
0001
0100
0000
,
0000
0001
0010
0001
0100
0010
1000
0100
,
0010
0000
0001
0100
0000
0010
0000
0000
,
1000
0100
0000
1000
0100
0000
0000
0000
0010
0001
0000
0010
0001
0000
0000
0000
,
0001
0010
0001
0010
0001
0010
0001
0000
0100
0000
1000
0000
0100
0000
0000
0000
,
0010
1000
0000
0100
1000
0000
0000
0000
0001
0010
0001
0010
0001
0000
1000
0100
,
1000
0100
0010
0001
1000
0100
0100
1000
,
1001
0000
0001
0010
0000
0000
0000
0000
,
0001
1000
0001
0010
0000
0010
0100
2000
,
0000
0020
0000
0000
0000
0000
3000
0000
,
1000
0000
0000
0130
0000
1000
0100
1000
,
0010
0000
0100
0001
0000
0000
0000
0000
,
0001
1000
0010
0100
0000
0001
1000
0002
,
0000
2000
0000
0000
0000
0003
0000
0000
,
0001
0000
0000
3010
0000
0010
0010
0000
,
1010
0000
1010
0000
1000
0001
0000
0101
,
0000
0110
0000
1010
0000
1000
0001
0000
,
0110
0000
0101
0000
0011
0000
0010
0110
,
0000
1100
0000
1010
0000
0010
1000
0100
,
0010
0000
0001
0100
0000
0000
0000
0000
,
0010
1000
0100
1000
0000
0010
0100
0001
,
0000
1000
0000
0000
0000
0000
0000
0100
,
0010
0000
1000
0100
0000
0010
0001
0000
,
2000
0000
0002
3000
0100
1000
0100
1003
,
0200
0000
0002
0300
1000
0100
1000
0103
,
1000
0100
0000
0100
1000
0000
0000
0000
0100
1000
0000
1000
0100
0000
0000
0000
,
0010
0001
0010
0001
0010
0001
0010
0000
0100
0000
1000
0000
0100
0000
0000
0000
,
0010
0001
0000
0100
0001
0000
0000
0000
1000
0100
1000
0100
1000
0000
0001
0100
,
0001
0010
0001
0100
0110
0000
0101
0000
,
1001
0000
0101
0000
0101
0000
0001
0010
,
0001
1000
0000
0010
0100
0020
0000
2000
,
0000
0000
0000
0000
0000
0030
0001
0000
,
0000
3100
0000
0010
0010
1000
0001
0000
,
1000
0100
0000
0000
0000
0000
0010
0100
,
0010
0010
0000
0001
0100
0002
0000
2000
,
0000
0000
0000
0000
0000
0003
0001
0000
,
0000
3010
0000
0010
1000
0000
1001
0000
,
1100
0000
1100
1000
0000
0110
0000
0011
,
0000
0101
0000
1000
0010
0000
1010
0000
,
1100
0000
0110
0000
0100
0110
0000
1001
,
0000
1100
0000
1000
0100
1000
0100
0000
,
0010
0001
0000
0000
0000
0000
1000
0100
,
0010
0100
0000
1000
0100
1000
0000
0010
,
0000
0000
0000
0000
0000
0100
0001
0000
,
0100
0010
0000
1000
2002
0000
0000
0000
,
3003
0000
0000
0000
;

//---------------dance-single - ----------------
#NOTES:
     dance-single:
     :
     Medium:
     5:
     0.269876,0.382453,0.385538,0.131083,0.000000,245.000000,195.000000,50.000000,17.000000,0.000000,0.000000,0.269876,0.382453,0.385538,0.131083,0.000000,245.000000,195.000000,50.000000,17.000000,0.000000,0.000000:
// measure 0
0000
0000
0000
0000
,  // measure 1
0000
0000
0000
0000
,  // measure 2
0000
0000
0000
0000
,  // measure 3
0000
0000
0000
0000
,  // measure 4
0002
1000
1000
0010
,  // measure 5
1000
0100
1000
0013
,  // measure 6
2000
0001
0100
0001
,  // measure 7
0010
0001
0100
3010
,  // measure 8
0020
0100
1000
0100
,  // measure 9
1000
0100
1000
0130
,  // measure 10
0200
0010
0010
0001
,  // measure 11
0010
0001
0301
1001
,  // measure 12
0002
1000
1000
1000
,  // measure 13
0100
0100
1000
1003
,  // measure 14
2000
0010
0010
0001
,  // measure 15
0001
0100
0100
3001
,  // measure 16
0002
0100
0100
1000
,  // measure 17
0010
1000
0100
1003
,  // measure 18
2000
0010
0001
0001
,  // measure 19
0010
0001
0100
3000
,  // measure 20
1100
0000
1100
0000
0001
0010
0001
0000
,  // measure 21
0011
0000
0011
0000
0001
0100
0001
0000
,  // measure 22
1010
0000
1010
0000
0010
1000
0001
0000
,  // measure 23
1001
1001
1001
0000
,  // measure 24
1001
0000
0000
0000
,  // measure 25
0101
0000
0000
1001
0000
0000
0000
0000
,  // measure 26
2000
0000
0000
0000
,  // measure 27
0010
0000
0000
0010
0000
0000
0000
3000
,  // measure 28
1010
1000
1000
0001
,  // measure 29
0101
0000
0000
0101
0000
0000
0000
0000
,  // measure 30
0002
0000
0000
0000
,  // measure 31
0010
0000
0000
0010
0000
0003
0000
0000
,  // measure 32
0101
0000
0101
0000
0101
0000
0000
0110
,  // measure 33
0000
0110
0000
0110
0000
0000
0000
0000
,  // measure 34
1010
0000
1010
0000
1010
0000
0000
1100
,  // measure 35
0000
1100
0000
1100
0000
0000
0000
0000
,  // measure 36
1010
1000
1000
1000
,  // measure 37
0010
0000
0000
0010
0000
0000
0000
0000
,  // measure 38
2000
0000
0000
0000
,  // measure 39
0010
0010
0010
3010
,  // measure 40
2002
0000
0000
3003
0202
0000
0000
0303
,  // measure 41
2000
0000
0010
0000
0010
0010
0010
3010
,  // measure 42
1000
1000
0100
0100
,  // measure 43
0010
0010
0010
0000
0001
0010
0001
0000
,  // measure 44
0001
0001
0001
0000
1000
1000
1000
0000
,  // measure 45
0001
0010
0001
0000
1001
0000
0101
0000
,  // measure 46
0101
1100
1100
0001
,  // measure 47
0000
1000
0000
0000
0000
0000
1001
0000
,  // measure 48
0000
0000
0000
1000
,  // measure 49
0000
0010
0000
0000
0000
0000
0110
0000
,  // measure 50
0100
0100
0100
0010
,  // measure 51
0000
0010
0000
0000
0000
0000
1000
0000
,  // measure 52
1000
1000
1000
0010
,  // measure 53
0000
0010
0000
0000
0000
0000
1100
0000
,  // measure 54
1100
0000
1100
0000
0000
0110
0000
0110
,  // measure 55
0000
0110
0000
0000
0000
0000
0011
0000
,  // measure 56
0011
0000
0011
0000
0000
0110
0000
0110
,  // measure 57
0000
0110
0000
0000
1000
0000
1000
0000
,  // measure 58
1000
0000
0000
0010
,  // measure 59
0010
0010
1000
1000
,  // measure 60
1000
0000
0000
0000
0000
0100
0100
0000
,  // measure 61
0010
0010
0000
0001
0002
0000
0000
0000
,  // measure 62
0003
0000
0000
0000
;

//---------------dance-single - ----------------
#NOTES:
     dance-single:
     :
     Easy:
     3:
     0.144301,0.215130,0.061686,0.100240,0.000000,131.000000,123.000000,8.000000,13.000000,0.000000,0.000000,0.144301,0.215130,0.061686,0.100240,0.000000,131.000000,123.000000,8.000000,13.000000,0.000000,0.000000:
0000
0000
0000
0000
,
0000
0000
0000
0000
,
0000
0000
0000
0000
,
0000
0000
0000
0000
,
0002
0000
0000
0000
,
0103
0000
0000
0000
,
0200
0000
0000
0000
,
0310
0000
0000
0000
,
0020
0000
1000
0000
,
1030
0000
1000
0000
,
2000
0000
0100
0000
,
3100
0000
0100
0000
,
0200
0000
0010
0000
,
0310
0000
0000
0000
,
0020
0000
0001
0000
,
0031
0000
0000
0000
,
0002
0000
0010
0000
,
0013
0000
0010
0000
,
0020
0000
0100
0000
,
0130
0000
0000
0000
,
1001
0000
1001
0000
,
0010
0010
0010
0000
,
1100
0000
1100
0000
,
0100
0100
0100
0000
,
1001
0000
0000
0000
,
1000
0000
0000
1000
0000
0000
0000
0000
,
1010
0000
0000
0000
,
0010
0000
0000
0010
0000
0000
0000
0000
,
0100
0100
0100
0100
,
0100
0000
0000
0100
0000
0000
0000
0000
,
0001
0000
0000
0000
,
1000
0000
0000
1000
0000
0000
0000
0000
,
0010
0000
0010
0000
0010
0000
0000
0100
,
0000
0100
0000
0100
0000
0000
0000
0000
,
0001
0000
0001
0000
0001
0000
0000
0010
,
0000
0010
0000
0010
0000
0000
0000
0000
,
0011
0001
0001
0001
,
0010
0000
0000
0010
0000
0000
0000
0000
,
0002
0000
0000
0000
,
1000
0000
0000
0003
,
2000
0000
3020
0000
,
0230
0000
0000
0000
0010
0000
0010
0300
,
1000
0000
1000
0000
,
0010
0010
0010
0000
,
0100
0000
0100
0000
,
0001
0001
1001
1000
,
1000
0000
0000
0010
,
0000
0010
0000
0000
0000
0000
0100
0000
,
0000
0000
0000
0100
,
0000
0100
0000
0000
0000
0000
0001
0000
,
0001
0001
0000
0010
,
0000
0010
0000
0000
0000
0000
0100
0000
,
0100
0100
0000
1000
,
0000
1000
0000
0000
0000
0000
0010
0000
,
0010
0000
0010
0000
0000
0100
0000
0100
,
0000
0100
0000
0000
0000
0000
0001
0000
,
0001
0000
0001
0000
0000
1000
0000
1000
,
0000
1000
0000
0000
0000
0000
0010
0000
,
0010
0000
0000
0100
,
0000
0100
0000
0000
0000
0000
0001
0000
,
0001
0000
0000
0100
,
0000
0010
0000
0000
0020
0000
0000
0000
,
0030
0000
0000
0000
;
