#VERSION:0.83;
#TITLE:A Geisha's Dream (Ruffage Remix);
#SUBTITLE:;
#ARTIST:NAOKI feat. SMiLE.dk;
#TITLETRANSLIT:;
#SUBTITLETRANSLIT:;
#ARTISTTRANSLIT:;
#GENRE:;
#ORIGIN:;
#CREDIT:;
#BANNER:A Geisha's Dream (Ruffage Remix).png;
#BACKGROUND:A Geisha's Dream (Ruffage Remix)-bg.png;
#PREVIEWVID:;
#JACKET:A Geisha's Dream (Ruffage Remix)-jacket.png;
#CDIMAGE:;
#DISCIMAGE:;
#LYRICSPATH:;
#CDTITLE:;
#MUSIC:A Geisha's Dream (Ruffage Remix).ogg;
#OFFSET:0.000000;
#SAMPLESTART:30.849001;
#SAMPLELENGTH:15.000000;
#SELECTABLE:YES;
#BPMS:0.000=140.000;
#STOPS:;
#DELAYS:;
#WARPS:;
#TIMESIGNATURES:0.000=4=4;
#TICKCOUNTS:0.000=4;
#COMBOS:0.000=1;
#SPEEDS:0.000=1.000=0.000=0;
#SCROLLS:0.000=1.000;
#FAKES:;
#LABELS:0.000=Song Start;
#BGCHANGES:;
#KEYSOUNDS:;
#ATTACKS:
;

//---------------dance-single - ----------------
#NOTEDATA:;
#CHARTNAME:;
#STEPSTYPE:dance-single;
#DESCRIPTION:;
#CHARTSTYLE:;
#DIFFICULTY:Hard;
#METER:9;
#RADARVALUES:0.662237,0.795080,0.083109,0.046172,0.401695,502.000000,493.000000,9.000000,5.000000,0.000000,0.000000,0.000000,0.000000,0.000000,0.662237,0.795080,0.083109,0.046172,0.401695,502.000000,493.000000,9.000000,5.000000,0.000000,0.000000,0.000000,0.000000,0.000000;
#CREDIT:;
#NOTES:
0000
0000
0000
0000
,
0000
0000
0000
0000
,
0000
0000
0000
0000
,
0000
0000
0000
0000
,
0000
0000
0000
0000
,
0000
0000
0000
0000
,
0010
0000
0001
0000
0100
0000
0001
0000
0010
0000
0001
0100
0001
0000
0010
0000
,
0100
0000
1000
0000
0010
0000
1000
0000
0001
0000
0100
0010
0100
0000
0001
0000
,
1000
1000
0001
0000
0001
0001
1000
0000
,
0100
0000
0010
0000
0001
0000
0100
0000
0001
0010
0000
0010
0001
0000
0100
0000
,
0010
0010
1000
0000
1000
1000
0100
1000
,
0010
0100
0001
0010
0001
1000
0001
0100
,
0010
0010
0100
0000
0100
0100
0010
1000
,
0100
0000
0001
0000
0100
0000
1000
0000
0010
0000
0000
0100
0010
0000
0010
0000
,
0100
0100
0001
0000
0001
0001
0010
0001
,
0100
0010
1000
0100
1000
0001
1000
0010
,
0100
0100
0010
0000
0010
0010
0100
0001
,
0010
0000
0100
0000
1000
0000
0010
0000
0100
0010
0000
0010
0100
0000
0100
0000
,
0010
1000
0010
1000
0010
0100
0010
0100
,
0001
0100
0001
0100
0001
0010
0001
0010
,
0001
0001
0101
0000
1000
1000
1010
0000
,
0010
0000
0100
0000
0001
0000
0010
0000
0001
0000
0000
0100
0001
0000
0001
0000
,
0010
0100
1000
0100
0010
0001
0100
0100
,
0010
0010
1000
0100
1000
0010
0100
0100
,
0010
0010
1010
0000
0100
0100
0101
0001
,
0010
0000
0100
0000
0010
0000
0001
0000
0100
0010
0100
0000
0010
1000
0010
0000
,
0100
0010
0100
0010
0100
0000
0001
0010
0000
0001
0010
0000
0001
0000
0100
0000
,
0010
1000
0010
1000
0010
0000
0100
0010
0000
1000
0010
0000
0100
0000
0001
0000
,
0010
0001
0010
0001
0010
0000
0001
1000
0000
1000
0010
0000
0100
0000
0001
0000
,
0010
0100
1000
0100
1000
0000
0010
0100
0000
0100
0010
0000
0100
0000
0100
0000
,
0110
0000
0000
0010
1000
0000
1000
0000
0100
0000
1000
0010
0100
0000
0001
0000
,
0010
0000
0001
0000
0100
0000
0010
0000
0100
0000
0001
0010
0001
0000
0100
0000
,
0010
1000
0100
0000
0010
0001
0100
0001
,
0010
0000
0001
0000
0100
0000
0010
0000
1000
0000
0100
1000
0010
0000
0010
0000
,
0100
0001
0100
0100
0010
1000
0010
0010
,
1000
0000
0100
0000
0001
0000
0100
0000
1000
0000
0010
0100
0010
0000
0010
0000
,
0100
0001
0010
0010
0001
0100
0010
0010
,
1000
0000
0100
0000
1000
0000
0010
0000
0100
0001
0000
0001
0100
0000
0100
0000
,
0010
1000
0010
0100
0001
0001
0010
0010
,
0001
0000
0100
0000
0010
0000
1000
0000
0010
0000
0010
0100
0001
0000
0001
0000
,
0010
0001
0100
0100
0010
1000
0100
0100
,
1000
0000
0010
0000
0100
0000
0001
0000
0001
0000
0010
0001
0100
0000
0100
0000
,
0010
1000
0100
1000
0010
0010
0100
0100
,
0001
0010
0001
0100
0001
0001
1000
1000
,
0100
1000
0010
0100
0001
0100
0020
0000
,
0130
0000
0100
0000
0001
0000
0010
0000
0001
0100
0000
0100
0010
0000
1000
0000
,
0100
1000
0010
1000
0100
0000
1000
0010
0000
1000
0010
0000
0100
0000
0001
0000
,
0010
0001
0100
0001
0010
0000
0001
0100
0000
0100
0010
0000
1000
0000
0100
0000
,
0010
0100
0001
0100
0010
0000
0001
0100
0000
0100
0001
0000
0100
0000
0100
0000
,
0010
1000
0100
1000
0010
0000
0100
0010
0000
0100
0010
0000
0100
0000
0101
0000
,
0001
0010
0001
0010
0001
0000
0100
0010
0000
0010
1000
0000
0100
0000
1000
0000
,
0100
0010
0001
0100
0010
0000
0100
0010
0000
0010
1000
0000
0100
0000
1000
0000
,
0010
0100
0001
0010
0001
0000
0100
0010
0000
0100
0001
0000
0010
0000
0001
0000
,
0100
0010
1000
0001
0100
0000
0100
0010
0000
0010
0100
0000
0001
0000
1000
0000
,
0001
0010
1000
0010
0001
0100
1000
0100
,
0001
0010
1000
0010
0001
0100
0010
0010
,
0012
0000
0100
0103
1200
0000
1000
1300
,
0010
0000
0100
0000
0001
0000
0010
0000
0001
0100
0000
0100
0001
0000
0001
0000
,
1000
0010
0100
0010
1000
0000
0010
0100
0000
0100
0010
0100
0001
0000
0010
0000
,
0010
0100
1000
0010
0100
0000
0100
0001
0000
0001
0010
0000
0001
0000
0100
0000
,
0010
0100
0001
0100
0010
1000
0001
0100
0010
1000
0010
0100
0001
1000
0010
0000
,
2002
0000
3003
0000
;

//---------------dance-single - ----------------
#NOTEDATA:;
#CHARTNAME:;
#STEPSTYPE:dance-single;
#DESCRIPTION:;
#CHARTSTYLE:;
#DIFFICULTY:Beginner;
#METER:2;
#RADARVALUES:0.164900,0.198770,0.064641,0.036938,0.000000,125.000000,118.000000,7.000000,4.000000,0.000000,0.000000,0.000000,0.000000,0.000000,0.164900,0.198770,0.064641,0.036938,0.000000,125.000000,118.000000,7.000000,4.000000,0.000000,0.000000,0.000000,0.000000,0.000000;
#CREDIT:;
#NOTES:
// measure 0
0000
0000
0000
0000
,  // measure 1
0000
0000
0000
0000
,  // measure 2
0000
0000
0000
0000
,  // measure 3
0000
0000
0000
0000
,  // measure 4
0000
0000
0000
0000
,  // measure 5
0000
0000
0000
0000
,  // measure 6
1000
0000
1000
0000
,  // measure 7
0001
0000
0001
0000
,  // measure 8
1000
0000
0001
0000
,  // measure 9
1001
0000
0000
0000
,  // measure 10
0010
0000
0100
0000
,  // measure 11
0010
0010
0010
0000
,  // measure 12
1000
0000
0001
0000
,  // measure 13
1000
1000
1000
0000
,  // measure 14
0100
0100
0100
0000
,  // measure 15
0001
0001
0001
0000
,  // measure 16
1000
0000
0001
0000
,  // measure 17
1001
0000
0000
0000
,  // measure 18
0010
0000
0100
0000
,  // measure 19
0001
0000
0001
0000
,  // measure 20
1000
0000
0001
0000
,  // measure 21
1000
0000
1001
0000
,  // measure 22
0010
0000
0100
0000
,  // measure 23
0010
0000
1000
0000
,  // measure 24
0100
0000
0010
0000
,  // measure 25
0100
0000
0110
0000
,  // measure 26
0002
0000
0000
0003
,  // measure 27
0200
0000
0000
0300
,  // measure 28
0020
0000
0000
0030
,  // measure 29
2000
0000
0000
3000
,  // measure 30
0010
0000
0100
0000
,  // measure 31
0001
0001
0001
0000
,  // measure 32
1000
0000
0100
0000
,  // measure 33
1000
1000
1000
0000
,  // measure 34
0010
0000
0100
0000
,  // measure 35
0001
0000
1000
0000
,  // measure 36
0001
0000
1000
0000
,  // measure 37
0100
0000
1000
0000
,  // measure 38
0010
0010
0010
0000
,  // measure 39
0100
0000
0100
0000
,  // measure 40
0001
0000
1000
0000
,  // measure 41
0010
0000
0110
0000
,  // measure 42
0100
0100
0100
0000
,  // measure 43
0001
0000
0010
0000
,  // measure 44
0100
0000
0100
0000
,  // measure 45
0010
0000
1001
0000
,  // measure 46
0010
0000
0100
0000
,  // measure 47
0001
0000
0001
0000
,  // measure 48
1000
0000
0001
0000
,  // measure 49
1000
0000
0010
0000
,  // measure 50
0100
0000
0001
0000
,  // measure 51
1000
0000
0100
0000
,  // measure 52
1000
0000
0010
0000
,  // measure 53
1000
1000
1000
0000
,  // measure 54
0001
0000
1000
0000
,  // measure 55
0001
0001
0001
0000
,  // measure 56
0100
0000
0010
0000
,  // measure 57
0100
0100
0100
0000
,  // measure 58
0010
0000
1000
0000
,  // measure 59
0010
0010
0010
0000
,  // measure 60
0100
0000
0001
0000
,  // measure 61
1000
0000
1001
0000
;

//---------------dance-single - ----------------
#NOTEDATA:;
#CHARTNAME:;
#STEPSTYPE:dance-single;
#DESCRIPTION:;
#CHARTSTYLE:;
#DIFFICULTY:Easy;
#METER:4;
#RADARVALUES:0.278351,0.340749,0.193922,0.267797,0.000000,211.000000,190.000000,21.000000,29.000000,0.000000,0.000000,0.000000,0.000000,0.000000,0.278351,0.340749,0.193922,0.267797,0.000000,211.000000,190.000000,21.000000,29.000000,0.000000,0.000000,0.000000,0.000000,0.000000;
#CREDIT:;
#NOTES:
0000
0000
0000
0000
,
0000
0000
0000
0000
,
0000
0000
0000
0000
,
0000
0000
0000
0000
,
0000
0000
0000
0000
,
0000
0000
0000
0000
,
1000
0100
1000
1001
,
0001
0100
0001
0101
,
0010
0001
0100
0110
,
0010
1000
2002
3003
,
0010
0100
0010
0010
,
1000
0001
1000
1000
,
0010
1000
0100
0100
,
1000
0010
0200
0300
,
0100
0001
0010
0010
,
0001
0100
0010
0010
,
0010
1000
0100
1000
,
2002
0000
0000
3003
,
0010
0100
0001
0001
,
0100
0010
1000
1000
,
0200
0000
1300
0000
,
2000
0000
3010
0000
,
0010
0100
0001
0010
,
0001
0001
0100
0001
,
0002
0000
0013
0000
,
0200
0000
0310
0000
,
0001
0001
0001
0001
,
0100
0100
0100
0100
,
0010
0010
0010
0010
,
1000
1000
1000
0000
,
0100
1000
0010
0010
,
0100
0001
2002
3003
,
0010
0100
0001
0001
,
1000
0010
1000
0000
,
0010
1000
0100
0100
,
0010
0001
0100
0100
,
0010
0100
0010
0010
,
1000
0001
2002
3003
,
0001
0100
0010
0010
,
0010
1000
0100
1000
,
0010
1000
1010
0000
,
0001
0100
0101
0000
,
0001
0010
0100
1000
,
1000
0010
0100
0001
,
0001
1000
1001
0000
,
0220
0000
0000
0330
,
0010
1000
0100
0100
,
1000
0010
0100
0001
,
0202
0303
0022
0033
,
0100
1000
1010
0000
,
0010
0100
0001
0001
,
1000
0010
1000
0100
,
2200
3300
0220
0330
,
0001
1000
2002
3003
,
0010
0100
0001
0001
,
0010
0100
1000
1000
,
0002
0000
2000
3003
,
1000
0001
0220
0330
,
0001
0010
0100
1000
,
0010
0100
0001
1000
,
0110
0000
0000
0001
1001
0000
0000
0000
,
0100
0010
1001
0000
;

//---------------dance-single - ----------------
#NOTEDATA:;
#CHARTNAME:;
#STEPSTYPE:dance-single;
#DESCRIPTION:;
#CHARTSTYLE:;
#DIFFICULTY:Medium;
#METER:7;
#RADARVALUES:0.455123,0.511123,0.452485,0.240094,0.000000,345.000000,296.000000,49.000000,26.000000,0.000000,0.000000,0.000000,0.000000,0.000000,0.455123,0.511123,0.452485,0.240094,0.000000,345.000000,296.000000,49.000000,26.000000,0.000000,0.000000,0.000000,0.000000,0.000000;
#CREDIT:;
#NOTES:
0000
0000
0000
0000
,
0000
0000
0000
0000
,
0000
0000
0000
0000
,
0000
0000
0000
0000
,
0000
0000
0000
0000
,
0000
0000
0000
0000
,
0010
0100
0001
0010
0001
1000
0010
0000
,
0100
1000
0100
0001
0010
0100
0010
0000
,
0001
0100
0001
0000
1000
0010
1000
0000
,
0100
1000
0010
0100
0001
0000
1001
0000
,
0110
0000
0101
0000
0011
0000
0001
1000
,
1010
0000
0110
0000
1100
0000
1000
0010
,
0200
0310
0020
0130
,
0100
0001
0010
0100
1000
0000
1100
0000
,
0011
0101
1010
0010
,
1100
0011
0101
1000
,
0010
0110
1000
1001
,
0100
0010
0100
0010
0200
0000
0300
0000
,
0001
0010
0001
0000
0100
0010
0100
0000
,
0010
1000
0010
0000
1000
0100
1000
0000
,
0001
0011
0100
0110
,
1000
0100
0010
0001
0200
0000
0310
0000
,
1000
0100
1000
0000
0010
0100
0010
0000
,
0100
0001
0100
0000
0001
0010
0001
0000
,
1000
1100
0010
0011
,
0001
0010
0100
1000
0020
0000
0130
0000
,
0002
0010
0010
0013
,
0200
1000
1000
1300
,
2000
0001
0001
3001
,
0020
0100
0100
0130
,
1000
0010
0100
0000
1000
0010
0100
0000
,
0001
0010
0001
0000
0011
0000
0110
0000
,
0100
0001
0010
0000
0100
0001
0010
0000
,
0001
1000
0010
0100
0010
0000
0110
0000
,
0001
0010
0100
0000
1000
0100
0010
0000
,
0020
0230
2300
3002
,
0103
0001
0010
0000
0100
1000
0010
0000
,
0100
0010
0100
0001
0022
0000
0033
0000
,
0110
0000
1010
0000
1100
0000
1000
0001
,
0101
0000
0110
0000
0011
0000
0001
0100
,
0020
0130
0200
0310
,
0010
1000
0100
0010
0001
0000
0011
0000
,
1100
1010
0101
0100
,
0011
1100
1010
0001
,
0100
0110
0001
1001
,
0010
0100
0010
0100
0020
0000
1030
0000
,
1000
0100
1000
0000
0010
0100
0010
0000
,
0100
0001
0100
0000
0001
0010
0001
0000
,
1000
1100
0010
0110
,
0001
0010
0100
1000
0020
0100
0130
0000
,
0001
0010
0001
0000
0100
0010
0100
0000
,
0010
1000
0010
0000
1000
0100
1000
0000
,
0001
0011
0100
1100
,
1000
0100
0010
0001
0200
0000
0310
0000
,
1000
0010
1000
0100
0010
0000
0010
0000
,
0001
0100
0001
0010
0100
0000
0100
0000
,
1000
1000
1100
0000
0001
0001
0011
0000
,
0100
0010
0100
0010
0220
0000
0330
0000
,
0001
0010
0100
1000
0010
0100
0001
0010
,
0001
0100
0010
1000
0100
1000
1000
0010
,
0120
0000
0100
0130
0210
0000
0010
0310
,
2002
0000
3003
0000
;
