#TITLE:Transport;
#SUBTITLE:;
#ARTIST:Sota Fujimori;
#TITLETRANSLIT:;
#SUBTITLETRANSLIT:;
#ARTISTTRANSLIT:;
#GENRE:;
#CREDIT:;
#BANNER:[Mid Speed] - Transport.png;
#BACKGROUND:[Mid Speed] - Transport-bg.png;
#LYRICSPATH:;
#CDTITLE:cdtitle.png;
#MUSIC:[Mid Speed] - Transport.ogg;
#OFFSET:-0.044000;
#SAMPLESTART:94.727905;
#SAMPLELENGTH:13.061218;
#SELECTABLE:YES;
#BPMS:0.000000=147.000000
;
#STOPS:
;
#BGCHANGES:;
#KEYSOUNDS:;
#ATTACKS:;

//---------------dance-single - ----------------
#NOTES:
     dance-single:
     :
     Beginner:
     2:
     0.155577,0.178261,0.079492,0.000000,0.000000,137.000000,127.000000,10.000000,0.000000,0.000000,0.000000,0.155577,0.178261,0.079492,0.000000,0.000000,137.000000,127.000000,10.000000,0.000000,0.000000,0.000000:
// measure 0
0000
0000
0000
0000
,  // measure 1
0000
0000
0000
0000
,  // measure 2
0000
0000
0000
0000
,  // measure 3
0000
0000
0000
0000
,  // measure 4
0001
0000
0001
0000
,  // measure 5
0000
0000
0000
0000
,  // measure 6
1000
0000
1000
0000
,  // measure 7
0000
0000
0100
0000
,  // measure 8
0100
0000
0000
0000
,  // measure 9
0010
0000
0000
0000
,  // measure 10
0100
0000
0000
0000
,  // measure 11
1001
0000
0000
0000
,  // measure 12
1000
0000
1000
0000
,  // measure 13
0001
0000
0001
0000
,  // measure 14
1000
0000
1000
0000
,  // measure 15
0001
0001
0001
0000
,  // measure 16
0100
0000
0100
0000
,  // measure 17
0010
0000
0010
0000
,  // measure 18
0100
0000
0100
0000
,  // measure 19
0001
0000
0000
0000
,  // measure 20
0001
0000
0001
0000
,  // measure 21
1000
0000
1000
0000
,  // measure 22
0001
0000
0001
0000
,  // measure 23
1000
1000
1000
0000
,  // measure 24
0100
0000
0100
0000
,  // measure 25
0010
0000
0010
0000
,  // measure 26
0100
0000
0100
0000
,  // measure 27
0010
0000
0000
0000
,  // measure 28
1001
0000
0000
0000
,  // measure 29
1000
0000
1000
0000
,  // measure 30
0010
0000
0010
0000
,  // measure 31
1000
0000
0001
0000
,  // measure 32
1000
0000
0001
0001
,  // measure 33
0001
0000
0001
0000
,  // measure 34
0010
0000
0010
0000
,  // measure 35
0001
0000
1000
0000
,  // measure 36
0001
0000
0000
0000
,  // measure 37
0100
0000
0100
0000
,  // measure 38
0001
0000
0001
0000
,  // measure 39
1000
0000
1000
0000
,  // measure 40
0001
0000
1000
0000
,  // measure 41
0100
0000
0100
0000
,  // measure 42
1000
0000
1000
0000
,  // measure 43
0001
0000
0001
0000
,  // measure 44
1000
0000
0001
0001
,  // measure 45
0001
0000
0001
0000
,  // measure 46
1000
0000
1000
0000
,  // measure 47
0001
0000
0100
0000
,  // measure 48
0010
0000
1000
0000
,  // measure 49
0000
0000
1000
0000
,  // measure 50
0001
0000
0001
0000
,  // measure 51
1000
0000
0100
0000
,  // measure 52
0110
0000
0000
0000
,  // measure 53
1000
0000
0001
0000
,  // measure 54
1000
0000
0001
0000
,  // measure 55
1001
0000
0000
0000
,  // measure 56
0110
0000
0000
0000
,  // measure 57
0001
0000
0000
0000
,  // measure 58
1000
0000
0100
0000
,  // measure 59
1000
0000
0100
0000
,  // measure 60
0010
0000
0001
0000
,  // measure 61
0010
0000
0001
0000
,  // measure 62
1000
0000
0001
0000
,  // measure 63
1000
0000
0001
0000
,  // measure 64
1001
0000
0000
0000
,  // measure 65
0110
0000
0000
0000
,  // measure 66
0001
0000
0100
0000
,  // measure 67
0001
0000
0100
0000
,  // measure 68
0010
0000
1000
0000
,  // measure 69
0010
0000
1000
0000
,  // measure 70
1001
0000
0000
0000
,  // measure 71
1000
0000
0001
0000
,  // measure 72
1001
0000
0000
0000
,  // measure 73
0001
0000
1000
1000
,  // measure 74
1000
0000
0000
0110
;

//---------------dance-single - ----------------
#NOTES:
     dance-single:
     :
     Challenge:
     11:
     0.824444,0.843011,0.373612,0.198730,1.001598,726.000000,679.000000,47.000000,25.000000,0.000000,0.000000,0.824444,0.843011,0.373612,0.198730,1.001598,726.000000,679.000000,47.000000,25.000000,0.000000,0.000000:
// measure 0
0000
0000
0000
0000
,  // measure 1
0000
0000
0000
0000
,  // measure 2
0000
0000
0000
0000
,  // measure 3
0000
0000
0000
0000
,  // measure 4
1000
0100
1000
0100
0000
0010
0001
0000
0001
0100
0000
1020
0000
0000
0000
0000
,  // measure 5
1030
0100
0001
0000
0100
0000
0001
0100
1000
0000
0010
0000
0000
0010
1000
0000
,  // measure 6
1001
0000
0001
1000
0000
1000
0100
0000
0000
1100
0000
0012
0000
0000
0000
0000
,  // measure 7
0013
0001
1000
0001
0100
0000
1000
0100
0001
0200
0000
0000
0310
0000
0000
0000
,  // measure 8
2001
0000
0000
0000
0010
0000
0010
0000
0000
0000
0010
0000
0000
0000
3010
1000
,  // measure 9
0002
0010
1000
0103
,  // measure 10
0002
0000
0010
0010
0000
0010
0000
0013
,  // measure 11
0011
0000
0001
0100
0000
1000
0000
0001
0010
0000
1000
0100
0000
0010
0001
0000
,  // measure 12
1001
0000
1000
0000
0010
0000
1000
0100
0000
0100
0001
0000
0100
0000
1000
0010
,  // measure 13
1000
0000
0001
0000
0010
0000
1000
0000
0010
0100
0010
0000
0001
0000
0100
0000
,  // measure 14
0010
0000
1000
0001
1000
0000
0100
0010
0000
0010
0001
0000
0100
0000
1000
0100
,  // measure 15
0001
0000
0100
0000
1000
0000
0100
0000
0001
0100
0010
0000
0110
0000
0000
0000
,  // measure 16
1001
0000
0001
0000
0010
0000
0001
0100
0000
0100
1000
0000
0100
0000
0001
0010
,  // measure 17
0001
0100
1000
0001
0010
1000
0001
1000
,  // measure 18
0100
0010
0001
0000
0100
0000
1000
0100
0000
0100
0001
0000
0010
0000
0001
1000
,  // measure 19
0001
0000
1000
0000
0001
0010
0000
1000
0000
0001
0100
1000
0010
0000
0000
0000
,  // measure 20
1001
0000
1000
0000
0010
0000
0100
0001
0000
0001
0010
0000
1000
0000
0010
0001
,  // measure 21
0010
0000
0100
0000
1000
0000
0001
0000
0100
0010
0100
0000
1000
0000
0100
0010
,  // measure 22
1000
0000
0100
0010
0001
0000
0100
0010
0000
0010
1000
0000
0100
0000
0001
0100
,  // measure 23
1000
0000
0100
0000
0001
0000
0100
0000
1000
0100
0010
0000
0110
0000
0000
0000
,  // measure 24
1001
0000
0001
0000
0100
0000
0010
1000
0000
1000
0100
0000
0001
0000
0100
0000
,  // measure 25
1000
0010
0100
0010
1000
0000
0001
0010
0000
0010
1000
0000
0001
0000
0100
1000
,  // measure 26
0010
0000
0001
0000
0010
0000
1000
0100
0000
0100
0010
0000
0001
0000
1000
0001
,  // measure 27
2000
0000
0002
3000
0000
0000
1003
0000
0010
0000
0000
0010
1000
0001
1000
0000
,  // measure 28
2001
0000
0000
0001
0000
0001
0000
0000
0100
0000
3100
0000
0012
0000
0000
0000
,  // measure 29
1003
0010
0000
0010
4000
0004
0000
3000
0013
0001
0100
0000
0100
0000
0010
1000
,  // measure 30
0100
0010
0000
0010
0001
0100
0010
1000
0000
1000
0001
0000
0100
0000
1000
0000
,  // measure 31
0100
0001
0000
0001
0010
0100
0010
1000
0000
1000
0010
0000
0001
0000
1000
0001
,  // measure 32
0100
0010
0100
0010
0100
0001
1000
0100
0010
0001
0010
0100
1000
0001
0100
0000
,  // measure 33
0001
0010
0000
0010
0004
4000
0000
0003
3010
1000
0100
0000
0100
0000
0010
0001
,  // measure 34
0100
0010
0000
0010
1000
0100
0010
0001
0000
0001
0100
0000
0001
0000
1000
0000
,  // measure 35
0000
1001
0000
1000
0010
0100
0010
0001
0000
0001
0010
0000
1000
0000
0001
1000
,  // measure 36
0100
0010
0100
0010
0100
1000
0010
0100
0001
0000
1000
0000
1001
0000
0000
0000
,  // measure 37
0001
0000
0010
0100
0000
0001
0000
0100
0000
0010
0001
0100
0010
0000
0100
0010
,  // measure 38
1000
0000
0010
0000
0001
0010
1000
0000
0200
0000
0000
0302
0000
0000
2003
0000
,  // measure 39
3010
0000
0001
0100
0000
0010
0000
0001
0000
0010
0100
0001
1000
0000
0100
0000
,  // measure 40
0001
0000
0100
0000
1000
0010
0100
0000
0001
0000
1000
0000
1002
0000
0000
0000
,  // measure 41
1003
0000
0010
0100
0000
1000
0000
0100
0000
0010
1000
0100
0010
0000
0100
0010
,  // measure 42
0001
0000
0010
0000
1000
0010
0001
0000
0200
0000
0000
2300
0000
0000
3002
0000
,  // measure 43
0013
1000
0010
1000
0000
1010
0000
1001
0000
0000
1100
0000
0012
0000
0000
0000
,  // measure 44
1003
0000
0100
0000
0010
0001
1000
0000
1001
0000
0000
0000
1001
0000
0000
0000
,  // measure 45
1000
0001
1000
0000
0100
1000
0000
1000
0010
0000
0100
0001
0000
0001
0010
0000
,  // measure 46
0001
1000
0001
0000
0100
0010
0000
0010
1000
0000
0100
0000
0001
0100
0000
0100
,  // measure 47
1000
0001
1000
0001
0100
0000
0010
1000
0100
0000
0010
0001
0000
0100
0001
0000
,  // measure 48
1000
0100
1000
0100
0010
0000
0100
0000
0001
0000
0100
0010
0100
0000
1000
0000
,  // measure 49
0001
0000
0000
0000
1001
0000
0001
0000
0100
0000
0010
1000
0000
1000
0100
0000
,  // measure 50
1000
0001
1000
0000
0010
0100
0000
0100
0001
0000
0010
0000
1000
0010
0000
0010
,  // measure 51
0001
1000
0001
1000
0010
0000
0100
0001
0010
0000
0100
1000
0000
0001
1000
0000
,  // measure 52
0010
0000
0001
0000
0010
1000
0000
0100
0000
0010
0001
0100
0010
0000
0000
0000
,  // measure 53
1000
0000
0100
0010
0000
0010
0001
0000
0100
0000
1000
0100
0000
0100
0001
0000
,  // measure 54
0010
0000
0100
1000
0000
1000
0010
1000
0100
0000
0001
0100
0000
0100
1000
0000
,  // measure 55
1100
0000
0000
0000
0011
0000
0000
0000
1010
0000
0000
0110
0000
0000
0101
0000
,  // measure 56
2002
0000
0000
0000
3003
0000
0000
0000
1000
0100
0001
0000
0100
0000
1000
0000
,  // measure 57
0001
0100
0001
0100
0010
0000
1000
0000
0100
0010
0100
1000
0001
0000
0000
0000
,  // measure 58
1000
0100
0000
0010
0000
0001
0100
0000
1000
0000
0100
0000
0001
0000
1000
0000
,  // measure 59
0001
0010
0100
0010
0001
0000
0001
1000
0001
0000
1000
0000
0010
0000
0100
0000
,  // measure 60
0001
0010
0000
0100
0000
1000
0010
0000
0001
0000
0010
0000
1000
0010
1000
0000
,  // measure 61
0001
0000
1000
0100
0010
0000
0010
0100
1000
0010
0000
0010
0100
0000
0001
0000
,  // measure 62
2000
0000
0000
3000
1001
0000
0001
0000
1000
0000
0100
0000
0001
0000
0100
0000
,  // measure 63
1000
0000
0001
0100
0010
0100
0001
0000
1000
0000
0001
0010
0000
0100
1000
0001
,  // measure 64
0100
0000
0000
1010
0000
0000
1100
0000
0000
0011
0000
0000
1001
0000
0000
0000
,  // measure 65
0001
1000
0001
1000
0100
0000
1000
0010
0100
0010
0100
0001
1000
0000
0000
0000
,  // measure 66
0001
0010
0000
0100
0010
0001
1000
0010
0000
0010
1000
0001
0010
0000
1000
0000
,  // measure 67
0010
0100
1000
0001
0000
1000
0001
0100
0000
0001
1000
0100
0010
0001
0100
0000
,  // measure 68
0020
0000
0000
0000
0130
0001
1000
0100
0000
0010
0001
1000
0010
0100
0010
0100
,  // measure 69
0001
0000
1000
0100
0001
0100
1000
0001
0100
0020
0000
0000
1030
0000
0000
0000
,  // measure 70
1100
0000
0000
0011
0000
0000
0101
0000
0000
1010
0000
0000
1001
0000
0001
0000
,  // measure 71
1000
0000
0100
0010
0000
0001
0100
0010
0000
1000
0100
0000
0010
0001
0100
0010
,  // measure 72
1000
0000
0000
0011
0000
0000
1100
0000
0000
0101
0000
0000
1001
0000
0000
0000
,  // measure 73
0001
0100
0001
0100
1000
0100
0010
0100
0101
0000
0000
0000
0101
0000
0000
0000
,  // measure 74
1000
0000
0100
0001
0000
1000
0000
0010
0001
0000
0100
0001
2002
0000
0000
0000
,  // measure 75
0000
0000
0000
3003
;

//---------------dance-single - ----------------
#NOTES:
     dance-single:
     :
     Easy:
     5:
     0.349764,0.391398,0.302069,0.341815,0.000000,308.000000,270.000000,38.000000,43.000000,0.000000,0.000000,0.349764,0.391398,0.302069,0.341815,0.000000,308.000000,270.000000,38.000000,43.000000,0.000000,0.000000:
// measure 0
0000
0000
0000
0000
,  // measure 1
0000
0000
0000
0000
,  // measure 2
0000
0000
0000
0000
,  // measure 3
0000
0000
0000
0000
,  // measure 4
0202
0000
0000
0303
,  // measure 5
0000
0001
0010
0100
,  // measure 6
2200
0000
0000
3300
,  // measure 7
0000
1000
0010
0100
,  // measure 8
0002
0000
1000
0000
,  // measure 9
0010
1000
0100
0000
,  // measure 10
2003
0000
0001
3000
,  // measure 11
2002
0000
0000
3003
,  // measure 12
1000
0000
0100
0000
1000
0000
0001
0010
,  // measure 13
0001
0000
0100
0000
0001
0000
1000
0010
,  // measure 14
1000
0000
0100
0000
1000
0000
0010
0100
,  // measure 15
0010
0010
0010
1001
,  // measure 16
0001
0000
0100
0000
0001
0000
1000
0010
,  // measure 17
1000
0000
0100
0000
1000
0000
0001
0010
,  // measure 18
0001
0100
0010
1000
,  // measure 19
2002
0000
3003
1001
,  // measure 20
0001
0000
0010
0000
0100
0000
1000
0001
,  // measure 21
1000
0000
0010
0000
0100
0000
0001
1000
,  // measure 22
0001
0000
0010
0000
0001
0000
0100
0010
,  // measure 23
0100
0100
0100
1001
,  // measure 24
1000
0000
0001
0000
1000
0000
0010
0100
,  // measure 25
0010
0000
1000
0000
0001
0000
0010
0100
,  // measure 26
0010
0001
0100
0010
,  // measure 27
1002
0000
0203
0000
,  // measure 28
1000
0001
0301
0110
,  // measure 29
1000
0000
1000
0001
1000
0000
0001
0000
,  // measure 30
0010
1000
0010
0001
,  // measure 31
0100
0000
0001
1000
0001
0000
0010
0000
,  // measure 32
0100
1000
1001
1001
,  // measure 33
0001
0000
0001
1000
0001
0000
1000
0000
,  // measure 34
0100
0001
0100
1000
,  // measure 35
0001
0000
0100
0010
0100
0000
0001
0000
,  // measure 36
2000
0000
3100
0110
,  // measure 37
1001
0000
1000
0000
0010
1000
0010
0000
,  // measure 38
2000
3200
0302
0203
,  // measure 39
0310
0000
0010
0000
0001
1000
0001
0000
,  // measure 40
0200
0320
1030
1001
,  // measure 41
0001
0000
0001
0000
0010
0100
0010
0000
,  // measure 42
0002
0203
2300
3200
,  // measure 43
0310
1000
0001
1001
,  // measure 44
2200
0300
3001
1001
,  // measure 45
0001
1000
0001
1000
,  // measure 46
0100
0010
0100
1000
,  // measure 47
0001
0100
1000
0100
,  // measure 48
0001
0001
1000
1000
,  // measure 49
0000
1001
0001
1000
,  // measure 50
0001
0010
0100
0010
,  // measure 51
0001
0001
0100
0100
,  // measure 52
2002
0000
3003
1001
,  // measure 53
1000
0100
0001
0100
,  // measure 54
1000
0100
0001
0100
,  // measure 55
1100
0000
0000
0000
0011
0000
0000
0000
0202
0000
0000
0303
0000
0000
0000
0000
,  // measure 56
2010
0000
0001
0100
,  // measure 57
3002
0000
0103
1001
,  // measure 58
0001
1000
0001
0000
1000
0000
0100
0000
,  // measure 59
1000
0010
0100
0001
,  // measure 60
1000
0001
1000
0000
0001
0000
0100
0000
,  // measure 61
0010
1000
0001
1001
,  // measure 62
2000
3001
0010
0001
,  // measure 63
1000
0010
1000
0100
,  // measure 64
0220
0000
0330
0110
,  // measure 65
2001
0000
3001
1001
,  // measure 66
1000
0010
1000
0000
0001
0000
0010
0000
,  // measure 67
0001
0100
0001
0000
1000
0000
0100
0000
,  // measure 68
0020
0000
0031
1000
0001
0000
0100
0000
,  // measure 69
0001
1000
0001
0000
0010
0000
0110
0000
,  // measure 70
2002
0000
3003
1001
,  // measure 71
1000
0010
0100
0001
,  // measure 72
0220
0000
0330
1001
,  // measure 73
1000
0100
0011
1100
,  // measure 74
0002
0000
0003
0220
,  // measure 75
0000
0000
0000
0330
;

//---------------dance-single - ----------------
#NOTES:
     dance-single:
     :
     Hard:
     9:
     0.656376,0.662366,0.453104,0.373612,0.504773,578.000000,521.000000,57.000000,47.000000,0.000000,0.000000,0.656376,0.662366,0.453104,0.373612,0.504773,578.000000,521.000000,57.000000,47.000000,0.000000,0.000000:
// measure 0
0000
0000
0000
0000
,  // measure 1
0000
0000
0000
0000
,  // measure 2
0000
0000
0000
0000
,  // measure 3
0000
0000
0000
0000
,  // measure 4
1001
0000
0000
0011
0000
0000
1001
0000
0000
0001
0000
0201
0000
0000
0000
0000
,  // measure 5
0301
0100
1000
0100
0001
0010
0000
0001
,  // measure 6
1001
0000
0000
1010
0000
0000
1001
0000
0000
1100
0000
2100
0000
0000
0000
0000
,  // measure 7
3010
0100
0010
0000
0001
0000
0010
0000
2000
0000
0000
0000
3001
0000
0000
0000
,  // measure 8
2001
0000
0000
0000
0000
0000
0010
0000
0000
0000
0010
0000
0000
0000
3001
1000
,  // measure 9
0002
0010
1000
0103
,  // measure 10
0002
0000
0000
0010
0000
0010
0000
0013
,  // measure 11
2002
0000
0000
3003
,  // measure 12
0001
0000
0100
0000
0001
0000
1000
0100
0000
1000
0100
0000
0001
0000
0100
0000
,  // measure 13
1000
0000
0010
0000
0100
0000
0010
0000
1000
0001
1000
0000
0100
0000
0010
0000
,  // measure 14
0001
0000
1000
0000
0001
0000
1000
0010
0000
1000
0010
0000
0100
0000
0001
0000
,  // measure 15
0011
1100
0101
1010
,  // measure 16
1000
0000
0100
0000
1000
0000
0001
0100
0000
0001
0100
0000
1000
0000
0100
0000
,  // measure 17
0001
0010
0100
0010
1000
0010
0100
0010
,  // measure 18
0001
0000
0100
0000
0010
0000
1000
0100
0000
1000
0100
0000
0010
0000
0001
0000
,  // measure 19
0200
0000
0300
1001
,  // measure 20
0001
0000
0010
0000
0100
0000
0010
0001
0000
0010
0001
0000
0100
0000
1000
0000
,  // measure 21
0100
0000
0001
0000
1000
0000
0100
0000
0010
0001
0010
0000
0100
0000
1000
0000
,  // measure 22
0001
0000
0100
0000
0010
0000
0100
0001
0000
0100
0001
0000
0010
0000
0100
0000
,  // measure 23
1100
0011
0101
1010
,  // measure 24
1000
0000
0100
0000
0010
0000
0100
1000
0000
0100
1000
0000
0010
0000
0001
0000
,  // measure 25
0010
1000
0010
0000
1000
0000
0000
0100
0000
0000
0001
0000
0100
0000
1000
0000
,  // measure 26
0001
0000
0100
0000
0010
0000
1000
0001
0000
1000
0001
0000
0010
0000
0100
0000
,  // measure 27
0120
0000
0000
0000
0000
0000
0031
0000
0002
0000
0000
0000
1003
0001
1000
0000
,  // measure 28
0002
0000
0000
0100
0000
0100
0000
0000
0100
0000
0103
0000
2001
0000
0000
0000
,  // measure 29
3100
0010
0000
0010
0001
0000
0100
0000
1000
0000
0100
0000
0001
0000
0010
0000
,  // measure 30
0100
1000
0000
0100
1000
0000
0001
0100
0000
0001
0100
0000
0010
0000
1000
0000
,  // measure 31
0001
0010
0000
0010
0100
0000
1000
0010
0000
0010
0100
0000
0001
0000
1000
0000
,  // measure 32
0100
0001
0100
1000
1010
0000
0101
0000
,  // measure 33
0100
0010
0000
0010
1000
0000
0100
0000
0001
0000
0100
0000
1000
0000
0010
0000
,  // measure 34
0100
0001
0000
0100
0001
0000
1000
0100
0000
1000
0100
0000
0010
0000
0001
0000
,  // measure 35
0000
1001
0000
0000
1000
0000
0001
0100
0000
0100
0010
0000
1000
0000
0001
0000
,  // measure 36
0010
1000
0001
0100
1000
0001
0201
0000
,  // measure 37
0310
0000
1000
0100
0000
0001
0000
0100
0000
1000
0000
0010
0000
0000
1000
0000
,  // measure 38
0001
0000
0010
0000
0001
1000
0001
0000
0200
0000
0000
0320
0000
0000
2030
0000
,  // measure 39
3001
0000
0010
0100
0000
0010
0000
0001
0000
0100
0000
0010
0000
0000
1000
0000
,  // measure 40
0001
0000
1000
0000
0100
0010
0100
0000
1000
0000
0100
0000
0110
0000
0000
0000
,  // measure 41
0010
0000
0001
0100
0000
1000
0000
0100
0000
0001
0000
0010
0000
0000
0001
0000
,  // measure 42
1000
0000
0010
0000
1000
0001
1000
0000
0200
0000
0000
0320
0000
0000
0032
0000
,  // measure 43
1003
0000
0000
1000
0000
0001
0000
0100
0000
0000
0100
0000
0110
0000
0000
0000
,  // measure 44
0010
1000
0001
0010
0011
0000
1100
0000
,  // measure 45
1000
0000
0020
0000
0000
0032
0000
0000
0023
0000
0000
2030
0000
0000
3200
0000
,  // measure 46
0310
0000
0200
0000
0000
0302
0000
0000
1003
0000
0020
0000
0000
0032
0000
0000
,  // measure 47
1003
0010
1000
0010
1000
0000
0001
0000
1000
0000
0100
0010
0000
0100
0010
0000
,  // measure 48
0001
1000
0001
1000
0001
0000
1000
0000
0010
0000
0001
0000
0010
0000
1000
0000
,  // measure 49
0001
0000
0000
0000
1001
0000
0001
0000
0020
0000
0000
0032
0000
0000
0203
0000
,  // measure 50
0310
0000
0200
0000
0000
2300
0000
0000
3001
0000
0020
0000
0000
2030
0000
0000
,  // measure 51
3100
0010
0100
0010
0100
0000
1000
0000
0001
0000
0100
0010
0000
0010
0100
0000
,  // measure 52
0001
0000
0001
0000
1000
0000
0100
0000
0100
0000
1000
0001
1000
0000
0000
0000
,  // measure 53
0001
0000
0100
0001
0000
0100
0001
0000
1000
0000
0100
1000
0000
0100
1000
0000
,  // measure 54
0001
0000
0010
0001
0000
0010
0001
0000
1000
0000
0010
1000
0000
0010
1000
0000
,  // measure 55
1010
0000
0000
0000
1001
0000
0000
0000
1100
0000
0000
0011
0000
0000
0002
0000
,  // measure 56
2000
0000
0000
0000
0003
0000
3000
0000
0001
0100
0001
0000
1000
0000
0100
0000
,  // measure 57
0020
0000
0031
0000
0100
0010
1001
0000
,  // measure 58
1000
0010
0000
0001
0000
0010
1000
0000
0100
0000
0010
0000
0100
0000
0000
0000
,  // measure 59
1000
0010
1000
0001
0010
0001
1000
0001
,  // measure 60
0100
0010
0000
1000
0000
0001
0010
0000
0100
0000
0010
0000
0001
0000
0000
0000
,  // measure 61
1000
0100
0001
0100
1000
0010
0102
0000
,  // measure 62
2003
0000
3001
0010
1000
0010
0001
0000
,  // measure 63
1000
0010
0100
0001
0010
0100
1000
0001
,  // measure 64
1001
0000
0000
0011
0000
0000
0110
0000
0000
0011
0000
0000
2001
0000
0000
0000
,  // measure 65
3010
0100
0010
0100
0010
0000
1000
0000
1001
0000
0000
0000
1001
0000
0000
0000
,  // measure 66
0001
0010
0000
0010
0001
0000
0100
0000
0010
0000
1000
0000
0100
0000
0001
0000
,  // measure 67
0100
0000
1000
0010
0000
0100
0001
0000
0010
0000
0100
0000
1000
0000
0001
0000
,  // measure 68
0200
0000
0000
0000
0310
0000
1000
0000
0100
0000
1000
0000
0010
0100
0010
0100
,  // measure 69
0001
0000
0010
0000
1000
0000
0010
0000
0001
0200
0000
0000
0310
0000
0000
0000
,  // measure 70
1001
0000
0000
1010
0000
0000
1001
0000
0000
1100
0000
0000
0011
0000
0001
0000
,  // measure 71
1000
0000
0010
0100
0000
0001
1000
0000
0100
0000
0001
0000
0100
0000
1000
0000
,  // measure 72
1100
0000
0000
0110
0000
0000
0011
0000
0000
1001
0000
0000
0201
0000
0000
0000
,  // measure 73
1300
0100
0001
0010
0110
0000
0110
0000
,  // measure 74
1000
0000
0100
0010
0000
0100
0000
0010
0001
0000
0100
0000
2002
0000
0000
0000
,  // measure 75
0000
0000
0000
3003
;

//---------------dance-single - ----------------
#NOTES:
     dance-single:
     :
     Medium:
     7:
     0.471273,0.451613,0.286171,0.238476,0.127187,415.000000,379.000000,36.000000,30.000000,0.000000,0.000000,0.471273,0.451613,0.286171,0.238476,0.127187,415.000000,379.000000,36.000000,30.000000,0.000000,0.000000:
// measure 0
0000
0000
0000
0000
,  // measure 1
0000
0000
0000
0000
,  // measure 2
0000
0000
0000
0000
,  // measure 3
0000
0000
0000
0000
,  // measure 4
0001
0000
0000
0010
0000
0000
0001
0000
0000
1000
0000
2000
0000
0000
0000
0000
,  // measure 5
3010
0000
1000
0100
0010
0000
0010
0100
,  // measure 6
1000
0000
0000
0010
0000
0000
1000
0000
0000
0001
0000
0002
0000
0000
0000
0000
,  // measure 7
0013
0100
1000
0001
0200
0000
0310
0000
,  // measure 8
2001
0000
0000
0010
0000
3010
0000
1000
,  // measure 9
0002
0010
1000
0103
,  // measure 10
0002
0000
0000
0010
0000
0013
0000
0000
,  // measure 11
2002
0000
0000
3003
,  // measure 12
1001
0000
1000
0000
0010
1000
0100
0010
,  // measure 13
0001
0000
0010
0001
0100
0010
1000
0000
,  // measure 14
0100
0000
1000
0000
0001
0100
0010
1000
,  // measure 15
0100
0011
1100
1001
,  // measure 16
1000
0000
0010
0000
0100
0001
0010
0100
,  // measure 17
1000
0000
0001
0100
1000
0000
1000
0100
,  // measure 18
0001
0000
0010
0000
0100
1000
0001
0100
,  // measure 19
0020
0000
0030
0110
,  // measure 20
1001
0000
0001
0000
1000
0100
0010
0001
,  // measure 21
0100
0000
0001
0100
1000
0100
0001
0000
,  // measure 22
1000
0000
0100
0000
0010
0100
1000
0001
,  // measure 23
0100
1010
0101
1001
,  // measure 24
0001
0000
1000
0000
0001
0010
0100
0000
,  // measure 25
1000
0000
0010
0000
0100
0000
0000
0001
0000
0000
1000
0000
0100
0000
0000
0000
,  // measure 26
0010
0000
0002
0000
0000
0000
1003
0000
0001
0000
0000
0001
0000
0000
0100
0000
,  // measure 27
0020
0100
0000
0100
0100
0000
0130
0000
,  // measure 28
2002
3003
1001
0011
,  // measure 29
1001
0000
1000
0010
1000
0100
0010
0000
,  // measure 30
0100
1000
0010
0000
0100
0001
0010
0000
,  // measure 31
0100
0000
0010
0001
1000
0010
0100
0000
,  // measure 32
0010
1000
0001
0000
0011
0000
1100
0000
,  // measure 33
1000
0000
0001
0010
0001
0100
0010
0000
,  // measure 34
0100
0001
0010
0000
0100
1000
0010
0000
,  // measure 35
0000
1000
0000
0000
1000
0000
0000
0000
0001
0000
0010
0000
0100
0000
0000
0000
,  // measure 36
1000
0001
1000
0001
0100
0010
1000
0000
,  // measure 37
0001
1000
0100
0000
1000
0001
0100
0000
,  // measure 38
0010
0000
1000
0000
0100
0000
0000
0000
0020
0000
0000
0032
0000
0000
2003
0000
,  // measure 39
3001
0100
0010
0000
1000
0100
0010
0000
,  // measure 40
0100
1000
0001
0100
0010
0000
0110
0000
,  // measure 41
0100
0001
1000
0000
0100
1000
0001
0000
,  // measure 42
0010
0000
0001
0000
0100
0000
0000
0000
0020
0000
0000
2030
0000
0000
3002
0000
,  // measure 43
1003
0000
0000
0001
0000
1000
0000
0001
0000
0000
1000
0000
0001
0000
0000
0000
,  // measure 44
1000
0100
0011
1100
,  // measure 45
0001
0000
0100
0000
0000
0001
0000
0000
1000
0000
0000
0001
0000
0000
0010
0000
,  // measure 46
0000
0000
0001
0000
0000
1000
0000
0000
0010
0000
1000
0000
0000
0001
0000
0000
,  // measure 47
1000
0000
0100
0000
0010
0000
0000
0000
0001
0000
0000
0100
0000
0000
0010
0000
,  // measure 48
1000
0001
1000
0000
1000
0010
1000
0000
,  // measure 49
0000
0000
0000
0000
1001
0000
0000
0000
1000
0000
0000
0100
0000
0000
0010
0000
,  // measure 50
0001
0000
1000
0000
0000
0001
0000
0000
0100
0000
0001
0000
0000
1000
0000
0000
,  // measure 51
0001
0000
0100
0000
0010
0000
0000
0000
1000
0000
0000
0100
0000
0000
0010
0000
,  // measure 52
0001
1000
0001
1000
0001
0000
1001
0000
,  // measure 53
1000
0100
0001
0000
0001
0100
1000
0000
,  // measure 54
0001
0100
1000
0000
1000
0100
0001
0000
,  // measure 55
0101
0000
0000
0000
1010
0000
0000
0000
1000
0000
0000
0001
0000
0000
2000
0000
,  // measure 56
0002
0000
3003
0000
0001
1000
0001
0000
,  // measure 57
2000
0000
3001
1001
,  // measure 58
1000
0010
0100
0001
1000
0000
0100
0000
,  // measure 59
0010
0001
1000
0000
1000
0001
0010
0000
,  // measure 60
0001
0100
0010
1000
0001
0000
1000
0000
,  // measure 61
0100
0010
0100
0010
0001
0000
1001
0000
,  // measure 62
2000
0000
3001
0100
0010
0100
0001
0000
,  // measure 63
1000
0100
0010
0000
0001
0100
0010
1000
,  // measure 64
0001
0000
0000
0001
0000
0000
1000
0000
0000
1000
0000
0000
0110
0000
0000
0000
,  // measure 65
2002
3003
1001
1001
,  // measure 66
1000
0100
0010
0100
1000
0000
0001
0000
,  // measure 67
1000
0010
0001
0000
0001
0010
1000
0000
,  // measure 68
0002
0000
0013
0100
0010
0001
1000
0000
,  // measure 69
0001
0100
1000
0100
0001
0000
1001
0000
,  // measure 70
1000
0000
0000
1000
0000
0000
0100
0000
0000
0100
0000
0000
0011
0000
0000
0000
,  // measure 71
0001
1000
0010
0000
1000
0001
0010
0000
,  // measure 72
0001
0000
0000
0001
0000
0000
0100
0000
0000
0100
0000
0000
1010
0000
0000
0000
,  // measure 73
2002
3003
1001
1001
,  // measure 74
1000
0000
0000
0100
0000
0010
0000
0000
0001
0000
0200
0000
0020
0000
0000
0000
,  // measure 75
0000
0000
0000
0330
;
